Reply to topic
DL-List and Torrent activity [Update пиров]
Size:  1.45 GB   |    Registered:  4 months 12 days   |    Completed:  3 times
Seeders:  55  [  0 KB/s  ]   Leechers:  13  [  0 KB/s  ]  
 
     
 
 
Author Message

Vi$itReal ®

12

Post 03-May-2019 06:25

[Quote]

Mieczysław Weinberg - Symphonies Nos. 2 & 21-- Формат записи/Источник записи: [TR24][OF]
Наличие водяных знаков: Нет
Год издания: 2019
Жанр: Classical
Издатель (лейбл): Deutsche Grammophon
Продолжительность: 01:28:59
Наличие сканов в содержимом раздачи: Буклет PDF
Контейнер: FLAC (*.flac)
Тип рипа: tracks
Разрядность: 24/96
Формат: PCM
Количество каналов: 2.0
Источник (релизер): prestomusic.com-Треклист
Symphony No. 2 op. 30 for String Orchestra (1946)
01. Allegro moderato
02. Adagio
03. Allegretto
Symphony No. 21 “Kaddish” op. 152 (1991)
04. Largo
05. Allegro molto
06. Largo
07. Presto
08. Andantino
09. Lento-City of Birmingham Symphony Orchestra · Kremerata Baltica
Gidon Kremer, solo violin
Maria Barns, soprano
Oliver Janes, clarinet
Georgijs Osokins, piano
Iurii Gavryliuk, double bass
Mirga Gražinytė-Tyla, conductor

Лог проверки качества

foobar2000 1.4 / Dynamic Range Meter 1.1.1log date: 2019-05-03 06:48:05
--------------------------------------------------------------------------------Analyzed: City Of Birmingham Symphony Orchestra / Weinberg: Symphonies Nos. 2 & 21 (1) Gidon Kremer / Weinberg: Symphonies Nos. 2 & 21 (2-5) Kremerata Baltica / Weinberg: Symphonies Nos. 2 & 21 (6-8) Maria Barns / Weinberg: Symphonies Nos. 2 & 21 (9)--------------------------------------------------------------------------------
DR Peak RMS Duration Track--------------------------------------------------------------------------------DR13 -1.45 dB -17.39 dB 6:03 05-2. Allegro moltoDR15 -2.91 dB -25.75 dB 18:37 04-1. LargoDR14 -1.61 dB -21.95 dB 5:38 06-3. LargoDR14 -1.46 dB -20.59 dB 3:12 07-4. PrestoDR14 -2.25 dB -23.24 dB 7:17 08-5. AndantinoDR14 -1.77 dB -22.25 dB 12:48 01-1. Allegro moderatoDR14 -5.35 dB -26.24 dB 11:11 02-2. AdagioDR15 -2.77 dB -23.32 dB 10:30 03-3. AllegrettoDR14 -1.46 dB -22.21 dB 13:50 09-6. Lento--------------------------------------------------------------------------------
Number of tracks: 9Official DR value: DR14Samplerate: 96000 HzChannels: 2Bits per sample: 24Bitrate: 2215 kbpsCodec: FLAC================================================================================

Об альбоме (сборнике)

Gražinytė-Tyla will release her debut album in May – a collection of orchestral works by Polish composer Mieczysław Weinberg, whose centenary falls this year.
She conducts the combined forces of the CBSO, Kremerata Baltica and violinist Gidon Kremer in Symphony No. 21 “Kaddish” – a major work completed in 1991 and dedicated to the victims of the Warsaw Ghetto.
She also directs Kremerata Baltica in the early Symphony No. 2.
[doutdess.net].t334410.torrent
Torrent: Registered [ 2019-05-03 06:25 ] · 72FA55BFE42EA7A39BF035A399D5E3FD7327213A

16 KB

Status: checked
Completed: 3 times
Size: 1.45 GB
[TR24][OF] Weinberg - Symphonies Nos. 2 & 21- Gidon Kremer, City Of Birmingham Symphony Orchestra, Kremerata Baltica, Mirga Grazinyte-Tyla - 2019 (Classical) скачать торрент бесплатно и без регистрации

[Profile] [PM]
Forum Topic Author Size
Классика в современной обработке, Classical Crossover lossy и lossless [TR24][OF] (Hi-Res)Marion Treupel-Franck - Voice of the Soul - Flute Music by Jean Daniel Braun - 2017, FLAC (tracks) lossless, (Classical, Baroque Era) Vi$itReal 678 MB
Этническая музыка Индии lossless [TR24][OF] (Indian Classical, Sitar, World Music) [WEB] Anoushka Shankar - Home - 2015, FLAC (tracks), lossless RelizMAN 598 MB
Саундтреки к играм lossless [TR24][OF] (Score) [WEB] Sudden Strike 4 (Original Game Soundtrack) (by Peter Antovszki) - 2017, FLAC (tracks), lossless RelizMAN 424 MB
Hi-Res stereo и Многоканальная музыка Саундтреки [TR24][OF] 2Cellos - Score - 2017 (Symphonic Rock) RelizMAN 608 MB
Hi-Res stereo классика и классика в современной обработке [TR24][OF] A French Baroque Diva: Arias for Marie Fel by Rameau, Lacoste, Lalande, Rousseau, Fiocco, Mondonville (Carolyn Sampson, Ex Cathedra & Jeffrey Skidmore) - 2014 (Baroque, Opera, Vocal,... Vi$itReal 1.37 GB
Hi-Res stereo классика и классика в современной обработке [TR24][OF] A Sousa Celebration - Royal Scottish National Orchestra, Kristjan Jarvi - 2017 (Classical) Vi$itReal 1.21 GB
Hi-Res stereo классика и классика в современной обработке [TR24][OF] A Vaughan Williams Christmas - Chapel Choir Of The Royal Hospital Chelsea, William Vann - 2018 (Classical) Vi$itReal 1.18 GB
Hi-Res stereo классика и классика в современной обработке [TR24][OF] A. Vivaldi: Dorilla in Tempe, RV 709 (Romina Basso, Serena Malfi, Marina de Liso, Lucia Cirillo, Sonia Prina|Coro della Radiotelevisione Svizzera I Barocchisti, Diego Fasolis) - 2017... Vi$itReal 2.88 GB
Display posts:    

Current time is: 15-Sep 21:59

All times are UTC + 3



You cannot post new topics in this forum
You cannot reply to topics in this forum
You cannot edit your posts in this forum
You cannot delete your posts in this forum
You cannot vote in polls in this forum
You cannot attach files in this forum
You can download files in this forum