Reply to topic
DL-List and Torrent activity [Update пиров]
Size:  331 MB   |    Registered:  3 years 11 months   |    Completed:  0 times
Seeders:  397  [  0 KB/s  ]   Leechers:  16  [  0 KB/s  ]  
 
     
 
 
Author Message

RelizMAN ®

11

Post 18-Sep-2015 15:40

[Quote]

Lestari. The Hood Collection of Early Field Recordings from Java
Жанр: World music
Год издания диска: 2007
Издатель (лейбл): WERGO
Аудиокодек: FLAC
Тип рипа: tracks+.cue
Битрейт аудио: lossless
Продолжительность: 1:18:09
Источник: собственный рип
Треклист:
01. Lagon Tlutur (slendro pathet manyura)
02. Ladrang Asmarandana (slendro pathet manyura)
03. Jineman Uler Kambang (slendro pathet sanga)
04. Ketawang Tarupala (slendro pathet manyura)
05. Budak Ceurik
06. Ketawang Langen Gita Srinarendra (pelog pathet barang)
07. Kidung
08. Ladrang Kandamanyura (slendro pathet manyura)
09. Bandjaran
10. Gendhing Rambu (pelog pathet lima)

Лог создания рипа

Exact Audio Copy V1.0 beta 4 from 7. December 2014
EAC extraction logfile from 18. January 2015, 13:59
Lestari / The Hood Collection, Java
Used drive : MATSHITADVD-RAM UJ8E2 S Adapter: 1 ID: 0
Read mode : SecureUtilize accurate stream : YesDefeat audio cache : YesMake use of C2 pointers : No
Read offset correction : 103Overread into Lead-In and Lead-Out : NoFill up missing offset samples with silence : YesDelete leading and trailing silent blocks : NoNull samples used in CRC calculations : YesUsed interface : Native Win32 interface for Win NT & 2000Gap handling : Appended to previous track
Used output format : User Defined EncoderSelected bitrate : 1024 kBit/sQuality : HighAdd ID3 tag : NoCommand line compressor : C:\Program Files (x86)\Exact Audio Copy\Flac\flac.exeAdditional command line options : -8 -V -T "ARTIST=%artist%" -T "TITLE=%title%" -T "ALBUM=%albumtitle%" -T "DATE=%year%" -T "TRACKNUMBER=%tracknr%" -T "GENRE=%genre%" -T "PERFORMER=%albuminterpret%" -T "COMPOSER=%composer%" %haslyrics%--tag-from-file=LYRICS="%lyricsfile%"%haslyrics% -T "ALBUMARTIST=%albumartist%" -T "DISCNUMBER=%cdnumber%" -T "TOTALDISCS=%totalcds%" -T "TOTALTRACKS=%numtracks%" -T "COMMENT=%comment%" %source% -o %dest%
TOC of the extracted CD
Track | Start | Length | Start sector | End sector --------------------------------------------------------- 1 | 0:00.00 | 1:28.30 | 0 | 6629 2 | 1:28.30 | 11:14.65 | 6630 | 57244 3 | 12:43.20 | 7:50.30 | 57245 | 92524 4 | 20:33.50 | 3:37.54 | 92525 | 108853 5 | 24:11.29 | 6:05.21 | 108854 | 136249 6 | 30:16.50 | 14:03.35 | 136250 | 199509 7 | 44:20.10 | 3:45.38 | 199510 | 216422 8 | 48:05.48 | 8:03.06 | 216423 | 252653 9 | 56:08.54 | 8:15.57 | 252654 | 289835 10 | 64:24.36 | 13:44.19 | 289836 | 351654
Track 1
Filename C:\EAC Rips\Lestari - The Hood Collection, Java [WERGO, 2007]\01 Lagon Tlutur.wav
Pre-gap length 0:00:02.00
Peak level 39.7 % Extraction speed 1.7 X Track quality 100.0 % Copy CRC 3B69F1F5 Accurately ripped (confidence 2) [B036C466] (AR v1) Copy OK
Track 2
Filename C:\EAC Rips\Lestari - The Hood Collection, Java [WERGO, 2007]\02 Ladrang Asmarandana.wav
Peak level 58.5 % Extraction speed 3.1 X Track quality 100.0 % Copy CRC 6A47F2BE Accurately ripped (confidence 2) [84D1E7B6] (AR v1) Copy OK
Track 3
Filename C:\EAC Rips\Lestari - The Hood Collection, Java [WERGO, 2007]\03 Jineman Uler Kambang.wav
Peak level 41.0 % Extraction speed 3.6 X Track quality 100.0 % Copy CRC 846C7E4E Accurately ripped (confidence 2) [BB797A84] (AR v1) Copy OK
Track 4
Filename C:\EAC Rips\Lestari - The Hood Collection, Java [WERGO, 2007]\04 Ketawang Tarupala.wav
Peak level 34.9 % Extraction speed 3.6 X Track quality 100.0 % Copy CRC 8CCE9F1F Accurately ripped (confidence 2) [CEA12560] (AR v1) Copy OK
Track 5
Filename C:\EAC Rips\Lestari - The Hood Collection, Java [WERGO, 2007]\05 Budak Ceurik.wav
Peak level 31.7 % Extraction speed 4.1 X Track quality 100.0 % Copy CRC 7B36B2FF Accurately ripped (confidence 2) [380B1657] (AR v1) Copy OK
Track 6
Filename C:\EAC Rips\Lestari - The Hood Collection, Java [WERGO, 2007]\06 Ketawang Langen Gita Srinarendra.wav
Peak level 35.7 % Extraction speed 4.7 X Track quality 100.0 % Copy CRC 8EF24708 Accurately ripped (confidence 2) [A8B16B5A] (AR v1) Copy OK
Track 7
Filename C:\EAC Rips\Lestari - The Hood Collection, Java [WERGO, 2007]\07 Kidung.wav
Peak level 27.0 % Extraction speed 4.1 X Track quality 100.0 % Copy CRC 46DF941B Accurately ripped (confidence 2) [5B0BBB7B] (AR v1) Copy OK
Track 8
Filename C:\EAC Rips\Lestari - The Hood Collection, Java [WERGO, 2007]\08 Ladrang Kandamanyura.wav
Peak level 24.9 % Extraction speed 4.3 X Track quality 99.9 % Copy CRC B0981196 Accurately ripped (confidence 2) [90D4AD1C] (AR v1) Copy OK
Track 9
Filename C:\EAC Rips\Lestari - The Hood Collection, Java [WERGO, 2007]\09 Bandjaran.wav
Peak level 49.4 % Extraction speed 5.3 X Track quality 100.0 % Copy CRC AA34649B Accurately ripped (confidence 2) [85BECDDA] (AR v1) Copy OK
Track 10
Filename C:\EAC Rips\Lestari - The Hood Collection, Java [WERGO, 2007]\10 Gendhing Rambu.wav
Peak level 97.1 % Extraction speed 5.8 X Track quality 100.0 % Copy CRC 1F5A5566 Accurately ripped (confidence 2) [1768E202] (AR v1) Copy OK
All tracks accurately ripped
No errors occurred
End of status report
==== Log checksum 03A6795D617F56866B3C5E08968DC174355EEBC3C4715CFD5FF0F25562834157 ====

Содержание индексной карты (.CUE)

REM GENRE "World Music"REM DATE 2007REM DISCID 9412500AREM COMMENT "ExactAudioCopy v1.0b4"CATALOG 4010228171228PERFORMER "Lestari"TITLE "The Hood Collection, Java"FILE "01 Lagon Tlutur.wav" WAVE TRACK 01 AUDIO TITLE "Lagon Tlutur" PERFORMER "Lestari" ISRC DEC445706398 FLAGS DCP INDEX 01 00:00:00FILE "02 Ladrang Asmarandana.wav" WAVE TRACK 02 AUDIO TITLE "Ladrang Asmarandana" PERFORMER "Lestari" ISRC DEC445806399 FLAGS DCP INDEX 01 00:00:00FILE "03 Jineman Uler Kambang.wav" WAVE TRACK 03 AUDIO TITLE "Jineman Uler Kambang" PERFORMER "Lestari" ISRC DEC445706400 FLAGS DCP INDEX 01 00:00:00FILE "04 Ketawang Tarupala.wav" WAVE TRACK 04 AUDIO TITLE "Ketawang Tarupala" PERFORMER "Lestari" ISRC DEC445706401 FLAGS DCP INDEX 01 00:00:00FILE "05 Budak Ceurik.wav" WAVE TRACK 05 AUDIO TITLE "Budak Ceurik" PERFORMER "Lestari" ISRC DEC445806402 FLAGS DCP INDEX 01 00:00:00FILE "06 Ketawang Langen Gita Srinarendra.wav" WAVE TRACK 06 AUDIO TITLE "Ketawang Langen Gita Srinarendra" PERFORMER "Lestari" ISRC DEC445706403 FLAGS DCP INDEX 01 00:00:00FILE "07 Kidung.wav" WAVE TRACK 07 AUDIO TITLE "Kidung" PERFORMER "Lestari" ISRC DEC445806404 FLAGS DCP INDEX 01 00:00:00FILE "08 Ladrang Kandamanyura.wav" WAVE TRACK 08 AUDIO TITLE "Ladrang Kandamanyura" PERFORMER "Lestari" ISRC DEC445706405 FLAGS DCP INDEX 01 00:00:00FILE "09 Bandjaran.wav" WAVE TRACK 09 AUDIO TITLE "Bandjaran" PERFORMER "Lestari" ISRC DEC445806406 FLAGS DCP INDEX 01 00:00:00FILE "10 Gendhing Rambu.wav" WAVE TRACK 10 AUDIO TITLE "Gendhing Rambu" PERFORMER "Lestari" ISRC DEC445706407 FLAGS DCP INDEX 01 00:00:00
[doutdess.net].t78146.torrent
Torrent: Registered [ 2015-09-18 15:30 ] · FCDFE6A9156990BDC9887DA5AA3519B39B624935

16 KB

Status: checked
Completed: 0 times
Size: 331 MB
(World music) VA - Lestari. The Hood Collection of Early Field Recordings from Java - 2007, FLAC (tracks+.cue) lossless скачать торрент бесплатно и без регистрации

[Profile] [PM]
Forum Topic Author Size
Этническая музыка Северной и Южной Америки lossy ((World music / Panflute/ Folk)) Chakira - Il Flauto Di Pan, El Siku / La Puerta Del Sol (2 альбома) - 2000, 2002, MP3, 320 kbps RelizMAN 279 MB
Саундтреки к играм lossy (Soundtrack) Assassin\'s Creed Odyssey (World Music & Sea Shanties Edition) (by Various Artists) - 2018, MP3, 320 kbps Vi$itReal 103 MB
Этническая музыка Австралии, Тихого и Индийского океанов lossy и lossless (World music ) [CD] Bob Brozman & Ledward Kaapana - Kika Kila Meets Ki Ho\'alu - 1997, FLAC (image+.cue), lossless RelizMAN 426 MB
Этническая музыка Африки и Ближнего Востока lossless (World music / Ethnic / Middle Eastern) [CD] Ofra Haza - Tzipori - 2014, FLAC (tracks+.cue), lossless RelizMAN 444 MB
Фламенко и акустическая гитара lossy (World Music / Meditative) Estas Tonne - Дискография (27 релизов) - 2002-2018, MP3, 320 kbps Vi$itReal 2.3 GB
Этническая музыка Африки и Ближнего Востока lossy (World music | Afro-beat) Geoffrey Oryema - Beat The Border - 2018 (1993), MP3, 320 kbps Vi$itReal 124 MB
Этническая музыка Кавказа и Закавказья lossy и lossless (World music) Alim Qâsimov: Anthologie du Muğam d’Azerbaïdjan / Alim Qasimov: Anthology Of The Mugam. Azerbaijan (vol. 1–2, Inedit, 1989...2005), FLAC (tracks+.cue) lossless Vi$itReal 550 MB
Этническая музыка Северной и Южной Америки lossless (World Music) Andy Palacio & The Garifuna Collective - Watina - 2007, FLAC (tracks+.cue), lossless Vi$itReal 282 MB
Display posts:    

Current time is: 18-Sep 02:33

All times are UTC + 3



You cannot post new topics in this forum
You cannot reply to topics in this forum
You cannot edit your posts in this forum
You cannot delete your posts in this forum
You cannot vote in polls in this forum
You cannot attach files in this forum
You can download files in this forum