Search found 209 matches

Author Message

RelizMAN

Post 05-Dec-2019 13:45

[Quote]

Various - The Music Of Red Dead Redemption 2: Original Soundtrack
Жанр: Soundtrack
Носитель: LP
Год выпуска: 2019
Лейбл: Lakeshore Records
Страна-производитель: USA
Аудио кодек: FLAC
Тип рипа: image+.cue
Формат записи: 24/192
Формат раздачи: 24/192
Продолжительность: 42:44
Треклист:
1 –D'Angelo - Unshaken
2 –Daniel Lanois, Daryl Johnson, Joseph Maize, Darryl Hatcher & Rhiannon Giddens - Moonlight
3 –Daniel Lanois - That's the Way It Is
4 –Daniel Lanois - Mountain Finale
5 –Rocco Deluca - Crash of Worlds
6 –Willie Nelson - Cruel World
7 –Daniel Lanois - Red
8 –Rhiannon Giddens - Mountain Hymn
9 –Rhiannon Giddens - Mountain Banjo
10 –Daniel Lanois - Table Top
11 –Daniel Lanois - Love Come Back
12 –Daniel Lanois - Oh My Lovely
13 –Josh Homme - Cruel World
Источник оцифровки: автором раздачи
Код класса состояния винила: Mint
Устройство воспроизведения: Micro Seiki DD-8 + Zyx R100 Fuji
Предварительный усилитель: PS audio Phono Stage + Tube Preamp (Telefunken)
АЦП: TASCAM HS-P82
Обработка: Удалял щелчки

Спектр, Уровень записи, АЧХ

Доп. информация:
Спонсоры раздачи Neyasut и raven1 за что им огромная благодарность!
Данный материал предоставлен исключительно для ознакомления. Рекомендую приобрести лицензионную продукцию.

RelizMAN

Post 12-Nov-2019 02:05

[Quote]

Rodgers And Hammerstein - Various - The Sound Of Music - An Original Soundtrack Recording - 1972
Жанр: Pop, Stage & Screen
Носитель: LP
Год выпуска: 1972
Лейбл: SX-457
Страна-производитель: Japan
Аудио кодек: FLAC
Тип рипа: image+.cue
Формат записи: 24/96
Формат раздачи: 24/96
Продолжительность: 00:47:30
Источник оцифровки: автором раздачи
Код класса состояния винила: VG
Устройство воспроизведения: Pro-Ject RPM 10 Carbon
Головка звукоснимателя: Clearaudio da Vinci V2
Предварительный усилитель: авторский
АЦП: AK5394 + Flamenco Lite USB
Программа-оцифровщик: Sony Sound Forge 11.0
Обработка: нет
Треклист
01. Prelude/The Sound of Music (2:36)
02. Overture and Preludium [Dixit Dominus] - Nuns Chorus (3:15)
03. Morning Hymn/Alleluia - Nuns Chorus (2:03)
04. Maria - Nuns Chorus (3:18)
05. I Have Confidence (3:27)
06. Sixteen Going on Seventeen - Charmian Carr (3:17)
07. My Favorite Things (2:19)
08. Climb Ev'ry Mountain (2:17)
09. Lonely Goatherd (3:10)
10. Sound of Music (2:11)
11. Do-Re-Mi (5:34)
12. Something Good (3:17)
13. Processional/Maria - Nuns Chorus (2:28)
14. Edelweiss (1:50)
15. So Long, Farewell (2:56)
16. Climb Ev'ry Mountain (Reprise) (1:24)

Уровень записи + Спектр + АЧХ

RelizMAN

Post 10-Nov-2019 16:30

[Quote]

Prince And The Revolution ‎– Purple Rain (1st japan press)
Жанр: Soundtrack, Pop Rock, Synth-pop, Funk
Носитель: LP
Год выпуска: 25 Jul 1984
Лейбл: Warner Bros. Records ‎– P-13021
Страна-производитель: Japan
Аудио кодек: DSD128
Тип рипа: tracks
Формат записи: 1/5.6
Формат раздачи: 1/5.6
Продолжительность: 43:51
Треклист:
A1 Let's Go Crazy 4:39
A2 Take Me With U 3:54
A3 The Beautiful Ones 5:15
A4 Computer Blue 3:59
A5 Darling Nikki 4:15
B1 When Doves Cry 5:52
B2 I Would Die 4 U 2:51
B3 Baby I'm A Star 4:20
B4 Purple Rain 8:45
Источник оцифровки: автором раздачи
Код класса состояния винила: NM
Устройство воспроизведения: Pro-Ject DEBUT CARBON RecordMaster HiRes
Головка звукоснимателя: Ortofon 2M Bronze
Предварительный усилитель: встроенный фонокорректор
АЦП: Asahi Kasei Microdevices AK5552VN
Программа-оцифровщик: VinylStudio 10.0.2
Обработка: none

Спектр


АЧХ


Уровень записи


Сэмпл

Bass, Vocals – Brownmark
Cello – Novi Novog
Guitar, Vocals – Wendy Melvoin
Keyboards, Vocals – Lisa Coleman, Matt Fink
Percussion – Bobby Z.
Producer, Arranged By, Composed By, Performer – Prince And The Revolution
Strings – David Coleman (2) (tracks: A2, B3, B4)
Violin – Suzie Katayama
Доп. информация: Music from the Motion picture 'Purple Rain'.
Come with obi strip, lyrics Insert and fold out poster.

RelizMAN

Post 10-Nov-2019 13:15

[Quote]

Various - White Nights
Жанр: Soundtrack
Носитель: LP
Год выпуска: 1985
Лейбл: Atlantic - 78 12731
Страна-производитель: Canada
Аудио кодек: DSD
Тип рипа: tracks
Формат записи: 1/5.6 MHz
Формат раздачи: 1/5.6 MHz
Продолжительность: 00:43:00
Треклист:
A1 Seperate Lives (Love Theme From White Nights) - Phil Collins And Marilyn Martin 4:06
A2 Prove Me Wrong - David Pack 4:19
A3 Far Post - Robert Plant 4:43
A4 People On A String - Roberta Flack 4:01
A5 This Is Your Day - Sandy Stewart And Nile Rodgers 3:46
B1 Snake Charmer - John Hiatt 3:42
B2 The Other Side Of The World - Chaka Khan 3:33
B3 My Love Is Chemical - Lou Reed 4:30
B4 Tapdance - David Foster 4:45
B5 People Have Got To Move - Jenny Burton 4:20
Источник оцифровки: автором раздачи
Код класса состояния винила: NM
Устройство воспроизведения: Victor QL-Y55F
Головка звукоснимателя: Denon DL-301
Предварительный усилитель: Andronnikov v.2
АЦП: RME ADI-2 PRO fs
Программа-оцифровщик: Internet Sound It!
Обработка: No

Спектр треков А1 и В1

АЧХ и уровень записи треков А1 и В1

Сэмпл

Любой трек

RelizMAN

Post 26-Oct-2019 19:00

[Quote]

"Married to the mob"
Жанр: Soundtrack
Носитель: LP
Год выпуска: 1988
Лейбл: Reprise Records 1-25763
Страна-производитель: USA
Аудио кодек: WavPack
Тип рипа: image+.cue
Формат записи: 32/192
Формат раздачи: 32/192
Продолжительность: 00:37:34
Треклист:
Side one:
1. Jump in the river/Sinead O'Connor
2. Bizarre love triangle/New Order
3. Suspicion of love/Chris Isaak
4. Liar,liar/Debbie Harry
5. Time bums/Ziggy Marley and the Melody Makers
6. The rowe
Side two:
1. Devil does your dog bite?/Tom Tom Club
2. Goodbye horses/Q.Lazzarus
3. Queen of voodou/The Voodooist Corporation
4. Too far gone/The Feelies
5. You don't miss your water/Brian Eno
Источник оцифровки: автором раздачи
Код класса состояния винила: Ex
Устройство воспроизведения: АРКТУР - 006
Головка звукоснимателя: Technics EPC-U25
Предварительный усилитель: PIONEER A-305R
АЦП: CS4270-Cirrus Logic STEINBERG UR22 MKII
Программа-оцифровщик: Adobe Audition CC 2019
Обработка: нет

Спектр


АЧХ


Уровень записи


Доп. информация: Класс винила Exellent

RelizMAN

Post 09-Oct-2019 21:10

[Quote]

Ночная клиника / Yoru no Shinsatsushitsu
Жанр: Score, Jazz, Dialogue
Композитор: Harumi Ibe
Носитель: LP
Год выпуска: 1980
Лейбл: Minoruphone (KC-8038)
Страна-производитель: Япония
Аудио кодек: FLAC
Тип рипа: tracks
Формат раздачи: 24/48
Продолжительность: 00:52:01
Треклист:
01. Prologue: Daiichi no Shinsatsu (6:43)
02. Aru Fuufu, Aru Yoru (2:35)
03. Seishin Bunseki Test Card (2:08)
04. Kissaten de no Deai (4:47)
05. Funou Genin Hakken Taiseikou (4:12)
06. Daini no Shinsatsu (1:35)
07. Otona no Omocha ya de no Deeto (2:00)
08. Otto no Kokuhaku (3:17)
09. Kozue no Ijouna Taiken (3:38)
10. Machikado de no Wakare (3:58)
11. Ai no Kokuhaku (7:12)
12. Sakaki no Himitsu (6:17)
13. Ai no Genshi Bakudan (3:39)
Источник оцифровки: другой трекер
Код класса состояния винила: Ex
Устройство воспроизведения: Technics SL1200mk5
Головка звукоснимателя: Audio-Technica AT-OC9ML/II
Предварительный усилитель: Lehmann Audio Black Cube Statement
АЦП: Apogee Duet 2 for Mac
Программа-оцифровщик: Adobe Audition CC
Обработка: iZotope RX 6 Declicker, Denoiser

Условия оцифровки

Vinyl records:
CARTRIDGE: Audio-Technica AT-OC9ML/II
TURNTABLE: Technics SL-1200mk5
PHONO STAGE: Lehmann Audio Black Cube Statement
SOUND CARD: Apogee Duet 2 for Mac
RECORD CLEANING MACHINE: Record Doctor V (vacuum RCM)
RECORD CLEANING LIQUID: Audio Intelligent Enzymatic Formula (3 min soak) then Super Cleaner (1.5 min soak) or Premium One-Step Formula no. 6 (6 min soak)
STYLUS CLEANING: Onzow Zerodust
Computer:
RECORDING SOFTWARE: Adobe Audition CC
OS: Mac OS X 10.9 "Mavericks"
POST-PROCESSING SOFTWARE: iZotope RX 6 Declicker, Denoiser
Vinyl: iZotope DeClicker and Audition's built-in declicker plugin were used to eliminate clicks and pops. Manual declicking is used. iZotope DeNoiser was used to eliminate any low-frequency rumble (below 40 Hz)
Everything is normalized to -0.1 dB, as is without any compression applied.
Record condition: EX
Mono release. Ripped in stereo then folded into mono.

Спектры

RelizMAN

Post 30-Sep-2019 19:20

[Quote]

Giorgio Moroder & Raney Shockne – Queen Of The South (Original Series Soundtrack)
Жанр: Synthwave, Ambient, Soundtrack, Synth-pop
Носитель: 2 LP
Год выпуска: 2019
Лейбл: Invada/Lakeshore Records/fox21 television studios
Каталожный номер: LSINV212LP
Страна-производитель: UK
Аудио кодек: WavPack
Тип рипа: image+.cue
Формат записи: 32/192
Формат раздачи: 32/192
Продолжительность: 01.12.04
Источник оцифровки: автором раздачи
Код класса состояния винила: Mint
Устройство воспроизведения: Homemade
Головка звукоснимателя: Micro Seiki M7000/5
Предварительный усилитель: Marantz PM-5
АЦП: Roland Quad-Capture
Программа-оцифровщик: WaveLab 6
Обработка: FadeIn/FadeOut

Треклист

A1.The Queen Of The South
A2.Escapar
A3.Cemetry Stroll
A4.Everybody Wants To Rule The World
A5.The Lifestyle
A6.Saga De Sangre
B7.The Gospel Of Teresa
B8.Perico
B9.Sinaloa
B10.The Book Of Falling Kings
B11.One Way Or Another
B12.Moyocoyotzin
C13.Cuerno De Chivo
C14.Amarrar
C15.Halcones
C16.Sacrament For The Mule
C17.Fusilados
C18.Transport
C19.Pozolero
C20.Confession
D21.The Turn
D22.Hangman
D23.Levanton
D24.A Queen Is Born Not Made
D25.Dreaming Of Spain
D26.La Pared
D27.Tarnished Crown
D28.The Color Of Snow

Спектр


АЧХ


Уровень записи


RelizMAN

Post 29-Sep-2019 10:50

[Quote]

АЛЕКСАНДРА ПАХМУТОВА
Из музыки к к/ф "Девчата"
- :
:

Жанр: Музыка советского кино
Носитель: 7" (17,5 см)
Год выпуска: 1962
Лейбл: ВСГ (Д 00012313-4)
Страна-производитель: СССР
Аудио кодек: FLAC
Тип рипа: image+.cue
Формат записи: 24/96
Формат раздачи: 24/96
Продолжительность: 00:11:46
Наличие сканов: да
Треклист:
1А. Песня подруг (М. Матусовский)
2А. Танго
1В. Старый клён (М. Матусовский)
2В. Вальс
Вокальный квартет «Улыбка» (1) *
Люсьена Овчинникова и Николай Погодин (3)
Эстрадный оркестр п/у Юрия Силантьева
* на пластинке обозначен как женский вокальный ансамбль
:

Тех. данные:

Класс состояния: Vg+ Источник оцифровки: автором раздачи Устройство воспроизведения: Revox B790
Головка звукоснимателя: ATVM610 mono
Предварительный усилитель: Clearaudio Phonostage NPV2
АЦП: FireWire Audiophile Программа-оцифровщик: Wave Lab 5
Обработка: архивная реставрация (iZotipe RX2)

RelizMAN

Post 20-Sep-2019 05:45

[Quote]

Andrew Lloyd Webber & Tim Rice - Jesus Christ Superstar
Жанр: Classic Rock
Носитель: LP
Год выпуска: 1970
Лейбл: MCA Records
Страна-производитель: Japan
Аудио кодек: FLAC
Тип рипа: image+.cue
Формат записи: 24/192
Формат раздачи: 24/192
Продолжительность: 01:27:31
Треклист:
A1 Overture
A2 Heaven On Their Minds
A3 What's The Buzz / Strange Thing Mystifying
A4 Everything's Alright
A5 This Jesus Must Die
B1 Hosanna
B2 Simon Zealotes / Poor Jerusalem
B3 Pilate's Dream
B4 The Temple
B5 Everything's Alright
B6 I Don't Know How To Love Him
B7 Damned For All Time / Blood Money
C1 The Last Supper
C2 Gethsemane (I Only Want To Say)
C3 The Arrest
C4 Peter's Denial
C5 Pilate And Christ
C6 King Herod's Song (Try It And See)
D1 Judas' Death
D2 Trial Before Pilate (Including The 39 Lashes)
D3 Superstar
D4 Crucifixion
D5 John Nineteen: Forty One
Источник оцифровки: автором раздачи
Код класса состояния винила: Mint
Устройство воспроизведения: Transrotor Zet 1
Головка звукоснимателя: Van Den Hul The Colibri
Предварительный усилитель: Coda 06X
АЦП: RME Fireface
Программа-оцифровщик: ProTools
Обработка: шаманил

Спектр

АЧХ

Уровень записи

RelizMAN

Post 14-Sep-2019 12:15

[Quote]

Машина Времени - Музыка Под Снегом (1987)
(из кинофильма «Начни сначала»)
- Жанр: Soundtrack, Soft Rock
Носитель: 7"-45 RPM, Repress
Год выпуска: 1986/87
Лейбл: Мелодия - С62 24719-20 002
Страна-производитель: USSR
Аудио кодек: FLAC
Тип рипа: tracks
Формат записи: 24/192
Формат раздачи: 24/96
Продолжительность: 00:08:59
Источник оцифровки: автором раздачи
Код класса состояния винила: VG
Устройство воспроизведения: Электроника ЭП 017С
Головка звукоснимателя: ГЗМ-053
Предварительный усилитель: AMX - 100 (LTO®)
АЦП: ESI [email protected]
Программа-оцифровщик: Adobe Audition
Обработка: удаление артефактов-Треклист:
01. Музыка Под Снегом
02. Пока Горит Свеча
-

Конверт, пластинка:

-

Dynamic Range Meter (DR13):

foobar2000 1.1.3 / Dynamic Range Meter 1.1.1log date: 2019-09-14 14:05:35
--------------------------------------------------------------------------------Analyzed: Машина времени / Музыка под снегом--------------------------------------------------------------------------------
DR Peak RMS Duration Track--------------------------------------------------------------------------------DR14 -0.10 dB -16.18 dB 4:39 ?-Музыка Под СнегомDR12 -0.10 dB -15.73 dB 4:20 ?-Пока Горит Свеча--------------------------------------------------------------------------------
Number of tracks: 2Official DR value: DR13
Samplerate: 96000 HzChannels: 2Bits per sample: 24Bitrate: 2748 kbpsCodec: FLAC================================================================================

Уровень записи, спектр, АЧХ:

- -

RelizMAN

Post 03-Sep-2019 12:00

[Quote]

"My Fair Lady"/"Моя прекрасная леди" (1964)
Жанр: The Original Sound Track Recording
Носитель: LP
Год выпуска: 1964
Лейбл: CBS
Страна-производитель: Holland
Аудио кодек: FLAC
Тип рипа: image+.cue
Формат записи: 24/192 stereo
Формат раздачи: 24/96 stereo
Продолжительность: 00:53:50
Источник оцифровки: автором раздачи
Код класса состояния винила: VG
Устройство воспроизведения: Электроника ЭП 017С
Головка звукоснимателя: ГЗМ-053
Фонокоректор: AMX - 100 (LTO®)
АЦП: ESI [email protected]
Программа-оцифровщик: Adobe Audition
Код класса состояния винила: VG
Обработка: удаление артефактов-

Трэклист:

01. Overture
02. Why Can't The English?
03. Wouldn't It Be Loverly
04. I'm Just An Ordinary Man
05. With A Little Bit Of Luck
06. Just You Wait
07. The Rain In Spain
08. I Could Have Danced All Night
09. Ascot Gavote
10. On The Street Where You Live
11. You Did It
12. Show Me
13. Get Me To The Church On Time
14. A Hymn To Him
15. Without You
16. I've Grown Accustomed To Her Face

Конверт, наклейки:


Уровень записи, спектр, АЧХ:

Dynamic Range Meter (DR13):

foobar2000 1.1.3 / Dynamic Range Meter 1.1.1log date: 2019-09-03 13:55:04
--------------------------------------------------------------------------------Analyzed: Audrey Hepburn, Rex Harrison / My Fair Lady (The Original Sound Track Recording)--------------------------------------------------------------------------------
DR Peak RMS Duration Track--------------------------------------------------------------------------------DR13 -1.43 dB -16.77 dB 3:38 ?-01. OvertureDR15 -0.10 dB -17.47 dB 2:38 ?-02. Why Can't The English?DR13 -2.19 dB -18.27 dB 4:27 ?-03. Wouldn't It Be LoverlyDR14 -0.10 dB -17.78 dB 4:39 ?-04. I'm Just An Ordinary ManDR13 -2.53 dB -18.49 dB 2:32 ?-05. With A Little Bit Of LuckDR12 -2.91 dB -18.65 dB 3:04 ?-06. Just You WaitDR14 -0.71 dB -18.67 dB 2:17 ?-07. The Rain In SpainDR12 -0.75 dB -18.54 dB 4:00 ?-08. I Could Have Danced All NightDR14 -1.31 dB -17.95 dB 3:14 ?-09. Ascot GavoteDR11 -3.65 dB -17.45 dB 2:05 ?-10. On The Street Where You LiveDR13 -1.26 dB -18.68 dB 4:08 ?-11. You Did ItDR12 -1.98 dB -18.33 dB 2:16 ?-12. Show MeDR13 -0.10 dB -17.70 dB 3:32 ?-13. Get Me To The Church On TimeDR15 -0.82 dB -18.41 dB 3:42 ?-14. A Hymn To HimDR12 -0.98 dB -18.42 dB 2:36 ?-15. Without YouDR14 -0.10 dB -18.72 dB 5:01 ?-16. I've Grown Accustomed To Her Face--------------------------------------------------------------------------------
Number of tracks: 16Official DR value: DR13
Samplerate: 96000 HzChannels: 2Bits per sample: 24Bitrate: 2911 kbpsCodec: FLAC================================================================================

.cue txt:

REM GENRE "Soundtrack, Musical"REM DATE "1964"REM COMMENT "Vinyl, LP, Stereo, CBS - S 70000, CBS - KOS 2600, Netherlands"PERFORMER "Audrey Hepburn, Rex Harrison"TITLE "My Fair Lady (The Original Sound Track Recording)"FILE "01. XSM 77381 - 1.flac" WAVE  TRACK 01 AUDIO    TITLE "01. Overture"    INDEX 01 00:00:00  TRACK 02 AUDIO    TITLE "02. Why Can't The English?"    INDEX 01 03:38:06  TRACK 03 AUDIO    TITLE "03. Wouldn't It Be Loverly"    INDEX 01 06:16:37  TRACK 04 AUDIO    TITLE "04. I'm Just An Ordinary Man"    INDEX 01 10:43:30  TRACK 05 AUDIO    TITLE "05. With A Little Bit Of Luck"    INDEX 01 15:22:35  TRACK 06 AUDIO    TITLE "06. Just You Wait"    INDEX 01 17:54:58  TRACK 07 AUDIO    TITLE "07. The Rain In Spain"    INDEX 01 20:58:56  TRACK 08 AUDIO    TITLE "08. I Could Have Danced All Night"    INDEX 01 23:15:58FILE "02. XSM 77381 - 2.flac" WAVE  TRACK 09 AUDIO    TITLE "09. Ascot Gavote"    INDEX 01 00:00:00  TRACK 10 AUDIO    TITLE "10. On The Street Where You Live"    INDEX 01 03:14:21  TRACK 11 AUDIO    TITLE "11. You Did It"    INDEX 01 05:19:07  TRACK 12 AUDIO    TITLE "12. Show Me"    INDEX 01 09:26:47  TRACK 13 AUDIO    TITLE "13. Get Me To The Church On Time"    INDEX 01 11:42:74  TRACK 14 AUDIO    TITLE "14. A Hymn To Him"    INDEX 01 15:14:74  TRACK 15 AUDIO    TITLE "15. Without You"    INDEX 01 18:56:54  TRACK 16 AUDIO    TITLE "16. I've Grown Accustomed To Her Face"    INDEX 01 21:32:48
- -(Stage & Screen/Musical) [10"] [24/96] Rex Harrison, Julie Andrews - My Fair Lady (F. Loewe)/Моя прекрасная леди (фрагменты из муз. комедии Ф. Лоу, запись 1956 г.) - 1970, FLAC (image+.cue)

RelizMAN

Post 31-Aug-2019 19:00

[Quote]

Glenn Frey - The Heat Is On. Music From The Motion Picture "Beverly Hills Cop"
Жанр: Soundtrack, Synth-pop
Носитель: 7", 45 RPM, Single
Год выпуска: 1984
Лейбл: MCA Records - MCA 941
Страна-производитель: UK
Аудио кодек: FLAC
Тип рипа: tracks+.cue
Формат записи: 24/96
Формат раздачи: 24/96
Продолжительность: 00:06:31
Треклист:
Side 1
A – Glenn Frey - The Heat Is On 3:45
Songwriter - K.Forsey
B - Harold Faltermeyer - Shoot Out 2:44

Credits & Notes

Companies, etc.
Published By - Famous Chappell
Phonographic Copyright (p) - MCA Records, Inc.
Licensed To - MCA Records
Mastered At - Tape One
Pressed By - Lyntone Recordings Ltd. - LYN-15762
Pressed By - Lyntone Recordings Ltd. - LYN-15763
Credits
Lacquer Cut By - Jack Adams
Producer - Harold Faltermeyer, Keith Forsey
Songwriter - H. Faltermeyer
Notes
Side A: From the soundtrack album "Music From The Motion Picture Soundtrack "Beverly Hills Cop"" MCF 3253
Made in England
Barcode and Other Identifiers
Matrix / Runout (A Side, label): MCA 941 A
Matrix / Runout (B Side, label): MCA 941 B
Rights Society: MCPS/BIEM
Matrix / Runout (A Side, runout (Variant 1)): MCA 941-A1
Matrix / Runout (B Side, runout (Variant 1)): MCA 941-B1
Matrix / Runout (A Side, runout, etched (Variant 2)): MCA-941-A LYN-15762-1TO JA
Matrix / Runout (B Side, runout, etched (Variant 2)): MCA-941-A̶B LYN-15762-1TO Z

Техническая информация

Источник оцифровки: третьим лицом
Код класса состояния винила: Неизвестно
Устройство воспроизведения: Неизвестно
Головка звукоснимателя: Неизвестно
Предварительный усилитель: Неизвестно
АЦП: Неизвестно
Программа-оцифровщик: Неизвестно
Обработка: Неизвестно

Спектр

АЧХ

Уровень записи

Доп. информация:

DR12

foobar2000 1.4.5 / Dynamic Range Meter 1.1.1
log date: 2019-08-28 21:27:12
--------------------------------------------------------------------------------
Analyzed: Glenn Frey / The Heat Is On (7 Inch)
--------------------------------------------------------------------------------
DR Peak RMS Duration Track
--------------------------------------------------------------------------------
DR12 -2.30 dB -16.95 dB 3:46 01-The Heat Is On
DR13 -1.64 dB -17.45 dB 2:45 02-Shoot Out
--------------------------------------------------------------------------------
Number of tracks: 2
Official DR value: DR12
Samplerate: 96000 Hz
Channels: 2
Bits per sample: 24
Bitrate: 3179 kbps
Codec: FLAC
================================================================================

RelizMAN

Post 30-Aug-2019 23:30

[Quote]

Glenn Frey - The Heat Is On. Music From The Motion Picture "Beverly Hills Cop"
Жанр: Soundtrack, Synth-pop
Носитель: 12", Maxi-Single, 45 RPM
Год выпуска: 1984
Лейбл: MCA Records - 259 119-0
Страна-производитель: Germany
Аудио кодек: FLAC
Тип рипа: tracks+.cue
Формат записи: 24/48
Формат раздачи: 24/48
Продолжительность: 00:14:38
Треклист:
Side 1
A - The Heat Is On (Extended Version) - 6:04
Side 2
B1 - The Heat Is On (Dance Version) - 5:40
B2 - The Heat Is On (Dub Version) - 2:39

Credits & Notes

Companies, etc.
Phonographic Copyright (p) - MCA Records, Inc.
Copyright (c) - MCA Records, Inc.
Record Company - Warner Communications
Manufactured By - Record Service GmbH
Made By - WEA Musik GmbH
Pressed By - Record Service Alsdorf
Published By - Famous Music Corporation
Remixed At - Oasis Recording Studios
Engineered At - Oasis Recording Studios
Credits
Producer - Harold Faltermeyer, Keith Forsey
Remix, Engineer - Brian Reeves
Written-By - H. Faltermeyer, K. Forsey
Notes
Music From The Motion Picture Soundtrack Beverly Hills Cop
© 1984 Paramount Pictures Corporation
Manufactured in Germany by Record Service GmbH, Alsdorf. Fabriqué en Allemagne par Record Service GmbH, Alsdorf
ⓦ A Warner Communication Company
On back sleeve: © 1984 MCA Records, Inc. ℗ 1984, 1985 MCA Records, Inc.
On labels: ℗ 1984, 1985 MCA Records, Inc.
A: Special version of the song from the MCA LP 251 723-1 Music From The Paramount Motion Picture "Beverly Hills Cop".
B1, B2: Special versions of the song from the MCA LP Music From The Soundtrack Of The Paramount Motion Picture 251 723-1 "Beverly Hills Cop".
Made in Germany by WEA Musik GmbH.
Barcode and Other Identifiers
Label Code: LC 1056
Matrix / Runout (Side A): R / S Alsdorf 259119-0 A φ
Matrix / Runout (Side B): R / S Alsdorf 259119-0 B P
Price Code: Ⓓ
Price Code (France): WE 221
Rights Society: GEMA/BIEM

Техническая информация

Источник оцифровки: третьим лицом
Код класса состояния винила: Ex
Устройство воспроизведения: Omnitronic DD-2250
Головка звукоснимателя: Ortofon Concorde Pro S
Предварительный усилитель: Sony TA-F335R
АЦП: E-MU 0404 PCIe
Программа-оцифровщик: Wavelab 6
Обработка: Не указано

Спектр

АЧХ

Уровень записи

Доп. информация:

DR12

foobar2000 1.4.5 / Dynamic Range Meter 1.1.1
log date: 2019-08-28 21:26:33
--------------------------------------------------------------------------------
Analyzed: Glenn Frey / The Heat Is On (12'')
--------------------------------------------------------------------------------
DR Peak RMS Duration Track
--------------------------------------------------------------------------------
DR12 -0.13 dB -15.79 dB 6:07 01-The Heat Is On (Extended Version)
DR12 -0.37 dB -15.23 dB 5:55 02-The Heat Is On (Dance Version)
DR13 0.00 dB -17.34 dB 2:36 03-The Heat Is On (Dub Version)
--------------------------------------------------------------------------------
Number of tracks: 3
Official DR value: DR12
Samplerate: 48000 Hz
Channels: 2
Bits per sample: 24
Bitrate: 1679 kbps
Codec: FLAC
================================================================================

RelizMAN

Post 18-Aug-2019 16:55

[Quote]

Jon Bon Jovi - Blaze Of Glory
Жанр: Soundtrack, Soft Rock
Носитель: MC
Год выпуска: 1990
Лейбл: Vertigo
Страна-производитель: Holland
Аудио кодек: WavPack
Тип рипа: image+.cue
Формат записи: 24/48
Формат раздачи: 24/48
Продолжительность: 48:48
Треклист:
01. Billy Get Your Guns [4:50]
02. Miracle [5:09]
03. Blaze Of Glory [5:45]
04. Blood Money [2:35]
05. Santa Fe [5:42]
06. Justice In The Barrel [6:49]
07. Never Say Die [4:54]
08. You Really Got Me Now [2:24]
09. Bang A Drum [4:38]
10. Dyin' Ain't Much Of A Livin' [4:46]
11. Guano City [1:16]
Источник оцифровки: автором раздачи
Код класса состояния касссеты: Ex
Устройство воспроизведения: SONY TC-K909ES
АЦП: Arturia AudioFuse
Программа-оцифровщик: Adobe Audition
Обработка: DeNoise in iZotope RX

СПЕКТР и УРОВЕНЬ

RelizMAN

Post 03-Aug-2019 13:22

[Quote]

Dominic Frontiere - The Stunt Man (The Original Motion Picture Soundtrack)
Жанр: Stage & Screen
Носитель: LP
Год выпуска: 1980
Лейбл: 20th Century Fox Records ‎(T-626)
Страна-производитель: USA
Аудио кодек: DSD128
Тип рипа: tracks
Формат записи: 1/5.64 MHz
Формат раздачи: 1/5.64 MHz
Продолжительность: 00:16:45

Треклист

A1 Film Caravan 3:51
A2 The Chase 0:49
A3 Bits & Pieces 3:43
Lyrics By – Norman Gimbel
Vocals [Sung By] – Dusty Springfield

A4 Southern Belle 1:45
A5 The Stunt Man - End Title 1:45
---------------------------------------------------------------------
B1 Bedroom Horns 2:39
B2 Training 2:23
B3 The Stunt Man - Main Theme 3:02
B4 Crane 2:18
B5 The Stunt Man - Main Title 3:16

Тех.даные

Источник оцифровки: автором раздачи
Код класса состояния винила: VG+
Устройство воспроизведения: Technics SL-1300
Головка звукоснимателя: AT-440MLb
Предварительный усилитель: KIVsound TP-23EF
АЦП: Tascam DA-3000
Программа-оцифровщик: Нет
Обработка: Нет

Графики


Внимание

Электронная версия данного материала предназначена исключительно для ознакомления! Скачав файл, вы берёте на себя полную ответственность за его дальнейшее использование. Реализация данной электронной версии в любых интернет-магазинах, и на CD (DVD) дисках с целью получения прибыли, незаконна и запрещена! Начиная загрузку, вы подтверждаете своё согласие с данными утверждениями! По вопросам приобретения печатной или электронной версии данного материала обращайтесь непосредственно к законным издателям, их представителям, либо в соответствующие организации торговли!
 

Current time is: 09-Dec 15:41

All times are UTC + 3