Search found 95 matches

Author Message

Vi$itReal

Post 31-Oct-2019 18:05

[Quote]

Антифабрика - Саншайн Реггей #1 [Sunshine Reggae #1]- Количество релизов (альбомов / синглов / EP/ сборников): 1
Жанр: Reggae, Alternative, Rock
Страна-производитель диска: Россия
Год издания диска: 2004
Издатель (лейбл): Студия "Союз"
Номер по каталогу: SZCD 2633-04
Страна: Россия
Аудиокодек: MP3
Тип рипа: tracks
Битрейт аудио: 320 kbps
Продолжительность: 01:09:22
Источник: рип из lossless
Наличие сканов в содержимом раздачи: да
Треклист:
01. W.K.? - Rastaman (03:59)
02. Вода - Sunshine Reggae (02:42)
03. Гonja - Плющит (03:08)
04. Мангол - Луч света (04:23)
05. Реса - Ни одной я не подхожу (03:23)
06. Аквариум - Вавилон 2000 (05:20)
07. Бобры - Эй, музыкант! (02:59)
08. Mr.Хомяк - Dr.Aiboleet vs. Barmaley (04:34)
09. Ляпис Трубецкой - Красивая (04:27)
10. Сегодня ночью - Слова те, что были не сказаны (03:39)
11. Воскресение - Не торопясь (04:35)
12. Вода - Стюард (03:34)
13. Russoul - Насилие - нехорошо (03:21)
14. Дабац - Всё связано (06:09)
15. Jah Gun - Звёзды Джамайки (04:35)
16. Акуэна! - Марс (03:21)
17. Крёстная семья - Мама-папа (05:13)

Vi$itReal

Post 11-Oct-2019 15:20

[Quote]

Комитет Охраны Тепла / Зубы

Жанр: Reggae
Страна-производитель диска: Украина
Год издания диска: 2019
Издатель (лейбл): Latimeria
Страна: СССР
Аудиокодек: FLAC
Тип рипа: image+.cue
Битрейт аудио: lossless
Продолжительность: 01:00:54
Источник: собственный рип
Наличие сканов в содержимом раздачи: да
Треклист:
1. Комсомольцы =3-20=
2. Все хорошо =3:11=
3. Скоро лето =2:40=
4. Розовый балет =3:28=
5. Я раньше думал =3:28=
6. Гемотаген =3:18=
7. Болото (Kaya) =4:00
8. Так скажи нам, Jah =4:05
9. Бумажный герой =2:33=
10. Резиновый танк =3:23=
11. Не верь мне =6:16=
12. Новая сказка =5:38=
13. Сказка "А" =3:38=
14. Не спи =2:53=
15. Механосборочный цех =4:09=
16. Плачет небо=3:52=
17. Coda =0:55=-Об альбоме (сборнике)
Записано 5 февраля 1987 г. в ДК Железнодорожников, г. Калининград, кроме: 17 – Дворец пионеров 1986 г.
Запись из архива Андрея Турусинова
Реставрация и мастеринг – Сергей Лавренко (DRIDEN INDI RECORDS), 2019 г.

В оформлении использована работа Oldy «Конь, не оху*вающий никогда»
Фото: Ольга Урусова, Вадим Ходаков, а также из архива Андрея Турусинова и Екатерины Шишковой
Графика: Oldy, Екатерина Шишкова
Оформление и макет: Влад Макаренко, Александра Макаренко
Состав
Cергей «Oldy» Белоусов – песни, гитара;
Валерий «Stan» Симченко – бас-гитара;
Андрей Коломыйцев – клавиши;
Юрий Щедрин – гитара;
Александр Верешко – барабаны;
Ирина Метельская – подпевки, перкуссия;
Александр Бограчевский – флейта, подпевки;
Андрей Брытков – саксофон.

Лог создания рипа

Exact Audio Copy V1.3 from 2. September 2016
EAC extraction logfile from 10. October 2019, 20:25
Комитет Охраны Тепла / Зубы
Used drive : MITSUMI CR-486ETE Adapter: 1 ID: 0
Read mode : SecureUtilize accurate stream : YesDefeat audio cache : YesMake use of C2 pointers : No
Read offset correction : 6Overread into Lead-In and Lead-Out : NoFill up missing offset samples with silence : YesDelete leading and trailing silent blocks : NoNull samples used in CRC calculations : YesUsed interface : Native Win32 interface for Win NT & 2000
Used output format : User Defined EncoderSelected bitrate : 1024 kBit/sQuality : HighAdd ID3 tag : NoCommand line compressor : C:\Program Files (x86)\FLAC\flac.exeAdditional command line options : -8 -V -T "Date=%year%" -T "Genre=%genre%" %source%
TOC of the extracted CD
Track | Start | Length | Start sector | End sector --------------------------------------------------------- 1 | 0:00.00 | 3:20.18 | 0 | 15017 2 | 3:20.18 | 3:11.57 | 15018 | 29399 3 | 6:32.00 | 2:40.37 | 29400 | 41436 4 | 9:12.37 | 3:28.38 | 41437 | 57074 5 | 12:41.00 | 3:28.55 | 57075 | 72729 6 | 16:09.55 | 3:18.52 | 72730 | 87631 7 | 19:28.32 | 4:00.30 | 87632 | 105661 8 | 23:28.62 | 4:05.05 | 105662 | 124041 9 | 27:33.67 | 2:33.66 | 124042 | 135582 10 | 30:07.58 | 3:23.70 | 135583 | 150877 11 | 33:31.53 | 6:16.13 | 150878 | 179090 12 | 39:47.66 | 5:38.04 | 179091 | 204444 13 | 45:25.70 | 3:38.00 | 204445 | 220794 14 | 49:03.70 | 2:53.51 | 220795 | 233820 15 | 51:57.46 | 4:09.04 | 233821 | 252499 16 | 56:06.50 | 3:52.24 | 252500 | 269923 17 | 59:58.74 | 0:55.23 | 269924 | 274071
Range status and errors
Selected range
Filename D:\Flac\Комитет Охраны Тепла\Комитет Охраны Тепла - 1987 - Зубы\Комитет Охраны Тепла - Зубы.wav
Peak level 96.8 % Extraction speed 8.3 X Range quality 99.9 % Test CRC 99CB15C9 Copy CRC 99CB15C9 Copy OK
No errors occurred
AccurateRip summary
Track 1 not present in databaseTrack 2 not present in databaseTrack 3 not present in databaseTrack 4 not present in databaseTrack 5 not present in databaseTrack 6 not present in databaseTrack 7 not present in databaseTrack 8 not present in databaseTrack 9 not present in databaseTrack 10 not present in databaseTrack 11 not present in databaseTrack 12 not present in databaseTrack 13 not present in databaseTrack 14 not present in databaseTrack 15 not present in databaseTrack 16 not present in databaseTrack 17 not present in database
None of the tracks are present in the AccurateRip database
End of status report
==== Log checksum 268EC5693B656F8BA2B659EAC961E4C14018FDC83500A6CC7349471595E3C39C ====
Смотрите так же
Комитет Охраны Тепла - Дискография, APE (image+.cue), lossless
Комитет Охраны Тепла - Дискография, MP3

Vi$itReal

Post 10-Oct-2019 12:15

[Quote]

Алмазный фронт / Жизнь в городе без моря
Жанр: pop, blues,reggae
Год издания диска: 1997 (ремастер 2018)
Страна: Беларусь
Аудиокодек: MP3
Тип рипа: tracks
Битрейт аудио: 320 kbps
Продолжительность: 00:40:34
Источник: собственный рип
Треклист:
01 Lucia
02 Жизнь в городе без моря
03 Осень
04 Как обычно
05 Одиночество-блюз
06 Снежная крепость
07 Мартовское регги
08 Барбудос кубинос партизанос
09 Баунти
10 Карибское танго
11 Танцы осенних дворников
12 Я верю плохой погоде

Об альбоме (сборнике)

Сборник песен, записанных группой в 1995-97 годах. Восстановлено и отредактировано в 2018

Vi$itReal

Post 23-Aug-2019 12:45

[Quote]

The Middle Volga Social Club / Love You So
Жанр: Reggae, ska, soul, funk, jazz
Страна-производитель диска: Россия
Год издания диска: 2019
Издатель (лейбл): Magnetic Loft
Страна: Россия
Аудиокодек: MP3
Тип рипа: tracks
Битрейт аудио: 320 kbps
Источник: собственный рип
Наличие сканов в содержимом раздачи: да
Треклист:
1. I Want To Be Your Friend
2. No More Tears
3. Gianluigi
4. One Little Trouble
5. Alexey Rodin
6. Girl
7. Unicorn
8. Love You So

Об исполнителе (группе)

The Middle Volga Social Club - российская группа, исполняющая музыку в стилях ска, регги, рокстеди.
Группа была основана в 2013 году в Самаре.
Музыкальный стиль коллектива сформировался под влиянием традиционных и современных ска и регги исполнителей. В репертуаре удачно сочетаются как авторские композиции, так и собственные интерпретации ска-стандартов и рок-хитов. Программа ансамбля состоит из вокальных и инструментальных номеров, которые по своему характеру варьируются от медленных и лиричных до быстрых танцевальных. Коллектив не ограничивает себя рамками одного стиля, экспериментируя в области фанка, соула и латиноамериканской музыки, используя в своих композициях цитаты из классических произведений.

Состав

Антон Антонов - труба соло
Виктория Васильева - бэк-вокал
Антон Голубенко - бас-гитара
Татьяна Гордеева - скрипка
Юлия Гребенникова - виолончель
Татьяна Дмитриева - клавиши
Валерий Жидков - гитара, клавиши
Дарья Жидкова - вокал
Алексей Земсков - баритон-саксофон
Роман Квасников - барабаны
Ангелина Кокорева - флейта
Светлана Павлова - скрипка
Ольга Романова - альт
Артём Середенко - труба
Игорь Темяшев - тенор-саксофон
Андрей Уймин - гобой
Макс Фрыгин - перкуссия
Сергей Чернов - бас-гитара
Павел Шрамко - альт-саксофон
Игорь Юсупов - тромбон, вокал, клавиши, перкуссия, тексты
Марина Дмитриева - тексты
Любовь Долгова - тексты

Vi$itReal

Post 09-Feb-2019 17:20

[Quote]

Oi FUSK / Oi FUSK -TROOBAGUBAMI
Количество релизов (альбомов / синглов / EP/ сборников): 5
Жанр: Reggae
Страна-производитель диска: Украина
Год издания диска: 2017
Страна: Украина
Аудиокодек: MP3
Тип рипа: tracks
Битрейт аудио: 128 kbps
Продолжительность: 00:21:28
Источник: собственный рип
сайт-источник/ник/другое: https://soundcloud.com/user-498005339/sets/troobagubami
Наличие сканов в содержимом раздачи: нет
Треклист:
1 - Oi FUSK - CHAIKA
2 - Oi FUSK - DRUZHBA
3 - Oi FUSK - INTRO
4 - Oi FUSK - KUSOCHEK MIRA
5 - Oi FUSK - MELEKINO

Об исполнителе (группе)

Oi FUSK - город Донецк. Первый альбом данного исполнителя.

Об альбоме (сборнике)

Труба губами

Vi$itReal

Post 07-Nov-2018 23:30

[Quote]



Марлины

Ночь серебряной луны




• Жанр: Reggae | Funk Rock
• Страна: RF
• Год издания: 2018
• Аудиокодек: MP3
• Тип рипа: tracks
• Битрейт аудио: 320 kbps
• Продолжительность: 00:31:19
• Наличие сканов: front

01 - Ночь серебряной луны (00:03:12)
02 - Мы к тебе все ближе (Песня корней) (00:02:55)
03 - Мухи-мухи (Песня паука) (00:03:19)
04 - Старый леший (00:03:50)
05 - Ведьмы мы! (00:02:40)
06 - Песня духов (00:02:37)
07 - Я так боюсь. (Песня оборотня) (00:03:53)
08 - Слышишь стоны упырей (00:03:41)
09 - Иди ко мне! (Песня сирен) (00:05:11)--

Vi$itReal

Post 01-Nov-2018 03:55

[Quote]


ДИСКОГРАФИЯ
{4 EP-альбома и 1 сборник синглов}

Жанр: Русский рок \ Reggae rock
Год издания диска: 2011-2018 | Страна: РФ
Аудиокодек: mp3 | Тип рипа: tracks | Битрейт аудио: 320 kbps
Продолжительность: 02ч:18м:45с

2011-15 - Братья Ледорубы (синглы+демо) [40:05]

[условная компиляция]
01. Уходя, гасите свет 2:21
02. Прегаментные руки сентября 4:04
03. Ангел в кабаке 2:59
04. Билет в один конец 4:04
05. Гулливер Черная Смородина 3:02
06. Не хэппи-энд 4:24
07. Новые тропы 3:31
08. Черное поле эфира [демо] 2:27
09. Апостол за совестью с неба спустился [демо] 1:58
10. Трёх наивных душ святая пустота [демо] 2:55
11. Голова из морского узла [демо] 3:31
12. Ослепительная правда о жизни [демо] 4:24

2016 - Братья Ледорубы в поисках папы Гайдна [13:12]

01. У каждого есть бесконечный маршрут 2:58
02. Ржавая сталь чёрной воды 2:20
03. Полёт на Марс при включенном солнце 2:33
04. Режики-ножики над душой 2:26
05. Иногда любить лучше на расстоянии 2:53

2017 - В венах тягучий клей [28:46]

01. В венах тягучий клей 2:39
02. Надо ли любить родину? 4:03
03. Беспросветное женское одиночество 3:24
04. Сахарные люди 3:50
05. Что мы знаем о чистилище? 1:44
06. Рай для собак 2:28
07. Разве наказание снимает вину? 4:05
08. Ловец человеков 2:45
09. Разорванный календарь не имеет дат 3:44

2018 - Всем чужой [27:24]

01. Ты сошла с ума, ма... 3:14
02. Еще одна осень 3:05
03. Будто бы всем чужой 3:06
04. Я живу в Москве 3:48
05. Гвозди держат покрывало 2:48
06. Родины моей тут нет 3:25
07. Текущий момент 2:41
08. Девяностики 5:12

2018 - Сток [29:18]

01. Мысли в круглой голове 3:24
02. Здравствуй, брат 3:58
03. Понамотало тины на винты 3:02
04. Человек предполагает 3:09
05. Мечтать не вредно 4:28
06. Утоптанный снег 3:16
07. Вот и вся любовь 5:10
08. Родина и я 2:47
-Об исполнителе (группе)www.muz-flame.ru писал(а):Коротко отрецензировать труд музыкантов можно так: отрицание системы, как вечная генетическая депрессия, обрамлённая суровым нетанцевальным регги дабом. Такой путь, ведущий к затяжному похмелью и попытке осмыслить своё существование, олицетворяет первый альбом от группы «Красный Регги». Тут всё просто — творчество нарочито монотонно, поэтому, либо оно нравится, либо нет. Вселенная заигрывает с нами, сурово нашёптывая совет: ступай на минное поле и внимай. «Братья Ледорубы» — это метафора для «Красного Регги», а «папа Гайдн»- это ничто другое, как альтер-эго «Красного Регги», который находится в поисках самого себя...
Музыкально-концептуальная струна, протянутая из прошлого века от Joy Division, срезонировала в России в ранних записях "Кино" и отыграла на концертах "Комитета Охраны Тепла", теперь снова даёт знать о себе музыкой "Красного Регги". Аутентичные тексты качают очень добротные темы, а качественный лонгплей интегрирован в пространство минималистических функций, в котором "Братья Ледорубы" очевидно и лаконично нашли своего "папу Гайдна". И теперь они весьма конкретно организованы, хорошего прослушивания!--

Vi$itReal

Post 11-Oct-2018 14:35

[Quote]

Комитет Охраны Тепла / Белое Время
Жанр: Rock / Regage
Год издания диска: 2018
Издатель (лейбл): Latimeria Records
Аудиокодек: MP3
Тип рипа: tracks
Битрейт аудио: 320 kbps
Продолжительность: 68:03
Источник: CD купить диск
Записано в Sexton FoZ.D. Club (Москва) 11 мая 1994 года (Bob Marley Day)
1. Плачет Небо / Скоро Лето
2. Белое Время
3. Не Время Любить
4. Girlandia
5. Не Верь Мне / Ich Bin Soldat, Jah
6. Не Беда (Матрос-с-Kауа)
7. Kaya
8. Африка
9. Кобыла
10. 48/50
11. Завтра Не Будет
Oldy - ритм-гитара, песни
Ирина Метельская - подпевки
Олег Москаленко - бас-гитара
Александр Верешко - барабаны
Николай Игратичев - перкуссия
Запись Alex Oz
Музыка и тексты - Oldy, кроме "Кобыла", текст - В. Калашников
Записано в Славянске-на-Кубани осенью 1994 г.
12. Не время любить
13. Валенки
14. 48/50
15. Плачет небо
Oldy - гитара, песни
Ген. А - гитара

Vi$itReal

Post 01-Oct-2018 10:55

[Quote]

Jaspa Vol & Bezla / Monday (EP)
Жанр: Raggamuffin / Rap
Страна-производитель диска: Россия
Год издания диска: 2018
Страна: Россия
Аудиокодек: MP3
Тип рипа: tracks
Битрейт аудио: 320 kbps
Продолжительность: 00:08:28
Источник: WEB
сайт-источник/ник/другое: https://cloud.mail.ru/public/8vBX/NCXqA21dC
Наличие сканов в содержимом раздачи: нет
Треклист:
1. Мне не понять
2. Понедельник
3. Такие времена

Vi$itReal

Post 02-Sep-2018 23:25

[Quote]

Good Times - Просто сложно понять
Жанр: Ska-Punk / Orchestra Dance-Rock
Год издания диска: 2018
Страна: Россия
Аудиокодек: MP3
Тип рипа: tracks
Битрейт аудио: 320 kbps
Продолжительность: 00:43:07
Источник: WEB
Треклист:
01. Intro 00:55
02. Бельмондо 03:43
03. Титьки 03:02
04. Раз и навсегда 03:25
05. Согласия не надо 03:38
06. Нормально 03:42
07. Мне хватает 04:16
08. Сам себе босс 04:32
09. Джиу-джитсу 03:42
10. Твои глаза 03:52
11. Анжела 02:18
12. Ой мама 03:34
13. Outro 02:36

Об исполнителе (группе)

Группа GOOD TIMES (г. Кострома), один из самых позитивных и безудержных проектов России, образовался 1 июля 2011г. GOOD TIMES (orchestra dance-rock) – это провокация, ирония и дикий драйв, приправленный мощным звучанием целого ряда духовых инструментов. Смесь гаражного рока, скейт-панка, ска, фанка и ещё много чего не оставляет слушателю и зрителю времени на раздумья — веселиться нужно здесь и сейчас.
В 2012 году GOOD TIMES стала победителем фестиваля «New Rock Generation», оставив позади 78 групп участников. В 2013 году, обойдя 350 коллективов, становится одним из победителей Петербургского фестиваля «Рок-Иммунитет». 2014 год оказался для музыкантов более насыщенным: GOOD TIMES выступила на разогреве у Emir Kusturica & The No Smoking Orchestra, в качестве победителя фестиваля REVOLUTION 2014 с большим успехом выступила на международных фестивалях в Нарве и в Хельсински. Группа победила в конкурсном отборе фестиваля GREAT LIVE MUSIC в Гоа, в связи с чем награждена участием на фестивале в Индии на равне со знаменитыми представителями отечественной рок-сцены. GOOD TIMES являются участниками различных летних рок-фестивали России, таких как Доброфест, Воздух, Нашествие, Das Fest, Окна открой, Владимирский тяжеловоз и др. Песни группы находятся в ротации двух крупнейших интернет радиостанций страны: Своем радио и Radio Rock Online
4-й год группа принимает участие в интернет проекте «Balcony TV», где летом 2013 года была замечена американским журналом «Found» и попала на одну из его страниц. На следующий год группу отметила французская пресса. В Хельсинки у Good Times появились друзья музыканты, которые с удовольствием исполняют их песни. Юля Коган (экс-Ленинград) спела и взяла себе в программу песню «Никита».
Весной 2013 года музыканты выпустили свой дебютный альбом «Spaceman», который включает 14 песен. В декабре 2014 года GOOD TIMES представила новый альбом «Культурный отдых»., песни из которого попали в чарты различных радиостанций. В феврале 2016 года на петербургской студии звукозаписи Добролет был записан третий альбом «Как зверь!»
Группа активно гастролирует по стране.

Состав

Тёма Шаров - вокал
Тёма Ягодкин – перкуссиябэк вокал
Лёха Сухарников - барабаны
Андрей Зайцев – бас гитара
Слава Gato – саксофон
Александр Торшин – саксофон
Антон Багомедов – труба
Александр Михальчук - гитара
Никита Хмиловец – гитара

Vi$itReal

Post 03-Jun-2018 14:25

[Quote]

Антоха МС / Советы для молодожёнов
Жанр: Dance, Funk, Neo-Soul, Reggae
Год издания: 2017
Страна: Россия
Аудиокодек: FLAC
Тип рипа: tracks
Битрейт аудио: lossless
Продолжительность: 01:00:28
Источник: WEB
Сайт-источник: Tidal
Наличие сканов в содержимом раздачи: нет
Треклист:
01. Земля 4:02
02. Спасибо 4:18
03. Спорт-брат 3:33
04. Это лето 4:14
05. Ритм сердца 4:45
06. Дом 4:51
07. Антоха 4:32
08. Дни 3:53
09. Время ток 3:52
10. О, музыка 4:22
11. Сладкий чай 4:00
12. Что диктует горизонт (feat. Boora) 3:28
13. 2x2=5 5:22
14. Сладкий чай (Aslamin Remix) 5:23

Лог проверки качества

-----------------------
DON'T MODIFY THIS FILE
-----------------------
PERFORMER: auCDtect Task Manager, ver. 1.6.0 RC1 build 1.6.0.1Copyright (c) 2008-2010 y-soft. All rights reservedhttp://y-soft.org
ANALYZER: auCDtect: CD records authenticity detector, version 0.8.2Copyright (c) 2004 Oleg Berngardt. All rights reserved.Copyright (c) 2004 Alexander Djourik. All rights reserved.
FILE: 14. Антоха МС - Сладкий чай (Aslamin Remix).flac Size: 28763386 Hash: CEB6BC8165919F04A94AB97D452E1835 Accuracy: -m0 Conclusion: CDDA 100% Signature: C389137E1CB9F3A889DE395261EDFB66E71D0A42FILE: 13. Антоха МС - 2x2=5.flac Size: 31940128 Hash: E04654B13F0D9A4B62268F7F4CA0346B Accuracy: -m0 Conclusion: CDDA 100% Signature: 9E82E3E48D5BE62E08F53862E1D27971CADD21ADFILE: 12. Антоха МС - Что диктует горизонт (feat. Boora).flac Size: 18761578 Hash: 1FCB1220F920CB1BCA9E7805DBDD05C1 Accuracy: -m0 Conclusion: CDDA 100% Signature: 6D6DA3D777260E47A2B735D720A1D5E348DC47DBFILE: 11. Антоха МС - Сладкий чай.flac Size: 16769558 Hash: D96500B06C68E2632977341BCCDB3959 Accuracy: -m0 Conclusion: CDDA 100% Signature: 2317234AA233F07F329678C9F2F1C0487017227EFILE: 10. Антоха МС - О, музыка.flac Size: 26211023 Hash: 43895911986B7F88A52B78C932FDA08F Accuracy: -m0 Conclusion: CDDA 100% Signature: A8BEE6A29B7BB5B3372A349431F058903FC88598FILE: 09. Антоха МС - Время ток.flac Size: 24115953 Hash: 1C4147934EF5D1D6D14CF5E215888406 Accuracy: -m0 Conclusion: CDDA 100% Signature: 3588404E87B97B72C3AE2B4ED36418FA644BF3EEFILE: 08. Антоха МС - Дни.flac Size: 27105266 Hash: FD893778029B800C6964CEA4A986F6CD Accuracy: -m0 Conclusion: CDDA 100% Signature: 0857772E830A7E8B02D5A3795D7B9F1EC3D49F0FFILE: 07. Антоха МС - Антоха.flac Size: 27122894 Hash: 5643F1E086384365D61716F44160B338 Accuracy: -m0 Conclusion: CDDA 100% Signature: C9AADF09BDDBB62D41D23A41A557A5FD709116F4FILE: 06. Антоха МС - Дом.flac Size: 20671357 Hash: B1331D4DB605BDDE6F800600F0609E33 Accuracy: -m0 Conclusion: CDDA 94% Signature: 6DF1FAA123834C948EA0DEFED672DC3147E06F71FILE: 05. Антоха МС - Ритм сердца.flac Size: 29132921 Hash: 839098433D713B255FCD7E0925D6C420 Accuracy: -m0 Conclusion: CDDA 100% Signature: D9C58B0300770F924AF7AE884C5152EE6D70A704FILE: 04. Антоха МС & BMB - Это лето.flac Size: 31307247 Hash: F047A2DC5624D112496CF5E36725CB1F Accuracy: -m0 Conclusion: CDDA 100% Signature: AC95C6D9EF13C877FB9F434E85119568892D1394FILE: 03. Антоха МС - Спорт-брат.flac Size: 21937144 Hash: B55DFA57F2AACA86C5ABF800A9F3052E Accuracy: -m0 Conclusion: CDDA 100% Signature: DA2C93C5009C747149458F4884CB6708359E4B79FILE: 02. Антоха МС - Спасибо.flac Size: 28833407 Hash: 110E7A278BF52FD560F5C2D040564844 Accuracy: -m0 Conclusion: CDDA 100% Signature: E4013A1D2F62454BC48116130F779E2D26E61A3AFILE: 01. Антоха МС - Земля.flac Size: 25598048 Hash: 74125CB0420C946EE0B9937172292C43 Accuracy: -m0 Conclusion: CDDA 99% Signature: A468AAB061640BD09D120D5EEA2E9F2DEC6398C6

Скриншоты спектра частот

Об исполнителе

Антон Кузнецов родился в Москве. Начал заниматься музыкой в восемь лет, играл на трубе. Вырос в музыкальной семье среди шести братьев и сестёр, один из братьев играл на тромбоне, а старшая сестра — на виолончели. Закончил медико-биологический лицей. Занимался в музыкальном училище по классу «Труба».
В 2011 году выходит первый альбом Антона «От всей души». Вся музыка записана Антоном, он также является автором текстов, которые сам же и начитывает, а также подыгрывает себе на трубе. Альбом был записан и издан самостоятельно, распространялся самим Антоном среди друзей и знакомых. Общий тираж — 500 компакт-дисков. Название альбома точно характеризует творчество музыканта: диск вышел искренним и добрым, а лирика посвящена приятным моментам жизни, в отличие от тем, поднимаемых большинством российских рэперов.
Первое время выступал совместно со знакомыми музыкантами. В 2014 году состоялся первый сольный концерт Антона в клубе «Чайнатаун».

Об альбоме

Записывал альбом дома. В дом вкладывал миллионы - опыт отцов, да старцев, теории притяжения, законы народа. Альбом - "Советы для молодожёнов" - очередная ветвь о смысле и главном жизненного опыта, от личного представления и вопроса общего. Также результат трудов исполнителя и сочинителя песен - Кузнецова Антона, организующей команды Антохи МС и поддержки людей - слушателей во имя блага общего - хорошей музыки, образования дельного.
В альбом входят 14 композиций, певческого, речитативного, танцевального ритма. Приятного прослушивания всем.

Vi$itReal

Post 03-Jun-2018 13:20

[Quote]

Антоха МС / Родня
Жанр: Electronic, Dance, Jazz, Alternative, Synth
Год издания: 2016
Страна: Россия
Аудиокодек: FLAC
Тип рипа: tracks
Битрейт аудио: lossless
Продолжительность: 00:36:33
Источник: WEB
Сайт-источник: Tidal
Наличие сканов в содержимом раздачи: нет
Треклист:
01. Время 4:34
02. Провода 3:20
03. Родина 4:31
04. Стаж 3:28
05. День 4:26
06. Картина 2:47
07. Годы 3:40
08. Пой 4:35
09. Красная Звезда 5:12

Лог проверки качества

-----------------------
DON'T MODIFY THIS FILE
-----------------------
PERFORMER: auCDtect Task Manager, ver. 1.6.0 RC1 build 1.6.0.1Copyright (c) 2008-2010 y-soft. All rights reservedhttp://y-soft.org
ANALYZER: auCDtect: CD records authenticity detector, version 0.8.2Copyright (c) 2004 Oleg Berngardt. All rights reserved.Copyright (c) 2004 Alexander Djourik. All rights reserved.
FILE: 09. Антоха МС - Красная Звезда.flac Size: 30565490 Hash: F3E3BB449D511B592EDA7D0C3B9DACBE Accuracy: -m0 Conclusion: CDDA 100% Signature: FB899676E1331C2601CEFE748B207EAE02A3C302FILE: 08. Антоха МС - Пой.flac Size: 23066280 Hash: 3DE0D528DC0862915802F405D3C5D311 Accuracy: -m0 Conclusion: CDDA 100% Signature: 3F38C3D0536D0D750D77D3BBBF9811B5DE816F3DFILE: 07. Антоха МС - Годы.flac Size: 24570566 Hash: 5E74E113AF12BF33C920D6BA4E00F904 Accuracy: -m0 Conclusion: CDDA 100% Signature: 5526BEBFF36C3344F30C8B17317586D70BAF8A53FILE: 06. Антоха МС - Картина.flac Size: 18871005 Hash: 8E15E45D7E674A97E2DD46231821278A Accuracy: -m0 Conclusion: CDDA 99% Signature: B6FDA4637BF3E389AE575F57D5B5893939E851A0FILE: 05. Антоха МС - День.flac Size: 23323146 Hash: FC48064C2488655FF277AC9EE3B4D6B2 Accuracy: -m0 Conclusion: CDDA 100% Signature: 05A6959DA2EBE2B19A9DD35C37BF3DBC24BD657BFILE: 04. Антоха МС - Стаж.flac Size: 23038007 Hash: 3189245888EC3F6FDFB754242AF961B1 Accuracy: -m0 Conclusion: CDDA 100% Signature: EAB2DA16B46B4F7567897183F46D9E2841D01D9EFILE: 03. Антоха МС - Родина.flac Size: 31920792 Hash: 60E2287A86149A828964AF47DF4CC2A5 Accuracy: -m0 Conclusion: CDDA 100% Signature: A972D4B224835F0FDE47029CDBDCDC35E8A5D772FILE: 02. Антоха МС - Провода.flac Size: 25038860 Hash: 3E327BC7F4E78EDACEB05DEB169120E3 Accuracy: -m0 Conclusion: CDDA 100% Signature: 6CDE12985933CDAE26468CC599C354C12CA746C3FILE: 01. Антоха МС - Время.flac Size: 27452329 Hash: 46B354DBB58C0EA068B074C86386C917 Accuracy: -m0 Conclusion: CDDA 100% Signature: 65D7F67804DB8AAC1EA17B8BB834DB3A21CE8A20

Скриншоты спектра частот

Vi$itReal

Post 03-Jun-2018 12:15

[Quote]

Антоха МС / Родня
Жанр: Electronic, Dance, Jazz, Alternative, Synth
Страна исполнителя: Россия
Год издания: 2016
Аудиокодек: MP3
Тип рипа: tracks
Битрейт аудио: 320 kbps
Продолжительность: 00:36:33
Наличие сканов в содержимом раздачи: нет
Треклист:
01. Время 4:34
02. Провода 3:20
03. Родина 4:31
04. Стаж 3:28
05. День 4:26
06. Картина 2:47
07. Годы 3:40
08. Пой 4:35
09. Красная Звезда 5:12

Vi$itReal

Post 12-Apr-2018 22:20

[Quote]

Алмазный фронт / Голова на Ямайке
Жанр: modern reggae
Год издания диска: 2006
Страна: Беларусь
Аудиокодек: FLAC
Тип рипа: tracks
Битрейт аудио: lossless
Источник: собственный рип
Наличие сканов в содержимом раздачи: да
Треклист:
1. Голова на Ямайке
2. Растаманская (HalleluJah)
3. Горилла Ё
4. Жизнь в холодильнике
5. Далёка да неба
6. Zalumbia
7. Ласточка
8. Снежная крепость
9. Горилла Ё (RMX)
10 Далёка да неба (RMX)

Об исполнителе (группе)

Начало:
В начале 1991 года Эдик Юдовин, начинающий автор-исполнитель находит группу товарищей.
Название «Алмазный Фронт», заимствованное с винила группы «Прощай, молодость», было уже тогда. Становление группы было очень медленным, состав стабилизировался только к лету 1992 года. Тогда же и случился дебют группы, 27 августа, в Витебской филармонии, на концерте памяти Майка Науменко («Зоопарк»).
К середине 94 года состав меняется полностью, в группе появился Вадим Степанович («Джим»), с которым было написано много музыкального материала.
В 1994-95 годах группа довольно часто играла на выездах: Минск, Могилёв (фестиваль «Другая Вода»), Бобруйск, Новополоцк.
В начале 1996 года, с появлением саксофониста Максима Прависа, группа меняет стиль, отходит от рок-музыки в сторону блюза и регги. Всё это отражено на следующей программе «Жизнь в городе без моря» (запись 1996-97). Название команды в связи с этим изменилось на ВИА «Алмазный Фронт»
1997 год прошёл для группы крайне спокойно. Был дописан альбом «Жизнь в городе без моря» и отыграно несколько мелких концертов в Минске и по Витебской области. В конце года в группе появился барабанщик Валентин Костенко. Стиль снова изменился. На этот раз – всевозможная смесь панка, ска, хардкора и т.п. с белорусским фольклором. Основным вокалистом стал Джим. В апреле 1998 «Алмазный Фронт» участвует в поддержке турне группы «Ляпис Трубецкой» по городам Беларуси. У группы появился свой администратор – Дмитрий Литвинов, который со временем стал исполнять свои песни в составе АФ. В середине 1998 года Максима Прависа забирают в армию. Без саксофона группа ещё больше утяжеляет звучание. Выступления АФ с большим успехом проходят в родном городе, а также в Бресте и Новополоцке. В Минске выходит альбом «Жизнь в городе без моря», делаются новые записи.
В июле 1999 Джим покидает группу. Это фактически оказалось распадом «Алмазного Фронта». Далее следовали попытки (иногда удачные) возродить группу. В конце концов в 2000 году полностью сворачивается всякая деятельность АФ.
В 2001 Эдуард Юдовин решает записать прощальный альбом группы«Битые стёкла». В этом помогает Дмитрий Семенас.
В 2003 году наступает полное возрождение АФ. Возвращается Валентин Костенко. Дима Семенас играет на гитаре, потом его на этом посту заменяет Александр Угорцин «Вагур», ранее игравший в одном из промежуточных составов.
Но в очередной раз происходит изменение стиля. Собственно говоря, первые песни в стиле реггей у АФ появились ещё в 1994. Однако, на этот раз все песни группы стали исполняться в этом стиле. Результат долго ждать не заставил. 1 ноября 2003 АФ участвует в первом белорусском реггей-фестивале, затем довольно часто выезжает в Минск на всякие реггей-мероприятия.
В 2004 записан первый реггей-альбом АФ- «Солнечный свет», в котором были собраны старые и новые песни группы. Он выпущен местной компанией B.U.T.T-records.
В 2006-м записан следующий регги-альбом «Голова на Ямайке». Группа довольно часто гастролирует по Беларуси и России. Александра Угорцина меняет Виктор Серов
В 2008-м – довольно много концертов и полная смена состава. Из состава 2006 года остались только Эдуард Юдовин и Виктор Серов. К ним добавились Тимур Шурухин – перкуссия, Павел Кузнецов – бас-гитара, Игорь Овсянников – барабаны.
2009-й – частые акустические и электрические концерты В домашних и частично студийных условиях записан новый альбом «Мало капитала», в котором продолжились эксперименты со звучанием группы. Альбом получился довольно жёстким по текстам и музыке
В 2011-м деятельность "Алмазного фронта" прекращается. Спустя четыре года лидер группы, Эдуард Юдовин записывает ещё один альбом под маркой "Алмазный фронт" -"Зажигалка" и уезжает на ПМЖ в Израиль.

Об альбоме (сборнике)

Одна из лучших записей группы

Состав

Эд.Юдовин - вокал, бас, тексты
Юрий Граборов - клавишные, сэмплы, запись
Александр Угорцин "Вагур" - гитары
Валентин Костенко - барабаны
Джим Глюк (Вадим Степанович) - музыка к песням 5,8, технические рекомендации.

Vi$itReal

Post 26-Mar-2018 14:15

[Quote]

В.П.Р. & Фестиваль Всего НаСвете / Шапка
Жанр: Reggae
Страна-производитель диска: Россия
Год издания диска: 2017
Издатель (лейбл): Выргород
Номер по каталогу: CDWYR-189-v2
Страна: Россия
Аудиокодек: FLAC
Тип рипа: image+.cue
Битрейт аудио: lossless
Продолжительность: 00:37:33
Источник: CD
Наличие сканов в содержимом раздачи: да
Треклист:
1. Шапка новая
2. Подхватило ураганом
3. Родина моя
4. Люди! Послушайте!
5. Ангел рядом
6. Рады мы
7. Цени момент
8. Песня №9
9. Цивилизация цыган
10. Родина моя (версия)

Лог создания рипа

Exact Audio Copy V1.3 from 2. September 2016
Отчёт EAC об извлечении, выполненном 26. марта 2018, 13:31
В.П.Р. & Фестиваль Всего НаСвете / Шапка
Дисковод: ATAPI iHAS122 C Adapter: 1 ID: 0
Режим чтения : ДостоверностьИспользование точного потока : ДаОтключение кэша аудио : ДаИспользование указателей C2 : Нет
Коррекция смещения при чтении : 6Способность читать области Lead-in и Lead-out : НетЗаполнение пропущенных сэмплов тишиной : ДаУдаление блоков с тишиной в начале и конце : НетПри вычислениях CRC использовались нулевые сэмплы : ДаИнтерфейс : Встроенный Win32-интерфейс для Win NT/2000
Выходной формат : Пользовательский кодировщикВыбранный битрейт : 768 kBit/sКачество : ВысокийДобавление ID3-тега : НетУтилита сжатия : C:\Program Files\Exact Audio Copy\FLAC\FLAC.EXEДополнительные параметры : -6 -V -T "ARTIST=%artist%" -T "TITLE=%title%" -T "ALBUM=%albumtitle%" -T "DATE=%year%" -T "TRACKNUMBER=%tracknr%" -T "GENRE=%genre%" -T "COMMENT=%comment%" -T "BAND=%albuminterpret%" -T "ALBUMARTIST=%albuminterpret%" -T "COMPOSER=%composer%" %haslyrics%--tag-from-file=LYRICS="%lyricsfile%"%haslyrics% -T "DISCNUMBER=%cdnumber%" -T "TOTALDISCS=%totalcds%" -T "TOTALTRACKS=%numtracks%" %hascover%--picture="%coverfile%"%hascover% %source% -o %dest%
TOC извлечённого CD
Трек | Старт | Длительность | Начальный сектор | Конечный сектор --------------------------------------------------------------------- 1 | 0:00.00 | 2:49.69 | 0 | 12743 2 | 2:49.69 | 4:07.26 | 12744 | 31294 3 | 6:57.20 | 4:30.47 | 31295 | 51591 4 | 11:27.67 | 3:30.05 | 51592 | 67346 5 | 14:57.72 | 3:32.45 | 67347 | 83291 6 | 18:30.42 | 2:29.56 | 83292 | 94522 7 | 21:00.23 | 3:08.48 | 94523 | 108670 8 | 24:08.71 | 3:52.52 | 108671 | 126122 9 | 28:01.48 | 4:52.13 | 126123 | 148035 10 | 32:53.61 | 4:39.00 | 148036 | 168960
Характеристики диапазона извлечения и сообщения об ошибках
Выбранный диапазон
Имя файла D:\Музыка\В.П.Р. & Фестиваль Всего НаСвете - Шапка (2017)\В.П.Р. & Фестиваль Всего НаСвете - Шапка.wav
Пиковый уровень 99.3 % Скорость извлечения 5.7 X Качество диапазона 100.0 % CRC теста 8649F90C CRC копии 8649F90C Копирование... OK
Ошибок не произошло
AccurateRip: сводка
Трек 1 отсутствует в базе данныхТрек 2 отсутствует в базе данныхТрек 3 отсутствует в базе данныхТрек 4 отсутствует в базе данныхТрек 5 отсутствует в базе данныхТрек 6 отсутствует в базе данныхТрек 7 отсутствует в базе данныхТрек 8 отсутствует в базе данныхТрек 9 отсутствует в базе данныхТрек 10 отсутствует в базе данных
Ни одного трека нет в базе AccurateRip
Конец отчёта
---- CUETools DB Plugin V2.1.6
[CTDB TOCID: 2eL7zdi0VEIJMqK5XGqndrkmmYc-] disk not present in databaseSubmit result: 2eL7zdi0VEIJMqK5XGqndrkmmYc- has been uploaded
Доп. информация: Автор текстов - ВПР, музыка - ФВНС
В песне «Родина моя» звучат стихотворение Макса Волошина и куплет из песни «Россия» группы «Меланж»

Об альбоме (сборнике)

Записано и сведено: Генерал Кундунгу Бабакуль Фондэйшн
Роман Баранюк (Студия Вадима Самойлова)
Анатолий Рясов (ПК «Тонстудия» киноконцерна «Мосфильм»)

Состав

В записи принимали участие:
Ольга Федоренкова
Сергей Киселёв
Роман Семёнов
Никита Миронов
Алексей Кульпин (6)
Сергей Трачук (3, 5)
Михаил Гницевич (8)
Геворг Агабальянц (6)
 

Current time is: 10-Dec 22:44

All times are UTC + 3