Search found 211 matches

Author Message

Vi$itReal

Post 02-Nov-2019 11:15

[Quote]


H.E.R. (Gabriella Wilson)


Жанр: R&B
Продолжительность: 00:54:06
Год выпуска: October 26, 2019
Качество: HDTV
Разрешение видео/развертка: 1080i
Контейнер: MKV
Видео кодек: MPEG2
Аудио кодек: AC3
Видео: MPEG2 Video 1920x1080 29.97fps 13.2 Mb/s
Аудио: Dolby AC3 48000Hz stereo 192kbps
Аудио 2: Dolby AC3 48000Hz mono 192kbps

Треклист

не полный!
Make It Rain
Hard Place
Hurt me so good
Focus
Interview

Отчёт MediaInfo / BDInfo

GeneralUnique ID                      : 2735994153734283633680395470264971353 (0x20EEEED325B6D63FA53B9260F11B059)Complete name                  : H:\H.E.R. - Austin City Limits  2019.mkvFormat                         : MatroskaFormat version                 : Version 4File size                      : 5.14 GiBDuration                       : 54 min 5 sOverall bit rate mode          : VariableOverall bit rate               : 13.6 Mb/sEncoded date                   : UTC 2019-10-28 19:59:35Writing application            : mkvmerge v38.0.0 ('The Silent Type') 64-bitWriting library                : libebml v1.3.9 + libmatroska v1.5.2
VideoID : 1Format : MPEG VideoFormat version : Version 2Format profile : [email protected] settings : CustomMatrix / BVOPFormat settings, BVOP : YesFormat settings, Matrix : CustomFormat settings, GOP : VariableFormat settings, picture struc : FrameCodec ID : V_MPEG2Codec ID/Info : MPEG 1 or 2 VideoDuration : 54 min 5 sBit rate mode : VariableBit rate : 13.2 Mb/sMaximum bit rate : 24.0 Mb/sWidth : 1 920 pixelsHeight : 1 080 pixelsDisplay aspect ratio : 16:9Active Format Description : Full frame 16:9 imageFrame rate mode : ConstantFrame rate : 29.970 (30000/1001) FPSColor space : YUVChroma subsampling : 4:2:0Bit depth : 8 bitsScan type : InterlacedScan order : Top Field FirstCompression mode : LossyBits/(Pixel*Frame) : 0.213Time code of first frame : 00:00:00;00Time code source : Group of pictures headerGOP, Open/Closed : OpenGOP, Open/Closed of first fram : ClosedStream size : 4.99 GiB (97%)Default : YesForced : No
Audio #1ID : 2Format : AC-3Format/Info : Audio Coding 3Commercial name : Dolby DigitalCodec ID : A_AC3Duration : 54 min 5 sBit rate mode : ConstantBit rate : 192 kb/sChannel(s) : 2 channelsChannel layout : L RSampling rate : 48.0 kHzFrame rate : 31.250 FPS (1536 SPF)Compression mode : LossyDelay relative to video : 22 msStream size : 74.3 MiB (1%)Language : EnglishService kind : Complete MainDefault : YesForced : No
Audio #2ID : 3Format : AC-3Format/Info : Audio Coding 3Commercial name : Dolby DigitalCodec ID : A_AC3Duration : 54 min 5 sBit rate mode : ConstantBit rate : 192 kb/sChannel(s) : 1 channelChannel layout : CSampling rate : 48.0 kHzFrame rate : 31.250 FPS (1536 SPF)Compression mode : LossyDelay relative to video : 22 msStream size : 74.3 MiB (1%)Language : EnglishService kind : Complete MainDefault : NoForced : No

Мои раздачи ®

Vi$itReal

Post 26-Oct-2019 15:45

[Quote]

Rita Ora


Жанр: RnB, Pop
Продолжительность: 00:08:56
Год выпуска: 2019
Качество: HDTV
Разрешение видео/развертка: 1080i
Контейнер: TS
Видео кодек: MPEG2
Аудио кодек: AAC
Видео: MPEG2 Video 1920x1080 29.97fps 21.7 Mb/s
Аудио: AAC 48000Hz stereo 183kbps

Треклист

For You
Let You Love Me

Отчёт MediaInfo / BDInfo

GeneralID                             : 17488 (0x4450)Complete name                  : F:\Summer Sonic 2019\Rita Ora - Summer Sonic 2019.tsFormat                         : MPEG-TSFile size                      : 1.36 GiBDuration                       : 8 min 56 sStart time                     : UTC 2019-10-22 14:58:13End time                       : UTC 2019-10-22 15:07:03Overall bit rate mode          : VariableOverall bit rate               : 21.9 Mb/sNetwork name                   : ‰BS DigitalOriginal network name          : Astra 2
VideoID : 576 (0x240)Menu ID : 192 (0xC0)Format : MPEG VideoFormat version : Version 2Format profile : [email protected] settings : CustomMatrix / BVOPFormat settings, BVOP : YesFormat settings, Matrix : CustomFormat settings, GOP : VariableCodec ID : 2Duration : 8 min 55 sBit rate mode : VariableWidth : 1 920 pixelsHeight : 1 080 pixelsDisplay aspect ratio : 16:9Frame rate : 29.970 (30000/1001) FPSColor space : YUVChroma subsampling : 4:2:0Bit depth : 8 bitsCompression mode : LossyTime code of first frame : 00:00:00:00Time code source : Group of pictures headerGOP, Open/Closed : OpenColor primaries : BT.709Transfer characteristics : BT.709Matrix coefficients : BT.709
AudioID : 577 (0x241)Menu ID : 192 (0xC0)Format : AAC LCFormat/Info : Advanced Audio Codec Low ComplexityFormat version : Version 2Muxing mode : ADTSCodec ID : 15-2Duration : 8 min 55 sBit rate mode : VariableChannel(s) : 2 channelsChannel layout : L RSampling rate : 48.0 kHzFrame rate : 46.875 FPS (1024 SPF)Compression mode : LossyDelay relative to video : -11 ms

Скриншоты

Мои раздачи ®

Vi$itReal

Post 24-Oct-2019 21:30

[Quote]

Die Fantastischen Vier - Wer 4 sind
Жанр: Documentary, Rap, Hip-Hop
Продолжительность: 01:41:06
Год выпуска: 2019
Описание: Their World Cup anthem "Together" from 2018 is still in all our ears, titles like "Die da!?!", "Sie ist weg" and "MfG" are unforgotten classics anyway: During their 30 years of band history, Die Fantastischen Vier have given us numerous hits. But nobody thinks of stopping with them yet. The four boys simply have too much to tell for that, as this documentary film proves. What is the secret of Germany's most successful hip hop band? What makes them different? How did they establish themselves in German pop culture and develop over the years? A look behind the scenes of a band that has written German music history and continues to do so.
Welcome to the colourful world of the FANTASTIC FOUR Thomas D, Smudo, Michi Beck and And.Ypsilon
This exclusive documentary film about the 30th anniversary of the most successful hip-hop band in Germany portrays the present, its reality and the diversity of the four fascinating characters..
Доп. информация: Перевода нет
Качество: Blu-ray
Разрешение видео/развертка: 1080i
Контейнер: BDMV
Видео кодек: H.264
Аудио кодек: DTS
Видео: MPEG-4 AVC Video / 25497 kbps / 1080i / 25 fps / 16:9 / High Profile 4.1
Аудио#1: German / DTS-HD Master Audio / 5.1 / 48 kHz / 1754 kbps / 16-bit (DTS Core: 5.1 / 48 kHz / 768 kbps / 16-bit)
Аудио#2: LPCM Audio / 2.0 / 48 kHz / 1536 kbps / 16-bit
BDInfo
Disc Label:     Wer 4 sind - Die Fantastischen VierDisc Size:      24,729,349,464 bytesProtection:     AACSExtras:         50Hz ContentBDInfo:         0.7.5.5
Notes:
BDINFO HOME: Cinema Squid (old) http://www.cinemasquid.com/blu-ray/tools/bdinfo UniqProject GitHub (new) https://github.com/UniqProject/BDInfo
INCLUDES FORUMS REPORT FOR: AVS Forum Blu-ray Audio and Video Specifications Thread http://www.avsforum.com/avs-vb/showthread.php?t=1155731
********************PLAYLIST: 00017.MPLS********************
Total   Video
Title                                                           Codec   Length  Movie Size      Disc Size       Bitrate Bitrate Main Audio Track                          Secondary Audio Track
-----                                                           ------  ------- --------------  --------------  ------- ------- ------------------                        ---------------------
00017.MPLS                                                      AVC     1:41:06 23,197,468,224  24,729,349,464  30.59   25.50   DTS-HD Master 5.1 1754Kbps (48kHz/16-bit)
DISC INFO:
Disc Label:     Wer 4 sind - Die Fantastischen Vier
Disc Size:      24,729,349,464 bytes
Protection:     AACS
Extras:         50Hz Content
BDInfo:         0.7.5.5
PLAYLIST REPORT:
Name:                   00017.MPLS
Length:                 1:41:06.880 (h:m:s.ms)
Size:                   23,197,468,224 bytes
Total Bitrate:          30.59 Mbps
VIDEO:
Codec                   Bitrate             Description
-----                   -------             -----------
MPEG-4 AVC Video        25497 kbps          1080i / 25 fps / 16:9 / High Profile 4.1
AUDIO:
Codec                           Language        Bitrate         Description
-----                           --------        -------         -----------
DTS-HD Master Audio             German          1754 kbps       5.1 / 48 kHz /  1754 kbps / 16-bit (DTS Core: 5.1 / 48 kHz /   768 kbps / 16-bit)
LPCM Audio                      Undetermined    1536 kbps       2.0 / 48 kHz /  1536 kbps / 16-bit
SUBTITLES:
Codec                           Language        Bitrate         Description
-----                           --------        -------         -----------
Presentation Graphics           Undetermined    80.507 kbps
FILES:
Name            Time In         Length          Size            Total Bitrate
----            -------         ------          ----            -------------
00005.M2TS      0:00:00.000     1:41:06.880     23,197,468,224  30,589
CHAPTERS:
Number          Time In         Length          Avg Video Rate  Max 1-Sec Rate  Max 1-Sec Time  Max 5-Sec Rate  Max 5-Sec Time  Max 10Sec Rate  Max 10Sec Time  Avg Frame Size  Max Frame Size  Max Frame Time
------          -------         ------          --------------  --------------  --------------  --------------  --------------  --------------  --------------  --------------  --------------  --------------
1               0:00:00.000     0:11:23.079     21,460 kbps     55,040 kbps     00:00:31.960    39,318 kbps     00:00:31.960    34,724 kbps     00:05:00.160    107,293 bytes   649,426 bytes   00:02:47.919
2               0:11:23.079     0:09:23.880     24,950 kbps     45,688 kbps     00:12:51.440    40,933 kbps     00:13:27.440    38,566 kbps     00:13:24.559    124,748 bytes   615,208 bytes   00:18:10.080
3               0:20:46.960     0:07:09.880     23,593 kbps     43,567 kbps     00:25:04.000    38,901 kbps     00:26:20.639    33,237 kbps     00:26:56.960    117,967 bytes   869,744 bytes   00:25:07.880
4               0:27:56.840     0:12:47.480     23,464 kbps     48,515 kbps     00:38:18.680    41,571 kbps     00:40:13.040    37,860 kbps     00:40:13.040    117,318 bytes   712,516 bytes   00:38:35.280
5               0:40:44.320     0:07:43.359     23,759 kbps     56,282 kbps     00:47:56.560    40,825 kbps     00:47:44.040    39,518 kbps     00:44:11.120    118,797 bytes   471,103 bytes   00:42:23.400
6               0:48:27.680     0:10:22.599     27,128 kbps     52,343 kbps     00:49:05.800    42,834 kbps     00:48:35.400    39,460 kbps     00:50:50.800    135,642 bytes   616,231 bytes   00:49:08.200
7               0:58:50.280     0:15:51.400     25,657 kbps     60,462 kbps     01:02:42.040    43,171 kbps     01:09:30.920    39,265 kbps     00:59:57.520    128,284 bytes   589,814 bytes   00:59:57.600
8               1:14:41.680     0:20:12.519     27,705 kbps     52,376 kbps     01:23:00.280    43,979 kbps     01:17:27.280    40,547 kbps     01:28:28.880    138,524 bytes   786,317 bytes   01:18:24.240
9               1:34:54.200     0:06:06.760     32,067 kbps     57,697 kbps     01:35:45.600    41,217 kbps     01:36:32.120    39,011 kbps     01:35:01.360    160,337 bytes   577,963 bytes   01:36:39.760
10              1:41:00.960     0:00:05.920     25,104 kbps     31,290 kbps     01:41:03.520    27,487 kbps     01:41:01.040    0 kbps          00:00:00.000    127,239 bytes   266,945 bytes   01:41:04.040
STREAM DIAGNOSTICS:
File            PID             Type            Codec           Language                Seconds                 Bitrate                 Bytes           Packets
----            ---             ----            -----           --------                --------------          --------------          -------------   -----
00005.M2TS      4113 (0x1011)   0x1B            AVC                                     6066.800                25,498                  19,336,120,020  105,177,542
00005.M2TS      4352 (0x1100)   0x86            DTS-HD MA       deu (German)            6066.800                1,754                   1,330,499,504   7,815,471
00005.M2TS      4353 (0x1101)   0x80            LPCM            und (Undetermined)      6066.800                1,542                   1,169,694,464   7,280,256
00005.M2TS      4608 (0x1200)   0x90            PGS             und (Undetermined)      6066.800                81                      61,053,918      343,638
QUICK SUMMARY:
Disc Label: Wer 4 sind - Die Fantastischen VierDisc Size: 24,729,349,464 bytesProtection: AACSPlaylist: 00017.MPLSSize: 23,197,468,224 bytesLength: 1:41:06.880Total Bitrate: 30.59 MbpsVideo: MPEG-4 AVC Video / 25497 kbps / 1080i / 25 fps / 16:9 / High Profile 4.1Audio: German / DTS-HD Master Audio / 5.1 / 48 kHz / 1754 kbps / 16-bit (DTS Core: 5.1 / 48 kHz / 768 kbps / 16-bit)Audio: Undetermined / LPCM Audio / 2.0 / 48 kHz / 1536 kbps / 16-bitSubtitle: Undetermined / 80.507 kbps
********************PLAYLIST: 00009.MPLS********************[/pre]
Total   Video
Title                                                           Codec   Length  Movie Size      Disc Size       Bitrate Bitrate Main Audio Track                          Secondary Audio Track
-----                                                           ------  ------- --------------  --------------  ------- ------- ------------------                        ---------------------
00009.MPLS                                                      AVC     0:02:20 509,111,808     24,729,349,464  28.94   25.52   DTS-HD Master 5.1 1986Kbps (48kHz/16-bit)
DISC INFO:
Disc Label:     Wer 4 sind - Die Fantastischen Vier
Disc Size:      24,729,349,464 bytes
Protection:     AACS
Extras:         50Hz Content
BDInfo:         0.7.5.5
PLAYLIST REPORT:
Name:                   00009.MPLS
Length:                 0:02:20.720 (h:m:s.ms)
Size:                   509,111,808 bytes
Total Bitrate:          28.94 Mbps
VIDEO:
Codec                   Bitrate             Description
-----                   -------             -----------
MPEG-4 AVC Video        25521 kbps          1080i / 25 fps / 16:9 / High Profile 4.1
AUDIO:
Codec                           Language        Bitrate         Description
-----                           --------        -------         -----------
DTS-HD Master Audio             German          1986 kbps       5.1 / 48 kHz /  1986 kbps / 16-bit (DTS Core: 5.1 / 48 kHz /   768 kbps / 16-bit)
FILES:
Name            Time In         Length          Size            Total Bitrate
----            -------         ------          ----            -------------
00003.M2TS      0:00:00.000     0:01:49.600     397,677,504     29,017
00011.M2TS      0:01:49.600     0:00:31.120     111,434,304     28,610
CHAPTERS:
Number          Time In         Length          Avg Video Rate  Max 1-Sec Rate  Max 1-Sec Time  Max 5-Sec Rate  Max 5-Sec Time  Max 10Sec Rate  Max 10Sec Time  Avg Frame Size  Max Frame Size  Max Frame Time
------          -------         ------          --------------  --------------  --------------  --------------  --------------  --------------  --------------  --------------  --------------  --------------
1               0:00:00.000     0:01:49.559     25,641 kbps     60,427 kbps     00:01:38.919    39,369 kbps     00:01:34.600    36,362 kbps     00:01:29.759    128,206 bytes   886,131 bytes   00:01:43.240
2               0:01:49.559     0:00:31.160     25,166 kbps     55,186 kbps     00:02:09.120    38,284 kbps     00:02:06.000    34,143 kbps     00:02:04.640    126,316 bytes   884,366 bytes   00:02:14.680
STREAM DIAGNOSTICS:
File            PID             Type            Codec           Language                Seconds                 Bitrate                 Bytes           Packets
----            ---             ----            -----           --------                --------------          --------------          -------------   -----
00003.M2TS      4113 (0x1011)   0x1B            AVC                                     109.520                 25,652                  351,177,337     1,910,137
00003.M2TS      4352 (0x1100)   0x86            DTS-HD MA       deu (German)            109.520                 1,974                   27,024,524      157,508
00011.M2TS      4113 (0x1011)   0x1B            AVC                                     31.040                  25,269                  98,042,924      533,297
00011.M2TS      4352 (0x1100)   0x86            DTS-HD MA       deu (German)            31.040                  2,045                   7,932,936       46,125
QUICK SUMMARY:
Disc Label: Wer 4 sind - Die Fantastischen VierDisc Size: 24,729,349,464 bytesProtection: AACSPlaylist: 00009.MPLSSize: 509,111,808 bytesLength: 0:02:20.720Total Bitrate: 28.94 MbpsVideo: MPEG-4 AVC Video / 25521 kbps / 1080i / 25 fps / 16:9 / High Profile 4.1Audio: German / DTS-HD Master Audio / 5.1 / 48 kHz / 1986 kbps / 16-bit (DTS Core: 5.1 / 48 kHz / 768 kbps / 16-bit)[/pre]

Скриншоты


Vi$itReal

Post 19-Oct-2019 09:25

[Quote]


H.E.R.


Жанр: R&B
Продолжительность: 01:12:13
Год выпуска: October 5, 2019
Качество: HDTV
Разрешение видео/развертка: 1080i
Контейнер: TS
Видео кодек: H.264
Аудио кодек: AC3
Видео: MPEG4 Video (H264) 1920x1080 29.97fps 10.2 Mb/s
Аудио: Dolby AC3 48000Hz 6ch 384kbps

Треклист

Carried Away
2
Racks
Best Part (Daniel Caesar cover)
Hard Place
Make It Rain (Foy Vance cover)
Focus
Ex-Factor (Lauryn Hill cover)
DJ Break / Percussion Solo
Slide
As I Am
Lights On
Fate (With "Earth Song" snippet by Michael Jackson)
H.E.R. Guitar Solo

Отчёт MediaInfo / BDInfo

GeneralID                             : 1 (0x1)Complete name                  : F:\Rock in Rio 2019\H.E.R. - Rock in Rio 2019.tsFormat                         : MPEG-TSFile size                      : 5.59 GiBDuration                       : 1 h 12 minOverall bit rate mode          : VariableOverall bit rate               : 11.1 Mb/s
VideoID : 1328 (0x530)Menu ID : 1336 (0x538)Format : AVCFormat/Info : Advanced Video CodecFormat profile : [email protected] settings : CABAC / 4 Ref FramesFormat settings, CABAC : YesFormat settings, Reference fra : 4 framesCodec ID : 27Duration : 1 h 12 minBit rate : 10.2 Mb/sWidth : 1 920 pixelsHeight : 1 080 pixelsDisplay aspect ratio : 16:9Frame rate : 29.970 (30000/1001) FPSColor space : YUVChroma subsampling : 4:2:0Bit depth : 8 bitsScan type : MBAFFScan type, store method : Interleaved fieldsScan order : Top Field FirstBits/(Pixel*Frame) : 0.163Stream size : 5.12 GiB (92%)
AudioID : 1329 (0x531)Menu ID : 1336 (0x538)Format : AC-3Format/Info : Audio Coding 3Commercial name : Dolby DigitalCodec ID : 129Duration : 1 h 12 minBit rate mode : ConstantBit rate : 384 kb/sChannel(s) : 6 channelsChannel layout : L R C LFE Ls RsSampling rate : 48.0 kHzFrame rate : 31.250 FPS (1536 SPF)Compression mode : LossyStream size : 198 MiB (3%)Language : EnglishService kind : Complete Main

Скриншоты

Мои раздачи ®

Vi$itReal

Post 03-Oct-2019 22:05

[Quote]

Nicki Minaj feat. Rihanna - Fly Жанр: R&B, Pop, Hip-Hop
Продолжительность: 00:04:41
Год выпуска: 2011
Качество: Master
Разрешение видео/развертка: 1080i
Контейнер: MOV
Видео кодек: APCH
Аудио кодек: PCM
Видео: Apple ProRes 422 HQ, 1920x1080i, 213 Mbps, 29.970 fps
Аудио: LPCM, 2304 kbps, 48000 Hz, 2 channels (stereo)

Отчёт MediaInfo / BDInfo

GeneralComplete name               : C:\Users\Admin\Downloads\NMRF\Nicki Minaj & Rihanna - Fly (LPCM-Master-ProRes-1080i-USCMV1100067).movFormat                      : MPEG-4Format profile              : QuickTimeCodec ID                    : qt   2005.03 (qt  )File size                   : 7.05 GiBDuration                    : 4 min 40 sOverall bit rate mode       : VariableOverall bit rate            : 216 Mb/sEncoded date                : UTC 2017-02-03 13:47:12Tagged date                 : UTC 2017-03-16 17:50:19Writing library             : Apple QuickTime
VideoID : 1Format : ProResFormat profile : 422 HQCodec ID : apchDuration : 4 min 40 sBit rate mode : VariableBit rate : 213 Mb/sWidth : 1 920 pixelsHeight : 1 080 pixelsDisplay aspect ratio : 16:9Frame rate mode : ConstantFrame rate : 29.970 (30000/1001) FPSColor space : YUVChroma subsampling : 4:2:2Scan type : InterlacedScan type, store method : Interleaved fieldsScan order : Top Field FirstBits/(Pixel*Frame) : 3.432Stream size : 6.97 GiB (99%)Language : EnglishEncoded date : UTC 2017-02-03 13:47:12Tagged date : UTC 2017-02-03 13:57:44Color primaries : BT.709Transfer characteristics : BT.709Matrix coefficients : BT.709
AudioID : 2Format : PCMFormat settings : Little / SignedCodec ID : in24Duration : 4 min 40 sBit rate mode : ConstantBit rate : 2 304 kb/sChannel(s) : 2 channelsChannel layout : L RSampling rate : 48.0 kHzBit depth : 24 bitsStream size : 77.1 MiB (1%)Language : EnglishEncoded date : UTC 2017-02-03 13:47:12Tagged date : UTC 2017-02-03 13:57:47

Скриншоты

Vi$itReal

Post 30-Sep-2019 19:20

[Quote]


Alicia Keys

Жанр: R'n'B, Soul
Продолжительность: 00:35:18
Год выпуска: 28 Sep 2019
Качество: HDTV
Разрешение видео/развертка: 1080i
Контейнер: MPG
Видео кодек: MPEG2
Аудио кодек: AC3
Видео: MPEG2 Video 1920x1080 29.97fps 10.3 Mb/s
Аудио: Dolby AC3 48000Hz 6ch 384kbps

Треклист

Girl on Fire (We Will Rock You snippet)
Try Sleeping with a Broken Heart
Show Me Love
Dream On (Aerosmith cover) (with H.E.R.)
If I Ain't Got You
New York State of Mind (Billy Joel cover) (snippet)
Empire State of Mind, Part II: Broken Down
No One

Отчёт MediaInfo / BDInfo

GeneralComplete name                  : F:\Alicia Keys - Global Citizen Festival 2019.mpgFormat                         : MPEG-PSFile size                      : 2.69 GiBDuration                       : 35 min 18 sOverall bit rate mode          : VariableOverall bit rate               : 10.9 Mb/s
VideoID : 224 (0xE0)Format : MPEG VideoFormat version : Version 2Format profile : [email protected] settings : BVOPFormat settings, BVOP : YesFormat settings, Matrix : DefaultFormat settings, GOP : VariableFormat settings, picture struc : FrameDuration : 35 min 18 sBit rate mode : VariableBit rate : 10.3 Mb/sMaximum bit rate : 64.0 Mb/sWidth : 1 920 pixelsHeight : 1 080 pixelsDisplay aspect ratio : 16:9Frame rate : 29.970 (30000/1001) FPSColor space : YUVChroma subsampling : 4:2:0Bit depth : 8 bitsScan type : InterlacedScan order : Top Field FirstCompression mode : LossyBits/(Pixel*Frame) : 0.166Time code of first frame : 00:00:00;00Time code source : Group of pictures headerStream size : 2.54 GiB (94%)
AudioID : 189 (0xBD)-128 (0x80)Format : AC-3Format/Info : Audio Coding 3Commercial name : Dolby DigitalMuxing mode : DVD-VideoDuration : 35 min 18 sBit rate mode : ConstantBit rate : 384 kb/sChannel(s) : 6 channelsChannel layout : L R C LFE Ls RsSampling rate : 48.0 kHzFrame rate : 31.250 FPS (1536 SPF)Bit depth : 16 bitsCompression mode : LossyDelay relative to video : 6 msStream size : 97.0 MiB (4%)Service kind : Complete Main

Скриншоты

Мои раздачи ®

Vi$itReal

Post 10-Sep-2019 04:20

[Quote]


Rita Ora


Жанр: Pop
Продолжительность: 00:29:39
Год выпуска: 2018
Качество: HDTV
Разрешение видео/развертка: 1080i
Контейнер: TS
Видео кодек: H.264
Аудио кодек: AAC
Видео: MPEG4 Video (H264) 1920x1080 25fps 12.1 Mb/s
Аудио: AAC 48000Hz stereo 193kbps

Треклист

01. Your Song
02. Poison
03. I Will Never Let You Down
04. Hot Right Now
05. For You
06. Anywere

Отчёт MediaInfo / BDInfo

GeneralID                             : 1 (0x1)Complete name                  : F:\Rita Ora - Isle Of Wight Festival 2018 Friday 1080i HDMania.tsFormat                         : MPEG-TSFile size                      : 2.61 GiBDuration                       : 29 min 39 sOverall bit rate mode          : VariableOverall bit rate               : 12.6 Mb/s
VideoID : 100 (0x64)Menu ID : 2 (0x2)Format : AVCFormat/Info : Advanced Video CodecFormat profile : [email protected] settings : CABAC / 2 Ref FramesFormat settings, CABAC : YesFormat settings, ReFrames : 2 framesFormat settings, GOP : M=2, N=12Codec ID : 27Duration : 29 min 39 sWidth : 1 920 pixelsHeight : 1 080 pixelsDisplay aspect ratio : 16:9Frame rate : 25.000 FPSColor space : YUVChroma subsampling : 4:2:0Bit depth : 8 bitsScan type : InterlacedScan type, store method : Separated fieldsScan order : Top Field FirstColor range : LimitedColor primaries : BT.709Transfer characteristics : BT.709Matrix coefficients : BT.709
AudioID : 101 (0x65)Menu ID : 2 (0x2)Format : AACFormat/Info : Advanced Audio CodecFormat version : Version 4Format profile : LCMuxing mode : ADTSCodec ID : 15Duration : 29 min 39 sBit rate mode : VariableChannel(s) : 2 channelsChannel positions : Front: L RSampling rate : 48.0 kHzFrame rate : 46.875 FPS (1024 SPF)Compression mode : Lossy

Скриншоты

Мои раздачи ®

Vi$itReal

Post 10-Sep-2019 04:20

[Quote]

Rita Ora – "Let You Love Me" ( 44th E! People Choice Awards )
Жанр: Pop
Продолжительность: 00:03:55
Год выпуска: 2018
Качество: HDTV
Разрешение видео/развертка: 1080i
Контейнер: TS
Видео кодек: MPEG2
Аудио кодек: AC3
Видео: MPEG2, 1920x1080, 12,7 mbit/s, 29.97fps
Аудио: AC3 48000Hz 6ch 384kbps
Аудио 2: AC3 48000Hz 2ch 192kbps

Отчёт MediaInfo / BDInfo

ОбщееИдентификатор                            : 1 (0x1)Полное имя                               : E:\Rita Ora – Let You Love Me.tsФормат                                   : MPEG-TSРазмер файла                             : 392 МбайтПродолжительность                        : 3 м. 55 с.Режим общего битрейта                    : ПеременныйОбщий поток                              : 14,0 Мбит/сек
ВидеоИдентификатор : 101 (0x65)Идентификатор меню : 1 (0x1)Формат : MPEG VideoВерсия формата : Version 2Профиль формата : [email protected]Настройки формата : BVOPПараметр BVOP формата : ДаПараметр матрицы формата : По умолчаниюПараметр GOP формата : VariableСтруктура изображения : FrameИдентификатор кодека : 2Продолжительность : 3 м. 55 с.Вид битрейта : ПеременныйБитрейт : 12,7 Мбит/секМаксимальный битрейт : 64,0 Мбит/секШирина : 1920 пикселейВысота : 1080 пикселейСоотношение сторон : 16:9Описание активного формата : Full frame 16:9 imageЧастота кадров : 29,970 (30000/1001) кадров/секЦветовое пространство : YUVСубдискретизация насыщенности : 4:2:0Битовая глубина : 8 битТип развёртки : ЧересстрочнаяПорядок развёртки : Верхнее поле первоеМетод сжатия : С потерямиБит/(Пиксели*Кадры) : 0.204Временной код первого кадра : 00:00:00;00Оригинал временного кода : Group of pictures headerРазмер потока : 356 Мбайт (91%)
Аудио #1Идентификатор : 7552 (0x1D80)Идентификатор меню : 1 (0x1)Формат : AC-3Формат/Информация : Audio Coding 3Идентификатор кодека : 129Продолжительность : 3 м. 55 с.Вид битрейта : ПостоянныйБитрейт : 384 Кбит/секКаналы : 6 каналовРасположение каналов : Front: L C R, Side: L R, LFEЧастота : 48,0 КГцЧастота кадров : 31,250 кадров/сек (1536 SPF)Битовая глубина : 16 битМетод сжатия : С потерямиЗадержка видео : 14 мс.Размер потока : 10,8 Мбайт (3%)Язык : EnglishServiceKind/String : Complete Main
Аудио #2Идентификатор : 7553 (0x1D81)Идентификатор меню : 1 (0x1)Формат : AC-3Формат/Информация : Audio Coding 3Идентификатор кодека : 129Продолжительность : 3 м. 55 с.Вид битрейта : ПостоянныйБитрейт : 192 Кбит/секКаналы : 2 каналаРасположение каналов : Dual monoЧастота : 48,0 КГцЧастота кадров : 31,250 кадров/сек (1536 SPF)Битовая глубина : 16 битМетод сжатия : С потерямиЗадержка видео : 17 мс.Размер потока : 5,39 Мбайт (1%)Язык : EnglishServiceKind/String : Complete Main
Текст #1Идентификатор : 101 (0x65)-CC1Идентификатор меню : 1 (0x1)Формат : EIA-608Режим смешивания : A/53 / DTVCC TransportРежим смешивания, доп. информация : Muxed in Video #1Продолжительность : 3 м. 55 с.Вид битрейта : ПостоянныйРазмер потока : 0,00 байт (0%)CaptionServiceName : CC1
Текст #2Идентификатор : 101 (0x65)-1Идентификатор меню : 1 (0x1)Формат : EIA-708Режим смешивания : A/53 / DTVCC TransportРежим смешивания, доп. информация : Muxed in Video #1Продолжительность : 3 м. 55 с.Вид битрейта : ПостоянныйРазмер потока : 0,00 байт (0%)

Скриншоты

Vi$itReal

Post 10-Sep-2019 04:20

[Quote]

Rita Ora - Let You Love Me Жанр: Pop
Продолжительность: 00:03:10
Год выпуска: 2018
Качество: Master
Разрешение видео/развертка: 1080p
Контейнер: MOV
Видео кодек: APCS
Аудио кодек: PCM
Видео: Apple ProRes 422 LT, 1920x1080p, 79.7 Mbps, 25 fps
Аудио: LPCM, 1536 kbps, 48000 Hz, 2 channels (stereo)

Отчёт MediaInfo / BDInfo

GeneralComplete name                  : D:\Master\Rita Ora - Let You Love Me.movFormat                         : MPEG-4Format profile                 : QuickTimeCodec ID                       : qt   0000.00 (qt  )File size                      : 1.80 GiBDuration                       : 3 min 10 sOverall bit rate mode          : VariableOverall bit rate               : 81.3 Mb/sEncoded date                   : UTC 2019-02-07 15:06:15Tagged date                    : UTC 2019-02-07 15:08:37Writing library                : Apple QuickTime
VideoID : 1Format : ProResFormat version : Version 0Format profile : 422 LTCodec ID : apcsDuration : 3 min 10 sBit rate mode : VariableBit rate : 79.7 Mb/sWidth : 1 920 pixelsHeight : 1 080 pixelsDisplay aspect ratio : 16:9Frame rate mode : ConstantFrame rate : 25.000 FPSColor space : YUVChroma subsampling : 4:2:2Scan type : ProgressiveBits/(Pixel*Frame) : 1.538Stream size : 1.77 GiB (98%)Title : Core Media VideoWriting library : abm0Encoded date : UTC 2019-02-07 15:06:15Tagged date : UTC 2019-02-07 15:08:37Color primaries : BT.709Transfer characteristics : BT.709Matrix coefficients : BT.709
AudioID : 2Format : PCMFormat settings : Little / SignedCodec ID : lpcmDuration : 3 min 10 sBit rate mode : ConstantBit rate : 1 536 kb/sChannel(s) : 2 channelsChannel layout : L RSampling rate : 48.0 kHzBit depth : 16 bitsStream size : 34.8 MiB (2%)Title : Core Media AudioEncoded date : UTC 2019-02-07 15:06:15Tagged date : UTC 2019-02-07 15:08:37
OtherID : 3Type : Time codeFormat : QuickTime TCDuration : 3 min 10 sTime code of first frame : 01:00:00:00Time code, striped : YesTitle : Core Media Time CodeEncoded date : UTC 2019-02-07 15:06:15Tagged date : UTC 2019-02-07 15:08:37

Скриншоты

Vi$itReal

Post 27-Aug-2019 14:15

[Quote]


Anderson .Paak and The Free Nationals

feed
Жанр: Hip-Hop, R&B
Продолжительность: 00:44:10
Год выпуска: August 24, 2019
Качество: HDTV
Разрешение видео/развертка: 1080i
Контейнер: TS
Видео кодек: H.264
Аудио кодек: MP2
Видео: MPEG4 Video (H264) 1920x1080 25fps 14.3 Mb/s
Аудио: MPEG Audio 48000Hz stereo 256kbps

Треклист

Trumpet Intro
Heart Don't Stand a Chance
Saviers Road
Come Down
Tints
King James
6 Summers
Glowed Up (Kaytranada cover)
Make It Better
TNava Solo
Jet Black
Bubblin'
Milk n' Honey

Отчёт MediaInfo / BDInfo

GeneralID                             : 0 (0x0)Complete name                  : F:\Anderson .Paak and The Free Nationals - Reading and Leeds Festival 2019.tsFormat                         : MPEG-TSFile size                      : 4.81 GiBDuration                       : 44 min 10 sOverall bit rate mode          : VariableOverall bit rate               : 15.6 Mb/s
VideoID : 512 (0x200)Menu ID : 1 (0x1)Format : AVCFormat/Info : Advanced Video CodecFormat profile : [email protected] settings : CABAC / 3 Ref FramesFormat settings, CABAC : YesFormat settings, Reference fra : 3 framesFormat settings, GOP : M=4, N=24Codec ID : 27Duration : 44 min 10 sBit rate mode : ConstantBit rate : 14.3 Mb/sNominal bit rate : 15.1 Mb/sWidth : 1 920 pixelsHeight : 1 080 pixelsDisplay aspect ratio : 16:9Frame rate : 25.000 FPSColor space : YUVChroma subsampling : 4:2:0Bit depth : 8 bitsScan type : MBAFFScan type, store method : Interleaved fieldsScan order : Top Field FirstBits/(Pixel*Frame) : 0.276Stream size : 4.41 GiB (92%)Color range : LimitedColor primaries : BT.709Transfer characteristics : BT.709Matrix coefficients : BT.709
Audio #1ID : 4112 (0x1010)Menu ID : 1 (0x1)Format : MPEG AudioFormat version : Version 1Format profile : Layer 2Codec ID : 3Duration : 44 min 10 sBit rate mode : ConstantBit rate : 256 kb/sChannel(s) : 2 channelsSampling rate : 48.0 kHzFrame rate : 41.667 FPS (1152 SPF)Compression mode : LossyDelay relative to video : 8 msStream size : 80.9 MiB (2%)Language : GermanLanguage, more info : Clean effects
Audio #2ID : 4128 (0x1020)Menu ID : 1 (0x1)Format : MPEG AudioFormat version : Version 1Format profile : Layer 2Codec ID : 3Duration : 44 min 10 sBit rate mode : ConstantBit rate : 256 kb/sChannel(s) : 2 channelsSampling rate : 48.0 kHzFrame rate : 41.667 FPS (1152 SPF)Compression mode : LossyDelay relative to video : 8 msStream size : 80.9 MiB (2%)Language : GermanLanguage, more info : Clean effects

Скриншоты

Мои раздачи ®

Vi$itReal

Post 15-Aug-2019 14:15

[Quote]


Alicia Keys
New Day


Жанр: R'n'B, Soul
Продолжительность: 00:04:30
Год выпуска: 2012
Качество: HDTV
Разрешение видео/развертка: 1080p
Контейнер: TS
Видео кодек: H.264
Аудио кодек: AC3
Видео: MPEG4 Video (H264) 1920x1080 25fps 15.0 Mb/s
Аудио: Dolby AC3 48000Hz stereo 384kbps

Отчёт MediaInfo / BDInfo

GeneralID                             : 0 (0x0)Complete name                  : J:\Alicia Keys - New Day (Alan Carr Chatty Man) 2012.tsFormat                         : MPEG-TSFile size                      : 515 MiBDuration                       : 4 min 32 sOverall bit rate mode          : ConstantOverall bit rate               : 15.9 Mb/s
VideoID : 2064 (0x810)Menu ID : 1 (0x1)Format : AVCFormat/Info : Advanced Video CodecFormat profile : [email protected] settings : CABAC / 3 Ref FramesFormat settings, CABAC : YesFormat settings, Reference fra : 3 framesCodec ID : 27Duration : 4 min 30 sBit rate mode : ConstantBit rate : 15.0 Mb/sWidth : 1 920 pixelsHeight : 1 080 pixelsDisplay aspect ratio : 16:9Frame rate : 25.000 FPSStandard : PALColor space : YUVChroma subsampling : 4:2:0Bit depth : 8 bitsScan type : ProgressiveBits/(Pixel*Frame) : 0.289Stream size : 474 MiB (92%)Color range : LimitedColor primaries : BT.709Transfer characteristics : BT.709Matrix coefficients : BT.709
AudioID : 2068 (0x814)Menu ID : 1 (0x1)Format : AC-3Format/Info : Audio Coding 3Commercial name : Dolby DigitalCodec ID : 129Duration : 4 min 30 sBit rate mode : ConstantBit rate : 384 kb/sChannel(s) : 2 channelsChannel layout : L RSampling rate : 48.0 kHzFrame rate : 31.250 FPS (1536 SPF)Bit depth : 16 bitsCompression mode : LossyStream size : 12.4 MiB (2%)Language : EnglishService kind : Complete Main

Скриншоты

Мои раздачи ®

Vi$itReal

Post 11-Aug-2019 04:15

[Quote]

Cardi B
Openair Frauenfeld


Жанр: Hip hop
Продолжительность: 00:38:52
Год выпуска: 2019
Качество: HDTV
Разрешение видео/развертка: 720p
Контейнер: TS
Видео кодек: H.264
Аудио кодек: AC3
Видео: MPEG4 Video (H264) 1280x720 50fps 10.3 Mb/s
Аудио: Dolby AC3 48000Hz 6ch 448kbps

Треклист (full)

Get Up 10
Backin' It Up (Pardison Fontaine cover)
Money Bag
No Limit (G‐Eazy cover)
She Bad
MotorSport (Migos cover)
Money
Press
Drip
Ring
Twerk (City Girls cover)
Thotiana (Blueface cover)
Taki Taki (DJ Snake cover)
Clout (Offset cover)
I Like It
Finesse (Bruno Mars cover)
Bartier Cardi
Bodak Yellow

Отчёт MediaInfo / BDInfo

GeneralID                             : 1 (0x1)Complete name                  : F:\Cardi B - Openair Frauenfeld 2019.tsFormat                         : MPEG-TSFile size                      : 3.06 GiBDuration                       : 38 min 51 sOverall bit rate mode          : VariableOverall bit rate               : 11.3 Mb/s
VideoID : 512 (0x200)Menu ID : 1 (0x1)Format : AVCFormat/Info : Advanced Video CodecFormat profile : [email protected] settings : CABAC / 3 Ref FramesFormat settings, CABAC : YesFormat settings, Reference fra : 3 framesFormat settings, GOP : M=2, N=24Codec ID : 27Duration : 38 min 51 sBit rate : 10.3 Mb/sWidth : 1 280 pixelsHeight : 720 pixelsDisplay aspect ratio : 16:9Frame rate : 50.000 FPSStandard : ComponentColor space : YUVChroma subsampling : 4:2:0Bit depth : 8 bitsScan type : ProgressiveBits/(Pixel*Frame) : 0.223Stream size : 2.79 GiB (91%)Color range : LimitedColor primaries : BT.709Transfer characteristics : BT.709Matrix coefficients : BT.709
AudioID : 515 (0x203)Menu ID : 1 (0x1)Format : AC-3Format/Info : Audio Coding 3Commercial name : Dolby DigitalCodec ID : 6Duration : 38 min 51 sBit rate mode : ConstantBit rate : 448 kb/sChannel(s) : 6 channelsChannel layout : L R C LFE Ls RsSampling rate : 48.0 kHzFrame rate : 31.250 FPS (1536 SPF)Bit depth : 16 bitsCompression mode : LossyStream size : 125 MiB (4%)Language : GermanService kind : Complete Main

Скриншоты

Мои раздачи ®

Vi$itReal

Post 22-Jul-2019 08:50

[Quote]

City Girls feat. Cardi B - Twerk Жанр: Hip Hop
Продолжительность: 00:03:51
Год выпуска: 2019
Описание: Песня Twerk от хип-хоп дуэта City Girls и Cardi B с момента выхода клипа стала настоящим гимном танцевального стиля тверк. Музыкальные критики отмечали правильную мелодию в композиции, что является идеальным вариантом для исполнения известного хип-хоп танца. Ну а видеоряд.... оставлю без комментариев))) Лучше это зрелище увидеть своими глазами)))
Доп. информация: Файл от Hossein Enr7que.
Качество: WebDL
Разрешение видео/развертка: 1080p
Контейнер: TS
Видео кодек: AVC
Аудио кодек: AAC
Видео: 1920 x 1080 (1.778) at 25.000 fps AVC at 7701 Кбит/сек
Аудио: 2 канала, 48,0 КГц AAC at 320 Кбит/сек

Отчёт MediaInfo / BDInfo

Формат                                   : MPEG-TSРазмер файла                             : 221 МбайтПродолжительность                        : 3 м. 51 с.Режим общего битрейта                    : ПеременныйОбщий поток                              : 8021 Кбит/сек
ВидеоИдентификатор : 33 (0x21)Идентификатор меню : 16727 (0x4157)Формат : AVCФормат/Информация : Advanced Video CodecПрофиль формата : [email protected]Параметр CABAC формата : ДаПараметр ReFrames формата : 4 кадраИдентификатор кодека : 27Продолжительность : 3 м. 51 с.Максимальный битрейт : 7701 Кбит/секШирина : 1920 пикселейВысота : 1080 пикселейСоотношение сторон : 16:9Режим частоты кадров : ПеременныйЦветовое пространство : YUVСубдискретизация насыщенности : 4:2:0Битовая глубина : 8 битТип развёртки : ПрогрессивнаяБиблиотека кодирования : x264 core 157Настройки программы : cabac=1 / ref=4 / deblock=1:0:0 / analyse=0x3:0x113 / me=hex / subme=8 / psy=1 / psy_rd=1.00:0.00 / mixed_ref=1 / me_range=16 / chroma_me=1 / trellis=2 / 8x8dct=1 / cqm=0 / deadzone=21,11 / fast_pskip=1 / chroma_qp_offset=-2 / threads=24 / lookahead_threads=4 / sliced_threads=0 / nr=0 / decimate=1 / interlaced=0 / bluray_compat=0 / constrained_intra=0 / bframes=3 / b_pyramid=2 / b_adapt=1 / b_bias=0 / direct=3 / weightb=1 / open_gop=0 / weightp=2 / keyint=72 / keyint_min=37 / scenecut=0 / intra_refresh=0 / rc_lookahead=50 / rc=crf / mbtree=1 / crf=20.0 / qcomp=0.60 / qpmin=0 / qpmax=69 / qpstep=4 / vbv_maxrate=8800 / vbv_bufsize=12000 / crf_max=0.0 / nal_hrd=none / filler=0 / ip_ratio=1.40 / aq=1:1.00
АудиоИдентификатор : 34 (0x22)Идентификатор меню : 16727 (0x4157)Формат : AACФормат/Информация : Advanced Audio CodecВерсия формата : Version 4Профиль формата : LCРежим смешивания : ADTSИдентификатор кодека : 15Продолжительность : 3 м. 51 с.Вид битрейта : ПеременныйМаксимальный битрейт : 320 Кбит/секКаналы : 2 каналаРасположение каналов : Front: L RЧастота : 48,0 КГцЧастота кадров : 46,875 кадров/сек (1024 spf)Метод сжатия : С потерями

Скриншоты

Vi$itReal

Post 22-Jul-2019 04:30

[Quote]

WU-TANG CLAN - Wu-Tang Clan: Of Mics & Men (Documentary) (2019)
Жанр: Documentary,Music,Tv Series
Продолжительность: 4 x 60 minutes
Год выпуска: 2019
Описание: Limited docuseries looks back on the group's career. It was music and shared lyrical genius that allowed them to form the most recognized musical movement in the world, all while walking the tightrope that links business with brotherhood.
Доп. информация: Language: English
Duration: 4 x 60 minutes
Director: Sacha Jenkins
Screenwriter: Paul Greenhouse
Stars: Wu-Tang Clan
Качество: HDTV
Разрешение видео/развертка: 720p
Контейнер: MKV
Видео кодек: MPEG2
Аудио кодек: AAC
Видео: Codec de Vídeo AVC1 - Decoder FFmpeg Interno(h264, Thread Frame) Tipo de Entrada AVC1(24 bits) Tamanho da Entrada 720 × 400(1.78:1) Saída YUY2(16 bits) Tamanho da Saída 720 × 400(1.78:1) Fra
Аудио: Codec de Áudio AAC(0xaac0) - Decoder FFmpeg Interno(aac) Sample rate 48000 ->48000 samples / seg Bitrate 32 ->16 bits / sample Canais 2 ->2 canais Bitrate: 0 kbps

Отчёт MediaInfo / BDInfo

Codec de Vídeo AVC1 - Decoder FFmpeg Interno(h264, Thread Frame)  Tipo de Entrada AVC1(24 bits)  Tamanho da Entrada 720 × 400(1.78:1)  Saída YUY2(16 bits)  Tamanho da Saída 720 × 400(1.78:1)  Frame Rate 23.976  BitRate: Desconhecido
[Informações do Áudio] Codec de Áudio AAC(0xaac0) - Decoder FFmpeg Interno(aac) Sample rate 48000 ->48000 samples / seg Bitrate 32 ->16 bits / sample Canais 2 ->2 canais Bitrate: 0 kbps

Скриншоты



Vi$itReal

Post 12-Jul-2019 10:40

[Quote]

SZA
Amazon Prime Day Concert



Жанр: Hip-Hop, R&B, Soul
Продолжительность: 00:26:00
Год выпуска: 2019
Качество: HDTV
Разрешение видео/развертка: 1080i
Контейнер: MKV
Видео кодек: H.264
Аудио кодек: MP2
Видео: MPEG4 Video (H264) 1920x1080 29.97fps 30.2 Mb/s
Аудио: MPEG Audio 48000Hz stereo 384kbps

Треклист

Supermodel
Broken Clocks
Kiss Me (Sixpence None the Richer cover)
Normal Girl
Love Galore

Отчёт MediaInfo / BDInfo

GeneralUnique ID                      : 331286873358585456805455932977841488211 (0xF93B87ECE34C05DD01DF2AE43514C153)Complete name                  : F:\SZA - Amazon Prime Day Concert 2019.mkvFormat                         : MatroskaFormat version                 : Version 4File size                      : 5.55 GiBDuration                       : 25 min 59 sOverall bit rate mode          : VariableOverall bit rate               : 30.6 Mb/sEncoded date                   : UTC 2019-07-11 07:19:48Writing application            : mkvmerge v30.0.0 ('Interstellar') 64-bitWriting library                : libebml v1.3.6 + libmatroska v1.4.9
VideoID : 1Format : AVCFormat/Info : Advanced Video CodecFormat profile : [email protected] settings : CABAC / 4 Ref FramesFormat settings, CABAC : YesFormat settings, ReFrames : 4 framesCodec ID : V_MPEG4/ISO/AVCDuration : 25 min 59 sBit rate mode : VariableBit rate : 30.2 Mb/sMaximum bit rate : 33.8 Mb/sWidth : 1 920 pixelsHeight : 1 080 pixelsDisplay aspect ratio : 16:9Frame rate mode : VariableFrame rate : 58.734 FPSOriginal frame rate : 29.970 (30000/1001) FPSColor space : YUVChroma subsampling : 4:2:0Bit depth : 8 bitsScan type : MBAFFScan type, store method : Separated fieldsScan order : Top Field FirstBits/(Pixel*Frame) : 0.248Stream size : 5.48 GiB (99%)Default : YesForced : NoColor range : LimitedColor primaries : BT.709Transfer characteristics : BT.709Matrix coefficients : BT.709
AudioID : 2Format : MPEG AudioFormat version : Version 1Format profile : Layer 2Format settings : Intensity Stereo + MS StereoCodec ID : A_MPEG/L2Codec ID/Hint : MP2Duration : 25 min 59 sBit rate mode : ConstantBit rate : 384 kb/sChannel(s) : 2 channelsSampling rate : 48.0 kHzFrame rate : 41.667 FPS (1152 SPF)Compression mode : LossyStream size : 71.4 MiB (1%)Language : EnglishDefault : YesForced : No

Скриншоты

Мои раздачи ®

 

Current time is: 09-Dec 15:41

All times are UTC + 3