Search found 57 matches

Author Message

Vi$itReal

Post 01-Jan-2019 02:15

[Quote]

Planet Earth in Lounge Music - Vol.7 E-xtreme Год выпуска: 2003
Страна: WARM-UP SA
Жанр: Lounge, Chillout, New Age, Relax
Продолжительность: 01:08:58
Описание: Коллекция фильмов “Planet Earth in Lounge Music” предлагает уникальную возможность насладиться прекрасной музыкой и завораживающими своей красотой картинами природы.
Треклист:
01 ... IN SEARCH OF SEDUCTION ... (S.Heurtault)
02 ... DO WHAT YOU WANNA DO (FREE OUR FEELINGS) ... (S.Heurtault)
03 ... MAKTOUB & MARIA ... (S.Award)
04 ... U'RESTILLIN MY DREAMS ... (P.Nardone)
05 ... FLAVOURED FRUITS ... (S.Heurtault)
06 ... LOKOUM SONG ... (F.Derrier-F.Martinez)
07 ... FACING ABOUT ... (F.Derrier-F.Martinez)
08 ... DON'T STOP ... (F.Derrier-F.Martinez)
09 ... DREADFULNESS ... (F.Derrier-F.Regine)
10 ... UPSIDE DOWN ... (F.Derrier-F.Regine)
11 ... IMAGINATION ... (P.Nardone)
12 ... TWO CHILDREN FACING YOU ... (F.Derrier-F.Martinez)
13 ... ESTACION DEL NORTE ... (F.Derrier-F.Martinez)
14 ... FLYING THE CARPET ... (P.Nardone)
15 ... OUTRO: CALLS OF THE SOUL ... (O.Hecho)
Доп. информация: Восхитительные уголки европейской природы, от суровых северных морей Норвегии до живописных южных побережий Португалии, таинственные пещеры, величественные горы, многоцветные альпийские луга Швейцарии, красивейшие водопады, реки и озёра Финляндии – всё это лишь малая часть того, что Вы сможете увидеть в фильмах серии “Planet Earth in Lounge Music”. Главной особенностью этой серии является великолепно подобранная современная музыка, которая является такой же важной составляющей фильма, как и видео.
Музыкальные композиции в стилях Lounge, Chillout, New Age, Relax прекрасно дополняют красочный видеоряд и создают особое эмоциональное настроение, позволяющее почувствовать и оценить неповторимый колорит окружающего мира, ощутить радость жизни, совершить удивительное путешествие не только по самым красивым уголкам нашей планеты, но и в волшебный мир музыки. Каждый из десяти фильмов серии несёт в себе определённый эмоциональный настрой, который помогают раскрыть специально подобранные видеосюжеты и музыкальное сопровождение.

Пред. просмотр

DVDInfo


General
Complete name : F:\_a.Razdacha\d.DVDrips\Planet Earth in Lounge Music - Vol.7 E-xtreme.avi
Format : AVI
Format/Info : Audio Video Interleave
File size : 743 MiB
Duration : 57mn 25s
Overall bit rate : 1 810 Kbps
Writing application : VirtualDubMod 1.5.4.1 (build 2178/release)
Writing library : VirtualDubMod build 2178/release
Video
ID : 0
Format : MPEG-4 Visual
Format profile : Advanced [email protected]
Format settings, BVOP : Yes
Format settings, QPel : No
Format settings, GMC : No warppoints
Format settings, Matrix : Custom
Codec ID : XVID
Codec ID/Hint : XviD
Duration : 57mn 25s
Bit rate : 1 355 Kbps
Width : 720 pixels
Height : 544 pixels
Display aspect ratio : 4:3
Frame rate : 25.000 fps
Color space : YUV
Chroma subsampling : 4:2:0
Bit depth : 8 bits
Scan type : Progressive
Compression mode : Lossy
Bits/(Pixel*Frame) : 0.138
Stream size : 557 MiB (75%)
Writing library : XviD 1.2.1 (UTC 2008-12-04)
Audio
ID : 1
Format : AC-3
Format/Info : Audio Coding 3
Mode extension : ME (music and effects)
Codec ID : 2000
Duration : 57mn 25s
Bit rate mode : Constant
Bit rate : 448 Kbps
Channel(s) : 6 channels
Channel positions : Front: L C R, Side: L R, LFE
Sampling rate : 48.0 KHz
Bit depth : 16 bits
Compression mode : Lossy
Stream size : 184 MiB (25%)
Alignment : Aligned on interleaves
Interleave, duration : 96 ms (2.40 video frames)
Interleave, preload duration : 96 ms
Language : English
Источник: собственный рип
Cсылка - DVD5
Качество: DVDRip
Контейнер: AVI
Видео кодек: XviD
Аудио кодек: AC3
Видео: MPEG-4, (720x544), 4:3, 1 355 Kbps, 25.000 fps
Аудио: (Dolby Digital 5.1) 48.0 KHz 448 Kbps 16 bits

В этой серии




ПОХОЖЕЕ Pure Earth DVD1 Pure Earth DVD2 ВИДЕОСледующий - DVDRip Planet Earth in Lounge Music - Vol.8 @nimal

Vi$itReal

Post 04-Apr-2018 06:15

[Quote]

Planet Earth in Lounge Music - Vol.8 @nimal Год выпуска: 2003
Страна: WARM-UP SA
Жанр: Lounge, Chillout, New Age, Relax
Продолжительность: 49:46
Описание: Коллекция фильмов “Planet Earth in Lounge Music” предлагает уникальную возможность насладиться прекрасной музыкой и завораживающими своей красотой картинами природы.
Треклист:
01 ... WHEN TITUS MET BERENICE ... (Woelfel-Herisson-Valora-Abaldonato)
02 ... I BELIEVE ... (Valora-Abaldonato)
03 ... INDIA ... (Valora-Abaldonato)
04 ... TRANSCENDENTAL MEDITATION ... (Valora-Abaldonato)
05 ... MINT TEA ... (Valora-Abaldonato)
06 ... LOKOUMAT T-TIME ... (Bourassin-Abaldonato-Valora)
07 ... KARMA ... (Bourassin-Abaldonato-Valora)
08 ... THE (SUPREME) BLACK LIST ... (Woelfel-Herisson-Valora-Abaldonato)
09 ... THE RITUAL ... (Bourassin-Abaldonato-Valora)
10 ... SALAM & LOKOUM ... (Bourassin-Abaldonato-Valora)
11 ... OPEN YOUR HEART ... (Valora-Abaldonato)
12 ... ORIENTAL SPIRIT ... (Valora-Abaldonato)
Доп. информация: Восхитительные уголки европейской природы, от суровых северных морей Норвегии до живописных южных побережий Португалии, таинственные пещеры, величественные горы, многоцветные альпийские луга Швейцарии, красивейшие водопады, реки и озёра Финляндии – всё это лишь малая часть того, что Вы сможете увидеть в фильмах серии “Planet Earth in Lounge Music”. Главной особенностью этой серии является великолепно подобранная современная музыка, которая является такой же важной составляющей фильма, как и видео.
Музыкальные композиции в стилях Lounge, Chillout, New Age, Relax прекрасно дополняют красочный видеоряд и создают особое эмоциональное настроение, позволяющее почувствовать и оценить неповторимый колорит окружающего мира, ощутить радость жизни, совершить удивительное путешествие не только по самым красивым уголкам нашей планеты, но и в волшебный мир музыки. Каждый из десяти фильмов серии несёт в себе определённый эмоциональный настрой, который помогают раскрыть специально подобранные видеосюжеты и музыкальное сопровождение.

Пред. просмотр


DVDInfo


General
Complete name : F:\_a.Razdacha\d.DVDrips\Planet Earth in Lounge Music - Vol.8 @nimal.avi
Format : AVI
Format/Info : Audio Video Interleave
File size : 744 MiB
Duration : 49mn 45s
Overall bit rate : 2 090 Kbps
Writing application : VirtualDubMod 1.5.4.1 (build 2178/release)
Writing library : VirtualDubMod build 2178/release
Video
ID : 0
Format : MPEG-4 Visual
Format profile : Advanced [email protected]
Format settings, BVOP : Yes
Format settings, QPel : No
Format settings, GMC : No warppoints
Format settings, Matrix : Custom
Codec ID : XVID
Codec ID/Hint : XviD
Duration : 49mn 45s
Bit rate : 1 640 Kbps
Width : 720 pixels
Height : 544 pixels
Display aspect ratio : 4:3
Frame rate : 25.000 fps
Color space : YUV
Chroma subsampling : 4:2:0
Bit depth : 8 bits
Scan type : Progressive
Compression mode : Lossy
Bits/(Pixel*Frame) : 0.167
Stream size : 584 MiB (78%)
Writing library : XviD 1.2.1 (UTC 2008-12-04)
Audio
ID : 1
Format : AC-3
Format/Info : Audio Coding 3
Mode extension : CM (complete main)
Codec ID : 2000
Duration : 49mn 15s
Bit rate mode : Constant
Bit rate : 448 Kbps
Channel(s) : 6 channels
Channel positions : Front: L C R, Side: L R, LFE
Sampling rate : 48.0 KHz
Bit depth : 16 bits
Compression mode : Lossy
Stream size : 158 MiB (21%)
Alignment : Aligned on interleaves
Interleave, duration : 97 ms (2.42 video frames)
Interleave, preload duration : 96 ms
Источник: собственный рип
Cсылка - DVD5
Качество: DVDRip
Контейнер: AVI
Видео кодек: XviD
Аудио кодек: AC3
Видео: MPEG-4, (720x544), 4:3, 1 640 Kbps, 25.000 fps
Аудио: (Dolby Digital 5.1) 48.0 KHz 448 Kbps 16 bits

В этой серии




ПОХОЖЕЕ Pure Earth DVD1 Pure Earth DVD2 ВИДЕОСледующий - DVDRip Planet Earth in Lounge Music - Vol.9 Coloration

Vi$itReal

Post 12-Aug-2017 19:15

[Quote]

Dennis & Poplavok - Fairy Town [2015 г., Instrumental / Relax / Post-rock, WEBRip]
Страна: Россия
Жанр: Relax, Instrumental, Post-rock
Продолжительность: 00:03:20
Год выпуска: 2015
Описание: Видеоряд на инструментальный трек "Fairy Town" российского дуэта Денис "Dennis" Быканов и Сергей "Поплавок" Петюкевич
Качество: WEBRip
Контейнер: MP4
Видео кодек: H.264
Аудио кодек: AAC
Видео: AVC, 720x406, 16:9, 2947 kbps, 25 fps
Аудио: AAC, 256 kbps, 44.1 kHz, 2 ch

Скриншоты



Vi$itReal

Post 03-Jun-2017 15:50

[Quote]

Relax: Магический огонь
Год выпуска: 2005
Страна: UK
Жанр: Научно-популярный фильм
Продолжительность: 00:35:05
Перевод: Не требуется
Русские субтитры: нет
Описание:
Медитация – это созерцание и познание! Огонь – Дар Богов, позволяющий познать себя, заглянуть в себя! Он внутри нас и пламя его неиссякаемо! Неспешность и вечность, просто взгляните…
Серия "Relax Vision" представляет высокое качество изображения и звука, идеально подходящее для плазменных и жидкокристаллических телевизоров в составе домашних кинотеатров. Серия "Relax Vision" имеет широкоэкранное изображение и звуковое сопровождение в формате DTS и 5.1 Dolby Digital
Качество: DVDRip-AVC
Контейнер: MKV
Видео кодек: H.264
Видео: MPEG4, 1 665 Kbps, 720x384, 25fps
Аудио 1: AC3, 48000Hz, 6ch, 512kbps
Аудио 2: DTS, 48000Hz, 6ch, 768kbps

Скриншоты



Внимание! Торрент-файл перезалит с изменением содержимого раздачи (видео и 2 дорожки скомпонованы в mkv, добавлены скриншоты) в связи с просьбой администрации снять флаг "Приватная раздача".

Vi$itReal

Post 03-Jun-2017 15:50

[Quote]

Relax: Чарующий закат
Год выпуска: 2005
Страна: UK
Жанр: Научно-популярный фильм
Продолжительность: 00:40:36
Перевод: Не требуется
Русские субтитры: нет
Описание:
Чувства материальны – двое влюбленных дарят свою энергию небу, а небо отвечает им взаимностью, небо дарит возлюбленным закат. Закат – лишь миг, а миг так краток… Чарующие и упоительные закаты во всех оттенках, закаты со вкусом любви, неги и наслаждения! Мимолетность можно увидеть, знайте это!
Серия "Relax Vision" представляет высокое качество изображения и звука, идеально подходящее для плазменных и жидкокристаллических телевизоров в составе домашних кинотеатров. Серия "Relax Vision" имеет широкоэкранное изображение и звуковое сопровождение в формате DTS и 5.1 Dolby Digital
Качество: DVDRip-AVC
Контейнер: MKV
Видео кодек: H.264
Видео: MPEG4, 1 665 Kbps, 720x384, 25fps
Аудио 1: AC3, 48000Hz, 6ch, 512kbps
Аудио 2: DTS, 48000Hz, 6ch, 768kbps

Скриншоты



Рип с этого DVD
Внимание! Торрент-файл перезалит с изменением содержимого раздачи (видео и 2 дорожки скомпонованы в mkv, добавлены скриншоты) в связи с просьбой администрации снять флаг "Приватная раздача".

Vi$itReal

Post 03-Jun-2017 13:40

[Quote]

Relax: Таинственный лес
Год выпуска: 2005
Страна: Россия
Жанр: Научно-популярный фильм
Продолжительность: 00:32:39
Перевод: Не требуется
Русские субтитры: нет
Описание:
Он бывает, неприветлив, бывает суров! Изучите его, подружитесь с ним! Так много тайн и загадок откроется для Вас! Лес – это мир, мир приключений и открытий, целый мир для Вас - таинственный мир леса! Наслаждайтесь!
Серия "Relax Vision" представляет высокое качество изображения и звука, идеально подходящее для плазменных и жидкокристаллических телевизоров в составе домашних кинотеатров. Серия "Relax Vision" имеет широкоэкранное изображение и звуковое сопровождение в формате DTS и 5.1 Dolby Digital.
Качество: DVDRip-AVC
Контейнер: MKV
Видео кодек: H.264
Видео: MPEG4, 1 665 Kbps, 720x384, 25fps
Аудио 1: AC3, 48000Hz, 6ch, 512kbps
Аудио 2: DTS, 48000Hz, 6ch, 768kbps

Скриншоты



Рип с этого DVD
Внимание! Торрент-файл перезалит с изменением содержимого раздачи (видео и 2 дорожки скомпонованны в mkv, добавлены скриншоты) в связи с просьбой администрации снять флаг "Приватная раздача".

Vi$itReal

Post 26-Jan-2017 21:28

[Quote]

Gregorian & Eva Mali - World Without End
Страна: Germany
Жанр: New Age
Продолжительность: 3м:27с
Год выпуска: 2012 г.
Описание: Новый клип группы Gregorian
Источник: скачано из сети
Качество: WEBRip
Контейнер: MP4
Аудио кодек: AAC
Видео: MP4, 740x416 (16:9), 761 kbps, 25 fps
Аудио: AAC, 46 kbps, 16 kHz, 1 ch

MI

General
Format : MPEG-4
Format profile : Base Media
Codec ID : isom
File size : 20.0 MiB
Duration : 3mn 27s
Overall bit rate mode : Variable
Overall bit rate : 809 Kbps
Encoded date : UTC 2012-09-04 23:00:00
Tagged date : UTC 2012-09-04 23:00:00
Writing application : Lavf53.18.0
Video
ID : 1
Format : AVC
Format/Info : Advanced Video Codec
Format profile : [email protected]
Format settings, CABAC : No
Format settings, ReFrames : 3 frames
Codec ID : avc1
Codec ID/Info : Advanced Video Coding
Duration : 3mn 27s
Bit rate : 761 Kbps
Width : 740 pixels
Height : 416 pixels
Display aspect ratio : 16:9
Frame rate mode : Constant
Frame rate : 25.000 fps
Color space : YUV
Chroma subsampling : 4:2:0
Bit depth : 8 bits
Scan type : Progressive
Bits/(Pixel*Frame) : 0.099
Stream size : 18.8 MiB (94%)
Writing library : x264 core 118
Encoding settings : cabac=0 / ref=3 / deblock=1:0:0 / analyse=0x1:0x111 / me=hex / subme=7 / psy=1 / psy_rd=1.00:0.00 / mixed_ref=1 / me_range=16 / chroma_me=1 / trellis=1 / 8x8dct=0 / cqm=0 / deadzone=21,11 / fast_pskip=1 / chroma_qp_offset=-2 / threads=6 / sliced_threads=0 / nr=0 / decimate=1 / interlaced=0 / bluray_compat=0 / constrained_intra=0 / bframes=0 / weightp=0 / keyint=250 / keyint_min=25 / scenecut=40 / intra_refresh=0 / rc_lookahead=40 / rc=crf / mbtree=1 / crf=23.0 / qcomp=0.60 / qpmin=0 / qpmax=69 / qpstep=4 / ip_ratio=1.40 / aq=1:1.00
Language : English
Encoded date : UTC 2012-09-04 23:00:00
Tagged date : UTC 2012-09-04 23:00:00
Audio
ID : 2
Format : AAC
Format/Info : Advanced Audio Codec
Format profile : LC
Codec ID : 40
Duration : 3mn 27s
Bit rate mode : Variable
Bit rate : 46.0 Kbps
Maximum bit rate : 48.0 Kbps
Channel(s) : 1 channel
Channel positions : Front: C
Sampling rate : 16.0 KHz
Compression mode : Lossy
Stream size : 1.13 MiB (6%)
Language : English
Encoded date : UTC 2012-09-04 23:00:00
Tagged date : UTC 2012-09-04 23:00:00

Скриншоты

Vi$itReal

Post 26-Jan-2017 21:28

[Quote]

Dr. Jeffrey Thompson - Relax TV
Страна: США
Жанр: Meditative
Продолжительность: 01:05:27
Год выпуска: 2010 г.
Источник: Куплено в SoundsTrue магазине
Продолжение серии: Sleep TV
Описание (перевод GoogleTranslate): Включите любую комнату в оазисе с этим DVD спокойного неба, величественных гор, спокойных потоков, и клинически доказано саундтрек релаксации доктора Джеффри Томпсона.
Д-р Джеффри Томпсон разработал революционную технику, чтобы помочь вам легко расслабиться и отпустить стрессов дня. Встроенный в мирное музыкального саундтрека к этим неудержимо успокаивающих образов природы аудио процессы, которые на самом деле замедлить ваши мозговые волны, и приведет вас легко в глубоком состоянии альфа отдыха. Сядьте поудобнее, замедлить, и прийти в гармонию с природой.
Клинически доказано Релаксация система на основе 25 лет исследований
Программы доктора Томпсона используются в Fortune 500 компаний, специалистов в области здравоохранения, и более миллионов человек по всему миру
Снятый в высоком разрешении для изысканной образности на любом проигрывателе
Стерео и Dolby Digital 5.1 Surround варианты аудио
Буклет включает в себя советы для расслабления сбалансированного и здорового образа жизни
Музыка звуком целителя Джим Оливер и альфа мозговых оценки д-р Джеффри Томпсон. У вас есть выбор музыкальное сопровождение, звуки природы, или музыки и природы в сочетании.
Качество: WEBRip
Контейнер: MP4
Видео кодек: H.264
Аудио кодек: AAC
Видео: H.264, 855x480, 180:101, 889kbps, 29.97 fps
Аудио: AAC, 127kb/s, 44.1 kHz, 2 ch

Скриншоты

Скачать буклет с описанием

Буклет

Vi$itReal

Post 26-Jan-2017 21:28

[Quote]

Dr. Jeffrey Thompson - Sleep TV
Страна: США
Жанр: Meditative
Продолжительность: 01:03:56
Год выпуска: 2010 г.
Источник: Куплено в магазине SoundsTrue
Продолжение серии: Relax TV
Описание (перевод GoogleTranslate): Успокаивающие закаты, тихие океаны, горные ручьи, и клинически доказано, саундтрек сон Джеффри Томпсоном позволяют заснуть легко и естественно во время просмотра телевизора, и почувствовать преимущества с самого первого ночи.
Д-р Джеффри Томпсон разработал революционную технику, чтобы помочь вам получить сна вам нужно. Встроенный в нежной музыкальной саундтрека к этим спокойных изображений природы аудио процессы, которые на самом деле замедлить ваши мозговые волны и привести вас легко в глубоком состоянии дельта-сон.
Снятый в Hi-Def на берегу Гавайи, в национальных парках штата Вайоминг и Колорадо, и в горных лесах Орегона и Калифорнии
Клинически система проверенная сне, основанную на 25 лет исследований
Буклет включает в себя советы по получению сна хорошей ночи.
Качество: WEBRip
Контейнер: MP4
Видео кодек: H.264
Аудио кодек: AAC
Видео: H.264, 852x480, 71:40, 913 kbps, 29.97 fps
Аудио: AAC, 127 kbps, 44.1 kHz, 2 ch

Скриншоты

Vi$itReal

Post 12-Jul-2016 00:00

[Quote]

Вадим Брыков (пан-флейта)
Страна: Россия г.Невинномысск
Жанр: New Age, Relax, Meditative, fleute
Продолжительность: 1ч 15 мин
Год выпуска: 2012 г.
Описание: Выступление в рок-кафе "Субмарина" (г.Невинномысск) в апреле 2011 года
Треклист: Композиции:
Солнечный остров
Если б не было тебя
Скрипач
Ну и что
Can Leav
Прекрасное далёко
Памяти Карузо
ит.д.
Источник: собственный рип
Качество: DVDRip
Контейнер: MP4
Видео кодек: DivX
Аудио кодек: MP3
Видео: DivX. 1280x720. 16x9. 5988kbps. 25fps.
Аудио: mp3. 192kbps. 48.0khz. 2ch.

Скриншоты

Vi$itReal

Post 05-Jan-2016 18:00

[Quote]

Gregorian - Christmas In Berlin [2008, New Age, Chorus, DVD9Rip]
Страна: Germany
Жанр: New Age, Chorus
Продолжительность: 01:21:00
Год выпуска: 2008 г.
Описание: Серия "Рождественские песнопения" (Christmas Chants) является одним из самых успешных выпусков среди всей дискографии коллектива Gregorian. Репертуар этого альбома охватывает широкий спектр, как чистую классическую музыку, вроде "Ave Maria" Шуберта, а так же традиционные английские песни.
Треклист:
  • Ave Maria (Live Version) 3:48
  • Silent Night (Live Version) 3:54
  • When A Child Is Born (Live Version) 4:02
  • Sweeter The Bells (Live Version) 4:04
  • In The Bleak Midwinter (Live Version) 3:26
  • Peace On Earth (Live Version) 3:00
  • Child In A Manger (Live Version) 3:39
  • Greensleeves (Live Version) 4:16
  • Miracle Of Love (Live Version) 4:43
  • The Circle (Live Version) 4:19
  • Mad World (Live Version) 4:42
  • Crying In The Rain (Live Version) 4:35
  • Sacrifice (Live Version) 5:06
  • Kyrie (Live Version) 2:45
  • Moment Of Peace (Live Version) 4:21
  • Angels (Live Version) 4:53
  • Noel Nouvelet (Live Version) 2:39
  • Hymn (Live Version) 5:15
  • Happy X-Mass War Is Over (Live Version) 4:07
Источник: собственный рип из . Оригинальное видео, оригинальный звук -- просто одним файлом.
Качество: DVDRip
Контейнер: MKV
Видео кодек: MPEG2
Аудио кодек: PCM
Видео: MPEG-2, 720x576, 16:9, 6 664 Kbps, 25 fps
Аудио: 2 аудио-дорожки: PCM 1 536 Kbps 48.0 KHz 2 channels; AC-3 448 Kbps 48.0 KHz 5 channels

Скриншоты

Vi$itReal

Post 09-Oct-2015 16:20

[Quote]

Gipsy Kings - Live at Kenwood House in London Жанр: Flamenco
Продолжительность: 01:41:28.
Год выпуска: 2004 г.
Описание: Лидеры жанра ФЛАМЕНКО, GIPSY KINGS, на протяжении 16 лет заставляли трепетать сердца в разных уголках мира. Вашему вниманию предлагается концерт, записанный в формате "HIGH-DEFINITION" на легендарной сцене Кенвуд Хаус в Лондоне. В величественных декорациях над водой, перед тысячами поклонников, GIPSY KINGS исполняют некоторые из величайших своих хитов, включая "BALLA ME" и "VOLARE". Они также включили в этот концерт композиции из своего альбома "ROOTS"
(со слов автора исходного релиза sweethome2000 )
Треклист:
1. Rhythmic
2. Rumba Tech
3. Lleve Me El Compas
4. Tristessa
5. Amigo
6. Petite Noya
7. Como Siento Yo
8. Sabroso
9. Como Ayer
10. A Mi Mora
11. Jobi Joba
12. Boleria
13. Fandangos
14. Legende
15. Quiero Saber
16. Tampa
17. Poquito a Poco
18. Baila Me
19. Todos Todos
20. Bamboleo
21. Volare

Доп. информация: по видео

скрытый текст

File: Gipsy Kings - Live at Kenwood House in London.2004.BDRip.avi
FileSize: 1492.58 Mb ( 1 565 086 854 bytes )
Play length: 01:41:28.318 (145937 frames)
Subtitles: Not Present
Video: 624x352 (1.77:1), 23.970 fps, DivX Codec 5.x or 6.x ~1857 kbps avg, 0.35 bit/pixel
Audio: 48 kHz, MPEG Layer 3, 2 ch, ~192.00 kbps avg
Полное имя Gipsy Kings - Live at Kenwood House in London.2004.BDRip.avi
Формат : AVI
Формат/Информация : Audio Video Interleave
Профиль формата : OpenDML
Размер файла : 1,46 Гбайт
Продолжительность : 1 ч. 41 м.
Общий поток : 2056 Кбит/сек
Программа кодирования : Lavf51.12.1
Видео
Идентификатор : 0
Формат : MPEG-4 Visual
Профиль формата : [email protected]
Параметр BVOP формата : Нет
Параметр QPel формата : Нет
Параметр GMC формата : Без точки перехода
Параметр матрицы формата : Default (H.263)
Идентификатор кодека : DX50
Идентификатор кодека/Подсказка : DivX 5
Продолжительность : 1 ч. 41 м.
Битрейт : 1850 Кбит/сек
Ширина : 624 пикселя
Высота : 352 пикселя
Соотношение сторон : 16:9
Частота кадров : 23,976 кадра/сек
Цветовое пространство : YUV
Субдискретизация насыщенности : 4:2:0
Битовая глубина : 8 бит
Тип развёртки : Прогрессивная
Метод сжатия : С потерями
Бит/(Пиксели*Кадры) : 0.351
Размер потока : 1,31 Гбайт (90%)
Библиотека кодирования : Lavc51.40.4
Аудио
Идентификатор : 1
Формат : MPEG Audio
Версия формата : Version 1
Профиль формата : Layer 3
Режим : Joint stereo
Идентификатор кодека : 55
Идентификатор кодека/Подсказка : MP3
Продолжительность : 1 ч. 41 м.
Вид битрейта : Постоянный
Битрейт : 192 Кбит/сек
Каналы : 2 канала
Частота : 48,0 КГц
Метод сжатия : С потерями
Размер потока : 139 Мбайт (9%)
Выравнивание : Соединение по промежуткам
Продолжительность промежутка : 24 мс. (0,58 видеокадр)

Источник: собственный рип
Cсылка
Качество: BDRip
Контейнер: AVI
Видео кодек: DivX
Аудио кодек: MP3
Видео: 624x352 (1.77:1), 23.970 fps, DivX Codec 5.x or 6.x ~1857 kbps avg, 0.35 bit/pixel
Аудио: 48 kHz, MPEG Layer 3, 2 ch, ~192.00 kbps avg

Скриншоты

Мои другие раздачи 1 -
Мои другие раздачи 2-Приятного просмотра!

Vi$itReal

Post 05-Oct-2015 14:32

[Quote]

Planet Earth in Lounge Music - Vol.9 Coloration Год выпуска: 2003
Страна: WARM-UP SA
Жанр: Lounge, Chillout, New Age, Relax
Продолжительность: 45:36
Описание: Коллекция фильмов “Planet Earth in Lounge Music” предлагает уникальную возможность насладиться прекрасной музыкой и завораживающими своей красотой картинами природы.
Треклист:
01 ... THE SIMPLE FREAK ... (O.Tison)
02 ... INDIGO DREAM ... (O.Meyer)
03 ... ISLAND ... (O.Meyer)
04 ... RIVAGE ... (O.Meyer)
05 ... LX23 ... (O.Meyer)
06 ... 7AM ... (O.Tison)
07 ... WHEELS OF FUNK ... (O.Tison)
08 ... SNAKE ... (O.Meyer)
09 ... SHIMMER ... (O.Tison)
10 ... INTIMACY ... (O.Meyer)
Доп. информация: Восхитительные уголки европейской природы, от суровых северных морей Норвегии до живописных южных побережий Португалии, таинственные пещеры, величественные горы, многоцветные альпийские луга Швейцарии, красивейшие водопады, реки и озёра Финляндии – всё это лишь малая часть того, что Вы сможете увидеть в фильмах серии “Planet Earth in Lounge Music”. Главной особенностью этой серии является великолепно подобранная современная музыка, которая является такой же важной составляющей фильма, как и видео.
Музыкальные композиции в стилях Lounge, Chillout, New Age, Relax прекрасно дополняют красочный видеоряд и создают особое эмоциональное настроение, позволяющее почувствовать и оценить неповторимый колорит окружающего мира, ощутить радость жизни, совершить удивительное путешествие не только по самым красивым уголкам нашей планеты, но и в волшебный мир музыки. Каждый из десяти фильмов серии несёт в себе определённый эмоциональный настрой, который помогают раскрыть специально подобранные видеосюжеты и музыкальное сопровождение.

Пред. просмотр


DVDInfo


General
Complete name : F:\_a.Razdacha\d.DVDrips\Planet Earth in Lounge Music - Vol.9 Coloration.avi
Format : AVI
Format/Info : Audio Video Interleave
File size : 744 MiB
Duration : 45mn 36s
Overall bit rate : 2 281 Kbps
Writing application : VirtualDubMod 1.5.4.1 (build 2178/release)
Writing library : VirtualDubMod build 2178/release
Video
ID : 0
Format : MPEG-4 Visual
Format profile : Advanced [email protected]
Format settings, BVOP : Yes
Format settings, QPel : No
Format settings, GMC : No warppoints
Format settings, Matrix : Custom
Codec ID : XVID
Codec ID/Hint : XviD
Duration : 45mn 36s
Bit rate : 1 831 Kbps
Width : 720 pixels
Height : 544 pixels
Display aspect ratio : 4:3
Frame rate : 25.000 fps
Color space : YUV
Chroma subsampling : 4:2:0
Bit depth : 8 bits
Scan type : Progressive
Compression mode : Lossy
Bits/(Pixel*Frame) : 0.187
Stream size : 597 MiB (80%)
Writing library : XviD 1.2.1 (UTC 2008-12-04)
Audio
ID : 1
Format : AC-3
Format/Info : Audio Coding 3
Mode extension : CM (complete main)
Codec ID : 2000
Duration : 45mn 6s
Bit rate mode : Constant
Bit rate : 448 Kbps
Channel(s) : 6 channels
Channel positions : Front: L C R, Side: L R, LFE
Sampling rate : 48.0 KHz
Bit depth : 16 bits
Compression mode : Lossy
Stream size : 145 MiB (19%)
Alignment : Aligned on interleaves
Interleave, duration : 97 ms (2.43 video frames)
Interleave, preload duration : 96 ms
Источник: собственный рип
Cсылка -
Качество: DVDRip
Контейнер: AVI
Видео кодек: XviD
Аудио кодек: AC3
Видео: MPEG-4, (720x544), 4:3, 1 831 Kbps, 25.000 fps
Аудио: (Dolby Digital 5.1) 48.0 KHz 448 Kbps 16 bits

В этой серии




ПОХОЖЕЕ ВИДЕОСледующий - DVD Planet Earth in Lounge Music - Vol.10 Pulse

Vi$itReal

Post 05-Oct-2015 14:32

[Quote]

Море и Oкеан - Sea and Ocean - Релаксация Страна: Россия
Жанр: Saxophone, Relax, Nature
Продолжительность: 48:06
Год выпуска: 2008 г.
Описание:
Смешение музыкальных произведений и нежных звуков океанских волн необыкновенно подходят для релаксации, размышлений или просто для удовольствия.
Море является колыбелью всей жизни на земле. Поэтому у каждого человека глубоко в подсознании записана информация единства людей и водной среды.
Соответственно все звуковые проявления жизни моря, будь то плеск волн или крики дельфинов, на подсознании воспринимаются нами также,
как ребенок воспринимает родные звуки, находясь в лоне матери.
И также звучание моря дает нам ощущение покоя и умиротворения, которого нам так не хватает в современной жизни.

Треклист:
Спокойствие моря (Расслабление)
Океан (Пробуждение)
На берегу (Сознание)

Доп. информация:
В своем сольном проекте "Море" музыкант Александр Степаненко, участник легендарного Московского "Браво",
просто и оригинально довел до совершенства идею синтеза времен и эстетик, поместив свой волшебный саксофон в центр электронной музыкальной вселенной.
Широкий инструментальный ряд (губные гармошки, синтезаторы, флейты, перкуссия, гавайская гитара), так виртуозно использованный Александром в работах группы "Браво",
представлен в "Море" в виде семплов, петель и реплик, создающих вместе с авангардными электронными ударными и синтезированными в индивидуальной творческой
лаборатории звуками необходимую атмосферу для саксофонных сентенций в стиле близком к Lounge.

Clip - Здесь-

Пред. просмотр


DVDInfo


General
Complete name : F:\_a.Razdacha\d.DVDrips\Sea and Ocean (Море и Oкеан).avi
Format : AVI
Format/Info : Audio Video Interleave
File size : 860 MiB
Duration : 48mn 6s
Overall bit rate : 2 499 Kbps
Writing application : VirtualDubMod 1.5.4.1 (build 2178/release)
Writing library : VirtualDubMod build 2178/release
Video
ID : 0
Format : MPEG-4 Visual
Format profile : Advanced [email protected]
Format settings, BVOP : Yes
Format settings, QPel : No
Format settings, GMC : No warppoints
Format settings, Matrix : Custom
Codec ID : XVID
Codec ID/Hint : XviD
Duration : 48mn 6s
Bit rate : 2 268 Kbps
Width : 720 pixels
Height : 544 pixels
Display aspect ratio : 4:3
Frame rate : 25.000 fps
Color space : YUV
Chroma subsampling : 4:2:0
Bit depth : 8 bits
Scan type : Progressive
Compression mode : Lossy
Bits/(Pixel*Frame) : 0.232
Stream size : 780 MiB (91%)
Writing library : XviD 1.2.1 (UTC 2008-12-04)
Audio
ID : 1
Format : MPEG Audio
Format version : Version 1
Format profile : Layer 2
Codec ID : 50
Duration : 48mn 5s
Bit rate mode : Constant
Bit rate : 224 Kbps
Channel(s) : 2 channels
Sampling rate : 48.0 KHz
Compression mode : Lossy
Stream size : 77.1 MiB (9%)
Alignment : Aligned on interleaves
Interleave, duration : 80 ms (2.00 video frames)
Interleave, preload duration : 504 ms
-Источник: собственный рип
Cкачать -
Качество: DVDRip
Контейнер: AVI
Видео кодек: XviD
Аудио кодек: MP3
Видео: MPEG-4, (720x544), 4:3, 2 268 Kbps, 25.000 fps
Аудио: MPEG Audio, 224 Kbps, 48.0 KHz, 2 channels-

Cайты:, скачать музыку


на сайте клуба «Апрель» - Страница Александра Степаненко
на сайте группы «Браво» - Страница Александра Степаненко
Скачать музыку можно -
- -

~ Смотреть мои - DVD ~ (скачать) ~~ Смотреть DVD - Planet Earth - Magic Relax Music (скачать) ~



~ ~

~ Смотреть DVD - Planet Earth in Lounge Music - Vol.1 E-xception (скачать) ~


~ ~

~ Смотреть DVD - Planet Earth in Lounge Music - Vol.2 E-motion (скачать) ~


~ ~

~ Смотреть DVD - Planet Earth in Lounge Music - Vol.3 E-nigmatic (скачать) ~



~ ~

~ Смотреть DVD - Planet Earth in Lounge Music - Vol.4 @dmiration (скачать) ~


~ ~

~ Смотреть DVD - Planet Earth in Lounge Music - Vol.5 Contemplation (скачать) ~


~ ~

~ Смотреть DVD - Planet Earth in Lounge Music - Vol.6 E-lectro (скачать) ~


~ ~

~ Смотреть DVD - Planet Earth in Lounge Music - Vol.7 E-xtreme (скачать) ~



~ ~

~ Смотреть DVD - Planet Earth in Lounge Music - Vol.8 @nimal (скачать) ~



~ ~

~ Смотреть DVD - Planet Earth in Lounge Music - Vol.9 Coloration (скачать) ~



~ ~

~ Смотреть DVD - Planet Earth in Lounge Music - Vol.10 Pulse (скачать) ~



~ ~

~ Смотреть DVD - Relax Video - Великие водопады - New Age Music (скачать) ~



~ ~

~ Смотреть DVD - Непал, Тибет - музыкальное путишествие - Nepal, Tibet (скачать) ~


~ ~

~ Смотреть DVD - BUDDHA'S BANQUET - Music Lounge (скачать) ~



~ ~

Vi$itReal

Post 05-Oct-2015 14:32

[Quote]

Сейшельские острова - Seychelles Islands - Музыкальное путешествие Страна: Россия
Жанр: Lounge, Chillout, Relax, Nature
Продолжительность: 41:40
Год выпуска: 2008 г.
Описание: Сейшельские острова – это идеальные климатические условия, первозданная природа, всегда тёплое море с чудесными песчаными пляжами. Расположенный в тропических широтах и окружённый изумрудной гладью Индийского океана, этот кокосовый рай поражает воображение разнообразием растений, неповторимыми видами природных ландшафтов. Великолепный видеоряд органично дополняет прятная музыка, в которой очень умело сочетаются звуки природы и мягкие красивые мелодии в стиле NEW AGE и CHILLOUT.
Треклист:
1. Сейшельские острова
2. Тропический лес
3. Остров Ла Диг
4. На берегу
5. Водопад
6. Остров Прален
В фильме использована музыка::
01 ... These – New Jazz
02 ... Nowt Noxious – Swing
03 ... C.J.Catalizer – Oazis
04 ... Frenesia – City Eternal Dreams
05 ... Sacral Reason – Sunset
06 ... Vjik72 – Something Down
07 ... Radio Silence – Only Live!
08 ... Frenesia – Honey Hare
09 ... Mushroom Lab – Dream Traveller
10 ... Buddysense – 67 Notes

Пред. просмотр[font="Tahoma

DVDInfo"]

General
Complete name : F:\_a.Razdacha\d.DVDrips\Seychelles Islands - (Сейшельские острова).avi
Format : AVI
Format/Info : Audio Video Interleave
File size : 798 MiB
Duration : 41mn 40s
Overall bit rate : 2 679 Kbps
Writing application : VirtualDubMod 1.5.4.1 (build 2178/release)
Writing library : VirtualDubMod build 2178/release
Video
ID : 0
Format : MPEG-4 Visual
Format profile : Advanced [email protected]
Format settings, BVOP : Yes
Format settings, QPel : No
Format settings, GMC : No warppoints
Format settings, Matrix : Custom
Codec ID : XVID
Codec ID/Hint : XviD
Duration : 41mn 40s
Bit rate : 2 224 Kbps
Width : 720 pixels
Height : 544 pixels
Display aspect ratio : 4:3
Frame rate : 25.000 fps
Color space : YUV
Chroma subsampling : 4:2:0
Bit depth : 8 bits
Scan type : Progressive
Compression mode : Lossy
Bits/(Pixel*Frame) : 0.227
Stream size : 663 MiB (83%)
Writing library : XviD 1.2.1 (UTC 2008-12-04)
Audio
ID : 1
Format : AC-3
Format/Info : Audio Coding 3
Mode extension : CM (complete main)
Codec ID : 2000
Duration : 41mn 40s
Bit rate mode : Constant
Bit rate : 448 Kbps
Channel(s) : 6 channels
Channel positions : Front: L C R, Side: L R, LFE
Sampling rate : 48.0 KHz
Bit depth : 16 bits
Compression mode : Lossy
Video delay : 80ms
Stream size : 134 MiB (17%)
Alignment : Split accross interleaves
Interleave, duration : 96 ms (2.40 video frames)
Interleave, preload duration : 96 ms
-Источник: собственный рип
Cсылка DVD5
Качество: DVDRip
Контейнер: AVI
Видео кодек: XviD
Аудио кодек: AC3
Видео: MPEG-4, (720x544), 4:3, 2 224 Kbps, 25.000 fps
Аудио: (Dolby Digital 5.1) 48.0 KHz 448 Kbps 16 bits- - -

~ Смотреть мои - DVD ~ (скачать) ~~ Смотреть DVD - Planet Earth - Magic Relax Music (скачать) ~



~ ~

~ Смотреть DVD - Planet Earth in Lounge Music - Vol.1 E-xception (скачать) ~


~ ~

~ Смотреть DVD - Planet Earth in Lounge Music - Vol.2 E-motion (скачать) ~


~ ~

~ Смотреть DVD - Planet Earth in Lounge Music - Vol.3 E-nigmatic (скачать) ~



~ ~

~ Смотреть DVD - Planet Earth in Lounge Music - Vol.4 @dmiration (скачать) ~


~ ~

~ Смотреть DVD - Planet Earth in Lounge Music - Vol.5 Contemplation (скачать) ~


~ ~

~ Смотреть DVD - Planet Earth in Lounge Music - Vol.6 E-lectro (скачать) ~


~ ~

~ Смотреть DVD - Planet Earth in Lounge Music - Vol.7 E-xtreme (скачать) ~



~ ~

~ Смотреть DVD - Planet Earth in Lounge Music - Vol.8 @nimal (скачать) ~



~ ~

~ Смотреть DVD - Planet Earth in Lounge Music - Vol.9 Coloration (скачать) ~



~ ~

~ Смотреть DVD - Planet Earth in Lounge Music - Vol.10 Pulse (скачать) ~



~ ~

~ Смотреть DVD - Relax Video - Великие водопады - New Age Music (скачать) ~



~ ~

~ Смотреть DVD - Непал, Тибет - музыкальное путишествие - Nepal, Tibet (скачать) ~


~ ~

~ Смотреть DVD - BUDDHA'S BANQUET - Music Lounge (скачать) ~



~ ~
 

Current time is: 08-Dec 14:19

All times are UTC + 3