Search found 207 matches

Author Message

RelizMAN

Post 04-Dec-2019 17:10

[Quote]

-Раздаю под снос. Сидирую сутки. Оставайтесь на раздаче!
-
-Rosalía (Rosalia) / Los Ángeles (Los Angeles)
Жанр: Modern Flamenco
Носитель: CD
Страна-производитель диска (релиза): US
Год издания: 2017
Издатель (лейбл): Universal
Страна исполнителя (группы): US
Аудиокодек: FLAC (*.flac)
Тип рипа: tracks
Продолжительность: 00:49:11
Источник: интернет (неизвестен)
Наличие сканов в содержимом раздачи: нет
Треклист:
01. Rosalía - Si Tú Supieras Compañero (06:05)
02. Rosalía - De Plata (04:29)
03. Rosalía - Nos Quedamos Solitos (05:15)
04. Rosalía - Catalina (03:34)
05. Rosalía - Día 14 De Abril (06:06)
06. Rosalía - Que Se Muere Que Se Muere (01:29)
07. Rosalía - Por Mi Puerta No Lo Pasen (04:40)
08. Rosalía - Te Venero (04:06)
09. Rosalía - Por Castigarme Tan Fuerte (02:08)
10. Rosalía - La Hija De Juan Simón (04:09)
11. Rosalía - El Redentor (03:01)
12. Rosalía - I See A Darkness (04:09)

Лог проверки

-----------------------
DON'T MODIFY THIS FILE
-----------------------
PERFORMER: auCDtect Task Manager, ver. 1.6.0 RC1 build 1.6.0.1Copyright (c) 2008-2010 y-soft. All rights reservedhttp://y-soft.org
ANALYZER: auCDtect: CD records authenticity detector, version 0.8.2Copyright (c) 2004 Oleg Berngardt. All rights reserved.Copyright (c) 2004 Alexander Djourik. All rights reserved.
FILE: 06 - Que Se Muere Que Se Muere.flac Size: 7178015 Hash: 6002F32CE42910AA14AE56F2294430D6 Accuracy: -m0 Conclusion: CDDA 100% Signature: 7787B2240ADFEC2E4734043ECBB0130C036FFA81FILE: 05 - Día 14 De Abril.flac Size: 29078553 Hash: BB86CB280F96D30A2B2E221D15671CE4 Accuracy: -m0 Conclusion: CDDA 100% Signature: 6913A03AE816E1732A66F54BFF4BE4A89EC36714FILE: 04 - Catalina.flac Size: 18828017 Hash: FFCCF95A46008DF780A1787EA341E78C Accuracy: -m0 Conclusion: CDDA 100% Signature: DD02670DFE764DF68BFA72F7F88FAAF21680DF99FILE: 03 - Nos Quedamos Solitos.flac Size: 27358047 Hash: 70706A5F3F427C0BABDD215C5090B826 Accuracy: -m0 Conclusion: CDDA 100% Signature: 139BC2E427F6D0A246FDBA8192E00C312430445EFILE: 02 - De Plata.flac Size: 22810954 Hash: D0399BA894F4697F674207732274E8E9 Accuracy: -m0 Conclusion: CDDA 100% Signature: A79694B588D24DC65F45041D4485A4AE41307477FILE: 01 - Si Tú Supieras Compañero.flac Size: 31850456 Hash: D2AB1494226DD3D259DFFEA055F72AF8 Accuracy: -m0 Conclusion: CDDA 100% Signature: 1F9E4DD3DDB81EDB73779158B67FA88A8F9183A7FILE: 12 - I See A Darkness.flac Size: 20118683 Hash: A5FAE5A51CA3C19E5DF1D88B0429C428 Accuracy: -m0 Conclusion: CDDA 100% Signature: 2B714ED4941CB8A8024C875A20B16446FA65BACFFILE: 11 - El Redentor.flac Size: 17452988 Hash: 0A39D7EC15A082ECDC8495FF6D1C520F Accuracy: -m0 Conclusion: CDDA 99% Signature: 02B4C0A4B7F759086230BCF74E6508B468809D3BFILE: 10 - La Hija De Juan Simón.flac Size: 20277700 Hash: 0C96F0CB90FD488B4E12F323A3402D95 Accuracy: -m0 Conclusion: CDDA 99% Signature: F8C47C75ACBFD26ED301986ADC0072339726F1C1FILE: 09 - Por Castigarme Tan Fuerte.flac Size: 12771339 Hash: A84AE509ACE0B06E703B6787F185BD36 Accuracy: -m0 Conclusion: CDDA 99% Signature: ADBA66D43EE2D71749077777EE647C88789F9910FILE: 08 - Te Venero.flac Size: 18403641 Hash: 7007CA3496DC64BCFF27E640D38649BA Accuracy: -m0 Conclusion: CDDA 100% Signature: B7E95B36878A444C3EB8323C64EC4C6D3429659CFILE: 07 - Por Mi Puerta No Lo Pasen.flac Size: 27277706 Hash: 6D0D2EDD820A149CB96093906D6D3E8E Accuracy: -m0 Conclusion: CDDA 100% Signature: 2621B075BC24B866A1B6327B8EDA338F35D8CFFB

RelizMAN

Post 14-Nov-2019 20:10

[Quote]

Los Chiquitos de Algeciras / Antología inédita (1961-1988)
Жанр: Flamenco
Носитель: WEB
Страна-производитель диска (релиза): España
Год издания: 2016
Издатель (лейбл): WM Spain
Страна исполнителя (группы): España
Аудиокодек: FLAC (*.flac)
Тип рипа: tracks+.cue
Источник: qobuz
Наличие сканов в содержимом раздачи: нет
Треклист:
01. Baladilla de los tres ríos (Bulerías)
02. Romance de Mari-Paz
03. Soleá de Alcalá
04. Tanguillos de Málaga
05. La caña (Caña y macho)
06. Fandangos de Huelva
07. Fiesta gitana (Bulerías)
08. Alegrías de Cádiz
09. Tientos de Cádiz
10. Bulerías por soleá
11. Seguiriyas gitanas
12. Tanguillos de Cádiz
13. Bulerías de José María (Bulerías)
14. Romance de la Argentinita (Tientos)
15. Bulerías rocieras
16. Hasta la fe de bautismo (Soleares de Cádiz)
17. Llorando gotas de sangre (Tientos de Cádiz)
18. Mira lo que te he comprao (Tarantos)
19. Qué grande el castigo (Seguiriyas de Manuel Torre)
20. Yo no le temo a la muerte (Soleares de Alcalá)
21. Qué blancas canas te peinas (Malagueñas del Mellizo)
22. Si ahora tú te ha arrepentío (Soleares de Triana)
23. Un pastor en la sierra (Serrana)
24. Le estoy pidiendo a la Virgen (Tientos de Chacón)
25. A buscar la flor (Malagueñas de Chacón)
26. Tú no debes tener celos (Debla, martinete y tonás)
27. A clavito y a canela (Seguiriya de Chacón)
28. Chalaura (Versión 1)
29. Chalaura (Versión 2)

Лог проверки качества

-----------------------
DON'T MODIFY THIS FILE
-----------------------
PERFORMER: auCDtect Task Manager, ver. 1.6.0 RC1 build 1.6.0.1Copyright (c) 2008-2010 y-soft. All rights reservedhttp://y-soft.org
ANALYZER: auCDtect: CD records authenticity detector, version 0.8.2Copyright (c) 2004 Oleg Berngardt. All rights reserved.Copyright (c) 2004 Alexander Djourik. All rights reserved.
FILE: 29. Chalaura (Version 2).flac Size: 38611080 Hash: 576558442CD4543FBA22DDC5C3EF1D48 Accuracy: -m0 Conclusion: CDDA 100% Signature: 2A98DAA65CEE5C912F90930D820D7DF0B4AF5AE2FILE: 28. Chalaura (Version 1).flac Size: 53630700 Hash: 89E3B333BFD4937087BAFE430E7ABE03 Accuracy: -m0 Conclusion: CDDA 100% Signature: F95AF7EAC599C6AA4AF4948E7950C942BC49B7DFFILE: 27. A clavito y a canela (Seguiriya de Chacon).flac Size: 23473352 Hash: FC12280F9B1D14E74FA31967E8980B95 Accuracy: -m0 Conclusion: CDDA 100% Signature: 1C2CB915C9B3DFCE912AA8A2FF31CC7F0A690680FILE: 26. Tu no debes tener celos (Debla, martinete y tonas).flac Size: 16224131 Hash: 98E1FA399157887BDFA56B89E883BD17 Accuracy: -m0 Conclusion: CDDA 100% Signature: ED861F232E2007B202E0464672F6A24B118DCFA8FILE: 25. A buscar la flor (Malaguenas de Chacon).flac Size: 22002499 Hash: E3C998064F91A610324C258001616020 Accuracy: -m0 Conclusion: CDDA 100% Signature: 16C76931D01EFD03F904599A83A71C20692C0AE4FILE: 24. Le estoy pidiendo a la Virgen (Tientos de Chacon).flac Size: 23741809 Hash: 77AF7B631F7A7BAEBE8436C072049000 Accuracy: -m0 Conclusion: CDDA 100% Signature: 834B0450517307EA519A37CC078F1C70D70D1239FILE: 23. Un pastor en la sierra (Serrana).flac Size: 26347345 Hash: CC7F471D9CC0014F34E7396D60A8D422 Accuracy: -m0 Conclusion: CDDA 100% Signature: 1DE3C0DEC88A5713C703BFB45B869E8D1A6BC717FILE: 22. Si ahora tu te ha arrepentio (Soleares de Triana).flac Size: 19191976 Hash: CA7A5AFEF6DA6A82974BB2EBF62DAB31 Accuracy: -m0 Conclusion: CDDA 100% Signature: E5B51943A3ECCCDA6183C98A59E1F6703D14C802FILE: 21. Que blancas canas te peinas (Malaguenas del Mellizo).flac Size: 22148353 Hash: 0F619BC0BFE2F1821A162C8B4422EFF0 Accuracy: -m0 Conclusion: CDDA 100% Signature: 82DC0E4BF24C693574B33E8CF04FCD48295D014CFILE: 20. Yo no le temo a la muerte (Soleares de Alcala).flac Size: 26588711 Hash: 6C04BDD449BAE724A3EE61932D93DE50 Accuracy: -m0 Conclusion: CDDA 100% Signature: EA802861F8785F16EE36082D372EDC4485E83A83FILE: 19. Que grande el castigo (Seguiriyas de Manuel Torre).flac Size: 31544247 Hash: BAA70EA57CD8123D4F16C87116DD333E Accuracy: -m0 Conclusion: CDDA 99% Signature: 1915548281853C46DB55BE6099881CC9131D3229FILE: 18. Mira lo que te he comprao (Tarantos).flac Size: 27960844 Hash: F2D43396E846C6A44D97E86EDFF36DE0 Accuracy: -m0 Conclusion: CDDA 100% Signature: DB51A19CDCAC3FB86749828F783C1B897FF3256FFILE: 17. Llorando gotas de sangre (Tientos de Cadiz).flac Size: 22172856 Hash: 7708824EB7771807F10D05D11C42525F Accuracy: -m0 Conclusion: CDDA 100% Signature: 7B93479A62298C4AFD4B69C4EA26A7D31206F927FILE: 16. Hasta la fe de bautismo (Soleares de Cadiz).flac Size: 23260135 Hash: 99CC544B592AD9032F4372A62EEF9AF0 Accuracy: -m0 Conclusion: CDDA 100% Signature: 2EEE7D3AE28CF2F398D441F8BCBC212EA7CC5F9BFILE: 15. Bulerias rocieras.flac Size: 28224480 Hash: A77C0DEEBAB2BA3DCA79122A7D8ED3BC Accuracy: -m0 Conclusion: CDDA 100% Signature: B685D249156586E9F61B6DCD6E65B84A64F168FBFILE: 14. Romance de la Argentinita (Tientos).flac Size: 17195379 Hash: 1B5077742BDD52467BCC3F9F0FC2BC9D Accuracy: -m0 Conclusion: CDDA 100% Signature: FEA07CEBE5D45C562B32FD4059D8ACCCF16D8421FILE: 13. Bulerias de Jose Maria (Bulerias).flac Size: 18834973 Hash: 2978688EEA2284D5F7F6825F47B203F5 Accuracy: -m0 Conclusion: CDDA 100% Signature: ACD91C6A7CE56DC1F6F022C8679187A75FBFD385FILE: 12. Tanguillos de Cadiz.flac Size: 15125446 Hash: 633756BDA7C7A3449E61F4EA55C4614E Accuracy: -m0 Conclusion: CDDA 99% Signature: 0461A5E3DFD109428467FBD94AB3EB9B65251DFEFILE: 11. Seguiriyas gitanas.flac Size: 18469790 Hash: 5064FCD48C3AA28A0B2822008D188F6A Accuracy: -m0 Conclusion: CDDA 100% Signature: B0803C665EF9F445E997181F652B2EE71E9506F7FILE: 10. Bulerias por solea.flac Size: 19232044 Hash: 1D9F22D483AACCCA7902DC7753D606C3 Accuracy: -m0 Conclusion: CDDA 100% Signature: CA0C976EAE5F31187CDB8E2446FDE4A38E71EB94FILE: 09. Tientos de Cadiz.flac Size: 22754259 Hash: 9ADD80FFA28F98A7C3931B332C3293AA Accuracy: -m0 Conclusion: CDDA 99% Signature: CA5423073A7CB426AD5CBB0A8BA89E0D6500AA21FILE: 08. Alegrias de Cadiz.flac Size: 19632844 Hash: B06FFB1EA533185D784704E41ED855EF Accuracy: -m0 Conclusion: CDDA 100% Signature: BB2DBE3E3373425A15C2844BA1D1BF901DBE414CFILE: 07. Fiesta gitana (Bulerias).flac Size: 18188215 Hash: 286122E0E49D7DC29F94D8610B07387A Accuracy: -m0 Conclusion: CDDA 99% Signature: F177A6B2529CF5263050B56A777843E6C70A0FFFFILE: 06. Fandangos de Huelva.flac Size: 12873965 Hash: DC7FCE0B40EF17F62981EFF4906E9FCB Accuracy: -m0 Conclusion: CDDA 100% Signature: BF7F52B3D6A57EC458FF7F9AED2C9EAF2368BF59FILE: 05. La cana (Cana y macho).flac Size: 23044423 Hash: 5C189EA31197363BA65A3C79EB3D68D9 Accuracy: -m0 Conclusion: CDDA 99% Signature: 80DF65D77CDF92EF4C4C7748069B1DD5DA06A262FILE: 04. Tanguillos de Malaga.flac Size: 16239844 Hash: D8CCC5AE21A5D9E7744D008EF2267095 Accuracy: -m0 Conclusion: CDDA 100% Signature: 363DA47E63CDB202E6478448C4114ACCE03C2364FILE: 03. Solea de Alcala.flac Size: 20634548 Hash: 4E0AFCE85D216424CF61EA97F5B2B8B1 Accuracy: -m0 Conclusion: CDDA 100% Signature: 81EAB410A1B153AD0A9EF7F1F187E9849154821DFILE: 02. Romance de Mari-Paz.flac Size: 13840147 Hash: 4A17704E33E455E54885EF7E16AAA8A7 Accuracy: -m0 Conclusion: CDDA 100% Signature: 7BBDBD9D8CF54E501DB92A9D6F54B394AC2DA75AFILE: 01. Baladilla de los tres rios (Bulerias).flac Size: 19586178 Hash: A32124DDC8E42F9D08BCA09E5D4DE4C0 Accuracy: -m0 Conclusion: CDDA 99% Signature: 17167158D002BC836495E623EEF5ACAAB0F9FD35

Скриншот спектра частот

Доп. информация:
за данный материал огромное спасибо chegivaraoh!
Убрал с названий композиций диакритические знаки, подправил тэги. Добавил плейлист.
Папка Spectrograms содержит спектры частот всех композиций.

О сборнике

В неизданной антологии Antología inédita (1961-1988) представлены восстановленные, ремикшированные и ремастированные первые записи Пепе и Пако де Лусии, включая три неизданных песни. И впервые на CD изданы две версии песни Chalaura, которую братья совместно с группой музыкантов записали в 1988 году.
Напев из Chalaura стал очень популярен, его подхватили многие музыканты, в частности Gipsy Kings – песни Chiribi, Oy
Музыкальная карьера Пепе и Пако де Лусии началась с детства, кода Пепе было 14 лет, а Пако – 12. В то время их дуэт был назван Los Chiquitos de Algeciras (Лос Чики́тос де Альхеси́рас).
В 1961 году на студии Hispavox были изданы три EP 7":
Los Chiquitos de Algeciras Vol. 1 (композиции 1 - 4)
Los Chiquitos de Algeciras Vol. 2 (композиции 5 - 8)
Los Chiquitos de Algeciras Vol. 3 (композиции 9 - 12)
В 1963 году вышла LP:
Cante Flamenco Tradicional (композиции 16 - 27), которая была переиздана на CD

Состав

Cantaor: Pepito Sánchez он же Pepe de Lucía
Guitarrista: Paquito Sánchez он же Paco de Lucía

RelizMAN

Post 12-Nov-2019 16:10

[Quote]

Tomatito / Rodrigo: Concierto De Aranjuez
Жанр: Classical, Flamenco
Носитель: WEB
Год издания: 2019
Издатель (лейбл): Universal Music Spain S.L.
Страна исполнителя (группы): Испания
Аудиокодек: FLAC (*.flac)
Тип рипа: tracks
Продолжительность: 00:33:30
Источник: Qobuz.com
Наличие сканов в содержимом раздачи: нет
Треклист:
Concierto de Aranjuez for Guitar and Orchestra (Joaquin Rodrigo)
1. Allegro con spirito
2. Adagio
3. Allegro gentile
Cuatro Tangos (Astor Piazzolla)
4. 3. Oblivion - arr. for two Guitars and Orchestra
Fuga y misterio (Astor Piazzolla)
5. Fuga Y Misterio - arr. for two Guitars and Orchestra
6. Gismonti: Agua E Vinho - arr. for two Guitars and Orchestra

Лог проверки качества

AUDIOCHECKER v2.0 beta (build 457) - by Dester - [email protected]~~~~~~~~~~~~~~~~~~~~~~~~~~~~~~~~~~-=== DO NOT EDIT THIS FILE! ===-
Path: ...\Tomatito - 2019 - Concierto De Aranjuez
1 -=- 01 - Concierto de Aranjuez for Guitar and Orchestra _ 1. Allegro con spirito.flac -=- CDDA (100%)2 -=- 02 - Concierto de Aranjuez for Guitar and Orchestra _ 2. Adagio.flac -=- CDDA (100%)3 -=- 03 - Concierto de Aranjuez for Guitar and Orchestra _ 3. Allegro gentile.flac -=- CDDA (100%)4 -=- 04 - Cuatro Tangos _ 3. Oblivion - arr. for two Guitars and Orchestra.flac -=- CDDA (100%)5 -=- 05 - Fuga y misterio _ Fuga Y Misterio - arr. for two Guitars and Orchestra.flac -=- CDDA (99%)6 -=- 06 - Agua E Vinho - arr. for two Guitars and Orchestra.flac -=- CDDA (99%)
Summary 99,67% CDDA
244362260

RelizMAN

Post 09-Nov-2019 23:10

[Quote]

Camaron de la Isla - Полная Дискография - -Жанр: Flamenco, Cante Страна: Испания Год издания: 1969-2008
Аудиокодек: FLAC (*.flac) Тип Рипа: tracks Битрейт Аудио: losssles Общая продолжительность: 14:37:16
Источник:
-

[01] Al verte las flores lloran (1969)

Продолжительность: 44:07
Треклист:
01 Al Verte Las Flores Lloran (Bulerias)
02 Que Un Toro Bravo En Su Muerte
03 Si Acaso Muero
04 En Una Piedra Me Acoste
05 Anda Y No Presumas Mas (Buleria Por Solea)
06 Camina Y Dime (Taranto)
07 Detras Del Tuyo Se Va
08 Y Tu No Me Respondias
09 Llorando Me Lo Pedia
10 Una Estrella Chiquitita
11 Con La Varita En La Mano
12 Barrio De Santa Maria

Audiochecker log

AUDIOCHECKER v2.0 beta (build 457) - by Dester - [email protected]
~~~~~~~~~~~~~~~~~~~~~~~~~~~~~~~~~~
-=== DO NOT EDIT THIS FILE! ===-
Путь: ...\[01] Al verte las flores lloran (1969)
01 -=- 01 Al Verte Las Flores Lloran (Bulerias).flac -=- CDDA (42%)
02 -=- 02 Que Un Toro Bravo En Su Muerte.flac -=- MPEG (100%)
03 -=- 03 Si Acaso Muero.flac -=- MPEG (100%)
04 -=- 04 En Una Piedra Me Acoste.flac -=- MPEG (100%)
05 -=- 05 Anda Y No Presumas Mas (Buleria Por Solea).flac -=- MPEG (100%)
06 -=- 06 Camina Y Dime (Taranto).flac -=- MPEG (99%)
07 -=- 07 Detras Del Tuyo Se Va.flac -=- MPEG (100%)
08 -=- 08 Y Tu No Me Respondias.flac -=- MPEG (100%)
09 -=- 09 Llorando Me Lo Pedia.flac -=- MPEG (100%)
10 -=- 10 Una Estrella Chiquitita.flac -=- MPEG (100%)
11 -=- 11 Con La Varita En La Mano.flac -=- MPEG (100%)
12 -=- 12 Barrio De Santa Maria.flac -=- MPEG (100%)
Сводка 3,58% CDDA
202046948

[02] Cada vez que nos miramos (1970)

Продолжительность: 37:07
Треклист:
01 Cada Vez Que Nos Miramos
02 Y No Llegastes A Quererme (Granaina)
03 Ante El Altar Me Juraste
04 Moral (Fandangos Del Gloria)
05 La Andan Hablando
06 Vas A Conseguir Tres Cosas (Fandangos De Huelva)
07 Jardin De Belleza (Romera)
08 Sube Al Enganche
09 Donde Una Ermita Poner
10 A Los Santos Del Cielo
11 Soy Grande Por Ser Gitano
12 Al Gurugu Guruguero (Tientos)

Audiochecker log

AUDIOCHECKER v2.0 beta (build 457) - by Dester - [email protected]
~~~~~~~~~~~~~~~~~~~~~~~~~~~~~~~~~~
-=== DO NOT EDIT THIS FILE! ===-
Путь: ...\[02] Cada vez que nos miramos (1970)
01 -=- 01 Cada Vez Que Nos Miramos.flac -=- MPEG (95%)
02 -=- 02 Y No Llegastes A Quererme (Granaina).flac -=- MPEG (95%)
03 -=- 03 Ante El Altar Me Juraste.flac -=- MPEG (95%)
04 -=- 04 Moral (Fandangos Del Gloria).flac -=- MPEG (95%)
05 -=- 05 La Andan Hablando.flac -=- MPEG (95%)
06 -=- 06 Vas A Conseguir Tres Cosas (Fandangos De Huelva).flac -=- MPEG (95%)
07 -=- 07 Jardin De Belleza (Romera).flac -=- MPEG (95%)
08 -=- 08 Sube Al Enganche.flac -=- MPEG (95%)
09 -=- 09 Donde Una Ermita Poner.flac -=- MPEG (95%)
10 -=- 10 A Los Santos Del Cielo.flac -=- MPEG (95%)
11 -=- 11 Soy Grande Por Ser Gitano.flac -=- MPEG (95%)
12 -=- 12 Al Gurugu Guruguero (Tientos).flac -=- MPEG (95%)
Сводка 5,00% CDDA
36767828

[03] Son tus ojos dos estrellas (1971)

Продолжительность: 37:20
Треклист:
01 Son Tus Ojos Dos Estrellas
02 La Mujer Con Ser Mujer (Malaguena De Chacon)
03 Por Mala Lengua Que Tienes
04 Sin Motivos Ni Razon
05 En La Provincia De Cadiz (Peteneras)
06 De Una Mina De La Union (Minera)
07 El Espejo En Que Te Miras (Solea Apola)
08 Me La Tienes Controla
09 Al Padre Santo De Roma
10 Estoy Cumpliendo Condena (Polo)
11 Se Murio Mi Madre
12 Me Voy Por La Calle Abajo

Audiochecker log

AUDIOCHECKER v2.0 beta (build 457) - by Dester - [email protected]
~~~~~~~~~~~~~~~~~~~~~~~~~~~~~~~~~~
-=== DO NOT EDIT THIS FILE! ===-
Путь: ...\[03] Son tus ojos dos estrellas (1971)
01 -=- 01 Son Tus Ojos Dos Estrellas.flac -=- MPEG (89%)
02 -=- 02 La Mujer Con Ser Mujer (Malaguena De Chacon).flac -=- MPEG (89%)
03 -=- 03 Por Mala Lengua Que Tienes.flac -=- MPEG (93%)
04 -=- 04 Sin Motivos Ni Razon.flac -=- MPEG (95%)
05 -=- 05 En La Provincia De Cadiz (Peteneras).flac -=- MPEG (90%)
06 -=- 06 De Una Mina De La Union (Minera).flac -=- MPEG (97%)
07 -=- 07 El Espejo En Que Te Miras (Solea Apola).flac -=- MPEG (89%)
08 -=- 08 Me La Tienes Controla.flac -=- CDDA (43%)
09 -=- 09 Al Padre Santo De Roma.flac -=- MPEG (90%)
10 -=- 10 Estoy Cumpliendo Condena (Polo).flac -=- MPEG (90%)
11 -=- 11 Se Murio Mi Madre.flac -=- CDDA (42%)
12 -=- 12 Me Voy Por La Calle Abajo.flac -=- MPEG (95%)
Сводка 14,00% CDDA
251848340

[04] Canastera (1972)

Продолжительность: 38:00
Треклист:
01 Canastera
02 No Dudes De La Nobleza
03 Que A Mi Me Vio De "Naser" (Alegrias)
04 Calabosito Oscuro
05 No Quisiera Que Te Fueras
06 Las Campanas Tambien Lloran (Tientos)
07 Una Gitana Morena
08 La Vi Por Primera Vez
09 Estas Ciego "Pa" No Ver
10 Sonaba Siempre Contigo (Cartagenera)
11 Y Me Gustan Las Mujeres
12 Dios Te Dara A Ti La Gloria (Verdiales)

Audiochecker log

AUDIOCHECKER v2.0 beta (build 457) - by Dester - [email protected]
~~~~~~~~~~~~~~~~~~~~~~~~~~~~~~~~~~
-=== DO NOT EDIT THIS FILE! ===-
Путь: ...\[04] Canastera (1972)
01 -=- 01 Canastera.flac -=- MPEG (95%)
02 -=- 02 No Dudes De La Nobleza.flac -=- CDDA (43%)
03 -=- 03 Que A Mi Me Vio De Naser (Alegrias).flac -=- MPEG (95%)
04 -=- 04 Calabosito Oscuro.flac -=- CDDA (43%)
05 -=- 05 No Quisiera Que Te Fueras.flac -=- MPEG (95%)
06 -=- 06 Las Campanas Tambien Lloran (Tientos).flac -=- MPEG (95%)
07 -=- 07 Una Gitana Morena.flac -=- MPEG (95%)
08 -=- 08 La Vi Por Primera Vez.flac -=- MPEG (95%)
09 -=- 09 Estas Ciego Pa No Ver.flac -=- CDDA (43%)
10 -=- 10 Sonaba Siempre Contigo (Cartagenera).flac -=- CDDA (92%)
11 -=- 11 Y Me Gustan Las Mujeres.flac -=- MPEG (95%)
12 -=- 12 Dios Te Dara A Ti La Gloria (Verdiales).flac -=- MPEG (95%)
Сводка 21,75% CDDA
224658740

[05] Caminito de Totana (1973)

Продолжительность: 37:31
Треклист:
01 Caminito De Totana
02 Hermanito Mio (Seguiriya)
03 Que No Se Quita Con Na (Fandangos)
04 Dame Un Poquito De Agua (Bulerias)
05 La Jaca Que Yo Tenia (Bulerias)
06 A La Sombra De Un Laurel (Fandangos)
07 Quisiera Volverme Pulga (Tangos De Malaga)
08 Salud Antes Que Dinero (Fandangos)
09 Busco Yo Mi Solea (Bulerias Por Solea)
10 A Un Sabio Le Oi Decir (Solea)
11 Las Espinas De Una Flor
12 Las Doce Acaban De Dar

Audiochecker log

AUDIOCHECKER v2.0 beta (build 457) - by Dester - [email protected]
~~~~~~~~~~~~~~~~~~~~~~~~~~~~~~~~~~
-=== DO NOT EDIT THIS FILE! ===-
Путь: ...\[05] Caminito de Totana (1973)
01 -=- 01 Caminito De Totana.flac -=- CDDA (87%)
02 -=- 02 Hermanito Mio (Seguiriya).flac -=- CDDA (94%)
03 -=- 03 Que No Se Quita Con Na (Fandangos).flac -=- CDDA (100%)
04 -=- 04 Dame Un Poquito De Agua (Bulerias).flac -=- CDDA (100%)
05 -=- 05 La Jaca Que Yo Tenia (Bulerias).flac -=- CDDA (100%)
06 -=- 06 A La Sombra De Un Laurel (Fandangos).flac -=- CDDA (100%)
07 -=- 07 Quisiera Volverme Pulga (Tangos De Malaga).flac -=- CDDA (100%)
08 -=- 08 Salud Antes Que Dinero (Fandangos).flac -=- CDDA (87%)
09 -=- 09 Busco Yo Mi Solea (Bulerias Por Solea).flac -=- CDDA (54%)
10 -=- 10 A Un Sabio Le Oi Decir (Solea).flac -=- CDDA (54%)
11 -=- 11 Las Espinas De Una Flor.flac -=- CDDA (76%)
12 -=- 12 Las Doce Acaban De Dar.flac -=- CDDA (58%)
Сводка 84,17% CDDA
141464260

[06] Soy caminante (1974)

Продолжительность: 37:43
Треклист:
01 El Caminante (Bulerias)
02 Reniego Haberte Encontrao
03 La Vida Es Una Ilusion (Fandangos)
04 Las Penas De Mi Mare (Seguirillas)
05 Me Olvidaste Te Olvide (Alegrias)
06 Que Desgraciaitos Son (Tangos)
07 Que Camina Noche Y Dia
08 Se Pelean En Mi Mente (Tarantos)
09 Me Dieron Una Ocasion
10 Mira Que Bonitas Son

Audiochecker log

AUDIOCHECKER v2.0 beta (build 457) - by Dester - [email protected]
~~~~~~~~~~~~~~~~~~~~~~~~~~~~~~~~~~
-=== DO NOT EDIT THIS FILE! ===-
Путь: ...\[06] Soy caminante (1974)
01 -=- 01 El Caminante (Bulerias).flac -=- MPEG (95%)
02 -=- 02 Reniego Haberte Encontrao.flac -=- MPEG (95%)
03 -=- 03 La Vida Es Una Ilusion (Fandangos).flac -=- MPEG (95%)
04 -=- 04 Las Penas De Mi Mare (Seguirillas).flac -=- CDDA (49%)
05 -=- 05 Me Olvidaste Te Olvide (Alegrias).flac -=- MPEG (95%)
06 -=- 06 Que Desgraciaitos Son (Tangos).flac -=- MPEG (95%)
07 -=- 07 Que Camina Noche Y Dia.flac -=- MPEG (95%)
08 -=- 08 Se Pelean En Mi Mente (Tarantos).flac -=- CDDA (62%)
09 -=- 09 Me Dieron Una Ocasion.flac -=- MPEG (95%)
10 -=- 10 Mira Que Bonitas Son.flac -=- MPEG (95%)
Сводка 15,10% CDDA
83582100

[07] Arte y majestad (1975)

Продолжительность: 34:35
Треклист:
01 Que Mis Ojitos Te Vean (Solea)
02 Solo Vivo Pa'Quererte
03 Malito Yo Estaba
04 Tu Carino Es Mi Castigo
05 Ni Que Manden A Mi
06 En La Boca De Una Mina (Taranto)
07 Dejala Vivir En Paz
08 Arte Y Majestad
09 No Naqueres Mas De Mi (Tangos Del Titi)
10 Isla De Leon
11 En La Puerta De La Ermita

Audiochecker log

AUDIOCHECKER v2.0 beta (build 457) - by Dester - [email protected]
~~~~~~~~~~~~~~~~~~~~~~~~~~~~~~~~~~
-=== DO NOT EDIT THIS FILE! ===-
Путь: ...\[07] Arte y majestad (1975)
01 -=- 01 Que Mis Ojitos Te Vean (Solea).flac -=- MPEG (100%)
02 -=- 02 Solo Vivo Pa'Quererte.flac -=- MPEG (100%)
03 -=- 03 Malito Yo Estaba.flac -=- MPEG (100%)
04 -=- 04 Tu Carino Es Mi Castigo.flac -=- MPEG (95%)
05 -=- 05 Ni Que Manden A Mi.flac -=- MPEG (100%)
06 -=- 06 En La Boca De Una Mina (Taranto).flac -=- MPEG (100%)
07 -=- 07 Dejala Vivir En Paz.flac -=- MPEG (100%)
08 -=- 08 Arte Y Majestad.flac -=- MPEG (95%)
09 -=- 09 No Naqueres Mas De Mi (Tangos Del Titi).flac -=- MPEG (95%)
10 -=- 10 Isla De Leon.flac -=- MPEG (95%)
11 -=- 11 En La Puerta De La Ermita.flac -=- MPEG (100%)
Сводка 1,82% CDDA
122773652

[08] Rosa Maria (1976)

Продолжительность: 35:56
Треклист:
01 Rosa Maria (Tangos)
02 Si No Me Sirvan Pa Na (Soles)
03 Mis Penas Lloraba Yo
04 Pasan Los Años (Bulerías)
05 Moraito Como Un Lirio
06 Vamos Nino Pa La Bamba
07 Los Dos Se Juegan La Via (Tarantos)
08 Con Roca De Pedernal
09 En El Fondo Se Clavo (Fandangos)
10 Vamonos Pa Casa (Sevillanas)

Audiochecker log

AUDIOCHECKER v2.0 beta (build 457) - by Dester - [email protected]
~~~~~~~~~~~~~~~~~~~~~~~~~~~~~~~~~~
-=== DO NOT EDIT THIS FILE! ===-
Путь: ...\[08] Rosa Maria (1976)
01 -=- 01 Rosa Maria (Tangos).flac -=- CDDA (43%)
02 -=- 02 Si No Me Sirvan Pa Na (Soles).flac -=- MPEG (89%)
03 -=- 03 Mis Penas Lloraba Yo.flac -=- MPEG (92%)
04 -=- 04 Pasan Los Anos (Bulerias).flac -=- MPEG (89%)
05 -=- 05 Moraito Como Un Lirio.flac -=- MPEG (89%)
06 -=- 06 Vamos Nino Pa La Bamba.flac -=- MPEG (100%)
07 -=- 07 Los Dos Se Juegan La Via (Tarantos).flac -=- MPEG (100%)
08 -=- 08 Con Roca De Pedernal.flac -=- MPEG (90%)
09 -=- 09 En El Fondo Se Clavo (Fandangos).flac -=- MPEG (93%)
10 -=- 10 Vamonos Pa Casa (Sevillanas).flac -=- CDDA (100%)
Сводка 20,10% CDDA
116411732

[09] Castillo de arena (1977)

Продолжительность: 31:01
Треклист:
01 Samara
02 Donde Se Divisa El Mar
03 Y Mira Que Mira Y Mira
04 De Tus Ojos Soy Cautivo
05 Dos Estrellas Relucientes / De La Alegre Primavera
06 Como Castillo De Arena
07 Vivo Pa Quererte
08 De Lo Que Yo Soy Pa Ti / Por Culpa De Tu Carino
09 Que He Dejao De Quererte (Granaina)
10 Por Cositas Malas (Siguiriyas)

Audiochecher log

AUDIOCHECKER v2.0 beta (build 457) - by Dester - [email protected]
~~~~~~~~~~~~~~~~~~~~~~~~~~~~~~~~~~
-=== DO NOT EDIT THIS FILE! ===-
Путь: ...\[09] Castillo de arena (1977)
01 -=- 01 Samara.flac -=- MPEG (99%)
02 -=- 02 Donde Se Divisa El Mar.flac -=- MPEG (100%)
03 -=- 03 Y Mira Que Mira Y Mira.flac -=- MPEG (97%)
04 -=- 04 De Tus Ojos Soy Cautivo.flac -=- CDDA (76%)
05 -=- 05 Dos Estrellas Relucientes De La Alegre Primavera.flac -=- CDDA (62%)
06 -=- 06 Como Castillo De Arena.flac -=- CDDA (100%)
07 -=- 07 Vivo Pa Quererte.flac -=- CDDA (100%)
08 -=- 08 De Lo Que Yo Soy Pa Ti Por Culpa De Tu Carino.flac -=- CDDA (62%)
09 -=- 09 Que He Dejao De Quererte (Granaina).flac -=- CDDA (100%)
10 -=- 10 Por Cositas Malas (Siguiriyas).flac -=- CDDA (100%)
Сводка 60,40% CDDA
40920372

[10] La leyenda del tiempo (1979)

Продолжительность: 36:49
Треклист:
01 La Leyenda Del Tiempo
02 Romance Del Amargo
03 Homenaje A Federico
04 Mi Nina Se Fue A La Mar
05 La Tarara
06 Volando Voy
07 Bahia De Cadiz
08 Viejo Mundo (Bulerias)
09 Tangos De La Sultana
10 Nana Del Caballo Grande

Audiochecker log

AUDIOCHECKER v2.0 beta (build 457) - by Dester - [email protected]
~~~~~~~~~~~~~~~~~~~~~~~~~~~~~~~~~~
-=== DO NOT EDIT THIS FILE! ===-
Путь: ...\[10] La leyenda del tiempo (1979)
01 -=- 01 La Leyenda Del Tiempo.flac -=- CDDA (86%)
02 -=- 02 Romance Del Amargo.flac -=- CDDA (58%)
03 -=- 03 Homenaje A Federico.flac -=- MPEG (90%)
04 -=- 04 Mi Nina Se Fue A La Mar.flac -=- CDDA (62%)
05 -=- 05 La Tarara.flac -=- MPEG (97%)
06 -=- 06 Volando Voy.flac -=- CDDA (62%)
07 -=- 07 Bahia De Cadiz.flac -=- CDDA (85%)
08 -=- 08 Viejo Mundo (Bulerias).flac -=- CDDA (100%)
09 -=- 09 Tangos De La Sultana.flac -=- CDDA (92%)
10 -=- 10 Nana Del Caballo Grande.flac -=- CDDA (62%)
Сводка 62,00% CDDA
11669220

[11] Como el agua (1981)

Продолжительность: 28:40
Треклист:
01 Como El Agua
02 Gitana Te Quiero
03 Pueblos De La Tierra Mia
04 Quiero Quitarme Esta Pena
05 Sentao En El Valle
06 Tu Amor Para Mi No Es Fantasia
07 En Tu Puerta Da La Luna
08 La Luz De Aquella Farola

Audiochecker log

AUDIOCHECKER v2.0 beta (build 457) - by Dester - [email protected]
~~~~~~~~~~~~~~~~~~~~~~~~~~~~~~~~~~
-=== DO NOT EDIT THIS FILE! ===-
Путь: ...\[11] Como el agua (1981)
1 -=- 01 Como El Agua.flac -=- MPEG (95%)
2 -=- 02 Gitana Te Quiero.flac -=- MPEG (95%)
3 -=- 03 Pueblos De La Tierra Mia.flac -=- MPEG (95%)
4 -=- 04 Quiero Quitarme Esta Pena.flac -=- MPEG (95%)
5 -=- 05 Sentao En El Valle.flac -=- MPEG (95%)
6 -=- 06 Tu Amor Para Mi No Es Fantasia.flac -=- MPEG (95%)
7 -=- 07 En Tu Puerta Da La Luna.flac -=- CDDA (58%)
8 -=- 08 La Luz De Aquella Farola.flac -=- MPEG (95%)
Сводка 11,63% CDDA
179689604

[12] Calle Real (1983)

Продолжительность: 32:14
Треклист:
01 Romance De La Luna
02 Soy Esclavo De Tus Besos
03 Yo Vivo Enamorao (Tangos)
04 Yo Soy El Viento
05 Calle Real (Fandangos Del Alosno)
06 Na Es Eterno
07 Caminando
08 Bulerias De La Perla

Audiochecker log

AUDIOCHECKER v2.0 beta (build 457) - by Dester - [email protected]
~~~~~~~~~~~~~~~~~~~~~~~~~~~~~~~~~~
-=== DO NOT EDIT THIS FILE! ===-
Путь: ...\[12] Calle Real (1983)
1 -=- 01 Romance De La Luna.flac -=- CDDA (85%)
2 -=- 02 Soy Esclavo De Tus Besos.flac -=- CDDA (100%)
3 -=- 03 Yo Vivo Enamorao (Tangos).flac -=- CDDA (92%)
4 -=- 04 Yo Soy El Viento.flac -=- CDDA (87%)
5 -=- 05 Calle Real (Fandangos Del Alosno).flac -=- CDDA (43%)
6 -=- 06 Na Es Eterno.flac -=- CDDA (54%)
7 -=- 07 Caminando.flac -=- CDDA (58%)
8 -=- 08 Bulerias De La Perla.flac -=- CDDA (100%)
Сводка 77,38% CDDA
121685108

[13] Vivire (1984)

Продолжительность: 30:30
Треклист:
01 Vivire
02 Campanas Del Alba (Seguiriya)
03 Mi Sangre Grita
04 Mar Amargo
05 Na Mas Que'r Dia
06 Nuestros Sueños (Rumba)
07 Dios De La Nada
08 Tres Luceros

Audiochecker log

AUDIOCHECKER v2.0 beta (build 457) - by Dester - [email protected]
~~~~~~~~~~~~~~~~~~~~~~~~~~~~~~~~~~
-=== DO NOT EDIT THIS FILE! ===-
Путь: ...\[13] Vivire (1984)
1 -=- 01 Vivire.flac -=- CDDA (92%)
2 -=- 02 Campanas Del Alba (Seguiriya).flac -=- MPEG (90%)
3 -=- 03 Mi Sangre Grita.flac -=- MPEG (95%)
4 -=- 04 Mar Amargo.flac -=- CDDA (43%)
5 -=- 05 Na Mas Que'r Dia.flac -=- CDDA (58%)
6 -=- 06 Nuestros Suenos (Rumba).flac -=- MPEG (89%)
7 -=- 07 Dios De La Nada.flac -=- CDDA (100%)
8 -=- 08 Tres Luceros.flac -=- CDDA (54%)
Сводка 46,63% CDDA
51008612

[14] Te lo dice Camaron (1986)

Продолжительность: 34:31
Треклист:
01 Pistola Y Cuchillo
02 Tu Mare Rosa
03 Otra Galaxia
04 Te Lo Dice Camaron
05 Vente Conmigo
06 Borrame De Tu Memoria
07 Homenaje A (Chaqueta)
08 Los Inmortales

Audiochecker log

AUDIOCHECKER v2.0 beta (build 457) - by Dester - [email protected]
~~~~~~~~~~~~~~~~~~~~~~~~~~~~~~~~~~
-=== DO NOT EDIT THIS FILE! ===-
Путь: ...\[14] Te lo dice Camaron (1986)
1 -=- 01 Pistola Y Cuchillo.flac -=- CDDA (100%)
2 -=- 02 Tu Mare Rosa.flac -=- CDDA (99%)
3 -=- 03 Otra Galaxia.flac -=- CDDA (99%)
4 -=- 04 Te Lo Dice Camaron.flac -=- CDDA (100%)
5 -=- 05 Vente Conmigo.flac -=- CDDA (100%)
6 -=- 06 Borrame De Tu Memoria.flac -=- CDDA (100%)
7 -=- 07 Homenaje A (Chaqueta).flac -=- CDDA (100%)
8 -=- 08 Los Inmortales.flac -=- CDDA (100%)
Сводка 99,75% CDDA
78878324

[15] Flamenco vivo (1987)

Продолжительность: 35:55
Треклист:
01 Un Tiro Al Aire
02 Pasando El Puente
03 Chiquito De Camas
04 La Vara De Los Chalanes
05 Castillo De Alcala
06 La Cava De Los Gitanos

Audiochecker log

AUDIOCHECKER v2.0 beta (build 457) - by Dester - [email protected]
~~~~~~~~~~~~~~~~~~~~~~~~~~~~~~~~~~
-=== DO NOT EDIT THIS FILE! ===-
Путь: ...\[15] Flamenco vivo (1987)
1 -=- 01 Un Tiro Al Aire.flac -=- MPEG (95%)
2 -=- 02 Pasando El Puente.flac -=- MPEG (95%)
3 -=- 03 Chiquito De Camas.flac -=- MPEG (95%)
4 -=- 04 La Vara De Los Chalanes.flac -=- MPEG (95%)
5 -=- 05 Castillo De Alcala.flac -=- MPEG (95%)
6 -=- 06 La Cava De Los Gitanos.flac -=- MPEG (95%)
Сводка 5,00% CDDA
142626180

[16] Soy gitano (1989)

Продолжительность: 32:19
Треклист:
01 Soy Gitano
02 Casida De Las Palomas Oscuras
03 Thamar Y Amnon
04 Dicen De Mi
05 Luna Llena
06 El Pez Mas Viejo Del Rio
07 Amor De Conuco
08 Nana Del Caballo Grande

Audiochecker log

AUDIOCHECKER v2.0 beta (build 457) - by Dester - [email protected]
~~~~~~~~~~~~~~~~~~~~~~~~~~~~~~~~~~
-=== DO NOT EDIT THIS FILE! ===-
Путь: ...\[16] Soy gitano (1989)
1 -=- 01 Soy Gitano.flac -=- CDDA (100%)
2 -=- 02 Casida De Las Palomas Oscuras.flac -=- CDDA (100%)
3 -=- 03 Thamar Y Amnon.flac -=- CDDA (100%)
4 -=- 04 Dicen De Mi.flac -=- CDDA (100%)
5 -=- 05 Luna Llena.flac -=- CDDA (100%)
6 -=- 06 El Pez Mas Viejo Del Rio.flac -=- CDDA (100%)
7 -=- 07 Amor De Conuco.flac -=- CDDA (100%)
8 -=- 08 Nana Del Caballo Grande.flac -=- CDDA (100%)
Сводка 100,00% CDDA
220064260

[17] Potro de rabia y miel (1992)

Продолжительность: 39:41
Треклист:
01 Una Rosa Pa Tu Pelo
02 Mi Nazareno
03 Se Me Partio La Barrena
04 Potro De Rabia Y Miel
05 La Primavera (Rumba)
06 Yo Vendo Pescaito
07 Eres Como Un Laberinto
08 La Calle De Los Lunares
09 Un Caballo Y Una Yegua

Audiochecker log

AUDIOCHECKER v2.0 beta (build 457) - by Dester - [email protected]
~~~~~~~~~~~~~~~~~~~~~~~~~~~~~~~~~~
-=== DO NOT EDIT THIS FILE! ===-
Путь: ...\[17] Potro de rabia y miel (1992)
1 -=- 01 Una Rosa Pa Tu Pelo.flac -=- CDDA (94%)
2 -=- 02 Mi Nazareno.flac -=- CDDA (100%)
3 -=- 03 Se Me Partio La Barrena.flac -=- CDDA (100%)
4 -=- 04 Potro De Rabia Y Miel.flac -=- MPEG (73%)
5 -=- 05 La Primavera (Rumba).flac -=- ERROR
6 -=- 06 Yo Vendo Pescaito.flac -=- MPEG (95%)
7 -=- 07 Eres Como Un Laberinto.flac -=- CDDA (100%)
8 -=- 08 La Calle De Los Lunares.flac -=- MPEG (95%)
9 -=- 09 Un Caballo Y Una Yegua.flac -=- CDDA (99%)
Сводка 66,25% CDDA
221003828

[18] Camaron Nuestro (1994)

Продолжительность: 01:10:06
Треклист:
01 Limon De Cera
02 El Embrujo De Tus Ojos (Tangos) (Album Version)
03 Bendita Sea Mi Tierra (Alegrias) (Album Version)
04 Al Relente De La Luna
05 Nubes De Platino
06 Sin Descanso, Amar
07 Como Si Fuera Un Castillo
08 Verano En Bornos
09 Sufro Por Los Ojos Negros
10 Campesino Andaluz
11 Reina De La Moreria
12 Carmela
13 Una Palabrita Tuya
14 La Falsa Moneda

Audiochecker log

AUDIOCHECKER v2.0 beta (build 457) - by Dester - [email protected]
~~~~~~~~~~~~~~~~~~~~~~~~~~~~~~~~~~
-=== DO NOT EDIT THIS FILE! ===-
Путь: ...\[18] Camaron Nuestro (1994)
01 -=- 01 Limon De Cera.flac -=- CDDA (100%)
02 -=- 02 El Embrujo De Tus Ojos (Tangos) (Album Version).flac -=- CDDA (100%)
03 -=- 03 Bendita Sea Mi Tierra (Alegrias) (Album Version).flac -=- CDDA (100%)
04 -=- 04 Al Relente De La Luna.flac -=- CDDA (100%)
05 -=- 05 Nubes De Platino.flac -=- CDDA (100%)
06 -=- 06 Sin Descanso, Amar.flac -=- CDDA (100%)
07 -=- 07 Como Si Fuera Un Castillo.flac -=- CDDA (100%)
08 -=- 08 Verano En Bornos.flac -=- CDDA (100%)
09 -=- 09 Sufro Por Los Ojos Negros.flac -=- CDDA (100%)
10 -=- 10 Campesino Andaluz.flac -=- CDDA (100%)
11 -=- 11 Reina De La Moreria.flac -=- CDDA (100%)
12 -=- 12 Carmela.flac -=- CDDA (100%)
13 -=- 13 Una Palabrita Tuya.flac -=- CDDA (100%)
14 -=- 14 La Falsa Moneda.flac -=- CDDA (100%)
Сводка 100,00% CDDA
215631764

[19] Paris, 1987 (1999)

Продолжительность: 49:39
Треклист:
01 Tus Ojillose Negros
02 Sonidos Negros
03 Panuelo A Rayas
04 Como El Agua
05 Yo Pienso Como El Cipres
06 Panuelo A Rayas 2
07 Mas Duro Que El Acero
08 Tirititando De Frio

Audiochecker log

AUDIOCHECKER v2.0 beta (build 457) - by Dester - [email protected]
~~~~~~~~~~~~~~~~~~~~~~~~~~~~~~~~~~
-=== DO NOT EDIT THIS FILE! ===-
Путь: ...\[19] Paris, 1987 (1999)
1 -=- 01 Tus Ojillose Negros.flac -=- CDDA (100%)
2 -=- 02 Sonidos Negros.flac -=- CDDA (100%)
3 -=- 03 Panuelo A Rayas.flac -=- CDDA (100%)
4 -=- 04 Como El Agua.flac -=- CDDA (100%)
5 -=- 05 Yo Pienso Como El Cipres.flac -=- CDDA (100%)
6 -=- 06 Panuelo A Rayas 2.flac -=- CDDA (100%)
7 -=- 07 Mas Duro Que El Acero.flac -=- CDDA (100%)
8 -=- 08 Tirititando De Frio.flac -=- CDDA (100%)
Сводка 100,00% CDDA
116369652

[20] Antologia inedita (2000)

Продолжительность: 01:07:35
Треклист:
01 La Leyenda Del Tiempo (Single Version)
02 Presentación
03 La Calle Parra (Soleares)
04 El De La Calza (Fandangos)
05 La Orilla Morena (Seguiriyas-Tonás)
06 Mairena Del Alcor (Bulerías)
07 Nana Del Caballo Grande
08 Homenaje A Federico
09 La Leyenda Del Tiempo (Bamberas)
10 Viejo Mundo (Bulerias)
11 La Tarara (Tarantos)
12 Caminito De La Algaba (Tonás)
13 Camarón En Montilla

Audiochecker log

AUDIOCHECKER v2.0 beta (build 457) - by Dester - [email protected]
~~~~~~~~~~~~~~~~~~~~~~~~~~~~~~~~~~
-=== DO NOT EDIT THIS FILE! ===-
Путь: ...\[20] Antologia inedita (2000)
01 -=- 01 La Leyenda Del Tiempo (Single Version).flac -=- CDDA (100%)
02 -=- 02 Presentacion.flac -=- CDDA (100%)
03 -=- 03 La Calle Parra (Soleares).flac -=- CDDA (58%)
04 -=- 04 El De La Calza (Fandangos).flac -=- CDDA (43%)
05 -=- 05 La Orilla Morena (Seguiriyas-Tonas).flac -=- CDDA (42%)
06 -=- 06 Mairena Del Alcor (Bulerias).flac -=- CDDA (100%)
07 -=- 07 Nana Del Caballo Grande.flac -=- CDDA (100%)
08 -=- 08 Homenaje A Federico.flac -=- CDDA (100%)
09 -=- 09 La Leyenda Del Tiempo (Bamberas).flac -=- CDDA (100%)
10 -=- 10 Viejo Mundo (Bulerias).flac -=- CDDA (99%)
11 -=- 11 La Tarara (Tarantos).flac -=- CDDA (100%)
12 -=- 12 Caminito De La Algaba (Tonas).flac -=- CDDA (100%)
13 -=- 13 Camaron En Montilla.flac -=- CDDA (85%)
Сводка 86,69% CDDA
256155220

[21] En la Venta de Vargas (2004)

Продолжительность: 48:05
Треклист:
01 Bulerías Del Chozas
02 Fandango Caracolero
03 Seguiriyas De Los Grillos
04 Tangos Extremeños
05 Se Me Acabo El Gusto (Fandangos)
06 Azucar Cande (Bulerías)
07 Tarantos Del Tio Rufino
08 De Invierno (Fandangos)
09 Sierra De Armenia (Seguiriyas)
10 Amante De Abril Y Mayo (Bulerías)

Audiochecker log

AUDIOCHECKER v2.0 beta (build 457) - by Dester - [email protected]
~~~~~~~~~~~~~~~~~~~~~~~~~~~~~~~~~~
-=== НЕ РЕДАКТИРУЙТЕ ЭТОТ ФАЙЛ! ===-
Путь: ...\[21] En la Venta de Vargas (2004)
01 -=- 01 Bulerias Del Chozas.flac -=- CDDA (99%)
02 -=- 02 Fandango Caracolero.flac -=- CDDA (99%)
03 -=- 03 Seguiriyas De Los Grillos.flac -=- CDDA (100%)
04 -=- 04 Tangos Extremenos.flac -=- CDDA (100%)
05 -=- 05 Se Me Acabo El Gusto (Fandangos).flac -=- CDDA (100%)
06 -=- 06 Azucar Cande (Bulerias).flac -=- CDDA (100%)
07 -=- 07 Tarantos Del Tio Rufino.flac -=- CDDA (100%)
08 -=- 08 De Invierno (Fandangos).flac -=- CDDA (100%)
09 -=- 09 Sierra De Armenia (Seguiriyas).flac -=- CDDA (100%)
10 -=- 10 Amante De Abril Y Mayo (Bulerias).flac -=- CDDA (100%)
Сводка 99,80% CDDA
72582132

[22] Reencuentro (2008)

Продолжительность: 37:37
Треклист:
01 Por Tangos (Medley)
02 La Saeta (Album Version)
03 Soleá del Chaqueta (Soleá) (Album Version)
04 Hombre Terrestre (Bulerías) (Album Version)
05 La Virgen Hizo Una Sopa (Villancicos) (Album Version)
06 A Dibujar Esta Rosa (Alegría) (Album Version)
07 Soy Fragüero (Album Version)
08 Las 12 Acaban De Dar (Martinete) (Album Version)
09 La Víbora Rabiosa (Fandango) (Album Version)

Audiochecker log

AUDIOCHECKER v2.0 beta (build 457) - by Dester - [email protected]
~~~~~~~~~~~~~~~~~~~~~~~~~~~~~~~~~~
-=== DO NOT EDIT THIS FILE! ===-
Путь: ...\[22] Reencuentro (2008)
1 -=- 01 Por Tangos (Medley).flac -=- CDDA (100%)
2 -=- 02 La Saeta.flac -=- CDDA (100%)
3 -=- 03 Solea del Chaqueta (Solea).flac -=- CDDA (100%)
4 -=- 04 Hombre Terrestre (Bulerias).flac -=- CDDA (100%)
5 -=- 05 La Virgen Hizo Una Sopa (Villancicos).flac -=- CDDA (100%)
6 -=- 06 A Dibujar Esta Rosa (Alegria).flac -=- CDDA (100%)
7 -=- 07 Soy Fraguero.flac -=- CDDA (99%)
8 -=- 08 Las 12 Acaban De Dar (Martinete).flac -=- CDDA (99%)
9 -=- 09 La Vibora Rabiosa (Fandango).flac -=- MPEG (80%)
Сводка 90,89% CDDA
245789908
- Paco de Lucia - Полная Дискография 31 WEB Альбом (1965 - 2014) FLAC (tracks), lossless

RelizMAN

Post 07-Sep-2019 13:25

[Quote]

Armik - Rubia- -Жанр: Flamenco
Страна-производитель диска: USA
Год издания диска: 1996
Лейбл: Baja/TSR Records
Номер по каталогу: BCD528
Страна исполнителя: USA
Аудио кодек: FLAC (*.flac)
Тип рипа: image+.cue
Битрейт аудио: lossless
Продолжительность: 56:54
Источник: dafnaplus
Наличие сканов в содержимом раздачи: да, dpi 600
Трэклист:
01. Rubia 5:17
02. Seduction 5:08
03. Maldonado 5:01
04. Mi Amor 4:58
05. Escapade 4:36
06. Sapphire Dreams 4:50
07. Miracles 4:54
08. Romantic Whispers 5:01
09. Veil Of Desire 5:10
10. Seychelles 3:23
11. Correros 4:58
12. Follow Me 3:39
-

Лог создания рипа

Exact Audio Copy V1.3 from 2. September 2016
EAC extraction logfile from 23. March 2019, 19:29
Armik / Rubia (BCD528)
Used drive : ASUS DRW-24D5MT Adapter: 1 ID: 0
Read mode : SecureUtilize accurate stream : YesDefeat audio cache : YesMake use of C2 pointers : No
Read offset correction : 6Overread into Lead-In and Lead-Out : NoFill up missing offset samples with silence : YesDelete leading and trailing silent blocks : NoNull samples used in CRC calculations : YesUsed interface : Native Win32 interface for Win NT & 2000
Used output format : User Defined EncoderSelected bitrate : 768 kBit/sQuality : HighAdd ID3 tag : NoCommand line compressor : C:\Program Files (x86)\Exact Audio Copy\Flac\flac.exeAdditional command line options : -V -8 -T "Genre=%genre%" -T "Artist=%artist%" -T "Title=%title%" -T "Album=%albumtitle%" -T "Date=%year%" -T "Tracknumber=%tracknr%" -T "Comment=%comment%" %source%
TOC of the extracted CD
Track | Start | Length | Start sector | End sector --------------------------------------------------------- 1 | 0:00.00 | 5:16.60 | 0 | 23759 2 | 5:16.60 | 5:08.00 | 23760 | 46859 3 | 10:24.60 | 5:01.02 | 46860 | 69436 4 | 15:25.62 | 4:57.73 | 69437 | 91784 5 | 20:23.60 | 4:35.47 | 91785 | 112456 6 | 24:59.32 | 4:50.30 | 112457 | 134236 7 | 29:49.62 | 4:53.53 | 134237 | 156264 8 | 34:43.40 | 5:00.45 | 156265 | 178809 9 | 39:44.10 | 5:10.30 | 178810 | 202089 10 | 44:54.40 | 3:23.17 | 202090 | 217331 11 | 48:17.57 | 4:57.48 | 217332 | 239654 12 | 53:15.30 | 3:38.70 | 239655 | 256074
Range status and errors
Selected range
Filename I:\dafnaplus\Armik - Rubia\Armik - Rubia (BCD528).wav
Peak level 100.0 % Extraction speed 6.8 X Range quality 100.0 % Test CRC EF287578 Copy CRC EF287578 Copy OK
No errors occurred
AccurateRip summary
Track 1 accurately ripped (confidence 11) [951B14B7] (AR v2)Track 2 accurately ripped (confidence 11) [E0F615B0] (AR v2)Track 3 accurately ripped (confidence 11) [86A47B8F] (AR v2)Track 4 accurately ripped (confidence 11) [6AF95FCA] (AR v2)Track 5 accurately ripped (confidence 11) [1603FB7A] (AR v2)Track 6 accurately ripped (confidence 11) [9B3F5F2B] (AR v2)Track 7 accurately ripped (confidence 11) [964525D0] (AR v2)Track 8 accurately ripped (confidence 12) [F99C3A8D] (AR v2)Track 9 accurately ripped (confidence 11) [601DF354] (AR v2)Track 10 accurately ripped (confidence 11) [BA560F18] (AR v2)Track 11 accurately ripped (confidence 11) [59DAAA05] (AR v2)Track 12 accurately ripped (confidence 11) [17BBEEAA] (AR v2)
All tracks accurately ripped
End of status report
---- CUETools DB Plugin V2.1.6
[CTDB TOCID: A7aO9iN74m4Pp5ElpuTJ4asJSeU-] foundSubmit result: A7aO9iN74m4Pp5ElpuTJ4asJSeU- has been confirmedTrack | CTDB Status 1 | (14/14) Accurately ripped 2 | (14/14) Accurately ripped 3 | (14/14) Accurately ripped 4 | (14/14) Accurately ripped 5 | (14/14) Accurately ripped 6 | (14/14) Accurately ripped 7 | (14/14) Accurately ripped 8 | (14/14) Accurately ripped 9 | (14/14) Accurately ripped 10 | (14/14) Accurately ripped 11 | (14/14) Accurately ripped 12 | (14/14) Accurately ripped
==== Log checksum EEEF29A49CE6AE22528EC2B8623696E60DE3281D824421CAF3A351FD66CD8A40 ====

DR Log

foobar2000 1.3.16 / Dynamic Range Meter 1.1.1log date: 2019-03-24 12:14:59
--------------------------------------------------------------------------------Analyzed: Armik / Rubia (BCD528)--------------------------------------------------------------------------------
DR Peak RMS Duration Track--------------------------------------------------------------------------------DR9 0.00 dB -10.12 dB 5:17 01-RubiaDR9 0.00 dB -11.12 dB 5:08 02-SeductionDR10 -0.28 dB -11.57 dB 5:01 03-MaldonadoDR11 -0.77 dB -13.12 dB 4:58 04-Mi AmorDR12 -0.59 dB -13.71 dB 4:36 05-EscapadeDR10 -0.20 dB -11.73 dB 4:50 06-Sapphire DreamsDR10 -0.34 dB -12.21 dB 4:54 07-MiraclesDR10 -0.60 dB -12.26 dB 5:01 08-Romantic WhispersDR9 -0.18 dB -10.87 dB 5:10 09-Veil Of DesireDR9 -0.88 dB -12.57 dB 3:23 10-SeychellesDR10 -0.21 dB -11.76 dB 4:58 11-CorrerosDR12 -0.79 dB -15.43 dB 3:39 12-Follow Me--------------------------------------------------------------------------------
Number of tracks: 12Official DR value: DR10
Samplerate: 44100 HzChannels: 2Bits per sample: 16Bitrate: 901 kbpsCodec: FLAC================================================================================

Back, Disc, Matrix

-

RelizMAN

Post 07-Sep-2019 11:15

[Quote]

Francis Goya / Magic Moments
Жанр: Easy Listening
Носитель: CD
Страна-производитель диска (релиза): Россия
Год издания: 1999
Издатель (лейбл): RMG
Номер по каталогу: 941046-2 RMG 1095-2
Страна исполнителя (группы): Belgium
Аудиокодек: FLAC (*.flac)
Тип рипа: image+.cue
Продолжительность: 00:49:19
Источник: собственный рип
Наличие сканов в содержимом раздачи: да
Треклист:
01. Magic Moments [03:43]
02. Try A Little Tenderness [02:36]
03. On This Night Of 1000 Stars [02:37]
04. Non Domenticar [02:51]
05. Memories Of Wintertime [02:23]
06. It Never Entered My Mind [02:53]
07. Heavenly [03:09]
08. Have You Ever Really Loved A Woman [03:56]
09. Guitar Tango [03:24]
10. I Will [03:07]
11. Emmanuelle [03:40]
12. Magic Is The Moonlight [03:14]
13. Amor Amor Amor [02:37]
14. Why Worry [02:29]
15. If I Feel [02:54]
16. Always In My Heart [03:38]

Лог создания рипа

Exact Audio Copy V1.0 beta 3 from 29. August 2011
Отчёт EAC об извлечении, выполненном 7. сентября 2019, 9:10
Francis Goya / Magic Moments
Дисковод: Optiarc DVD RW AD-7280S Adapter: 1 ID: 0
Режим чтения : ДостоверностьИспользование точного потока : ДаОтключение кэша аудио : ДаИспользование указателей C2 : Нет
Коррекция смещения при чтении : 48Способность читать области Lead-in и Lead-out : НетЗаполнение пропущенных сэмплов тишиной : ДаУдаление блоков с тишиной в начале и конце : НетПри вычислениях CRC использовались нулевые сэмплы : ДаИнтерфейс : Встроенный Win32-интерфейс для Win NT/2000
Выходной формат : Пользовательский кодировщикВыбранный битрейт : 768 kBit/sКачество : ВысокийДобавление ID3-тега : НетУтилита сжатия : C:\Program Files (x86)\Exact Audio Copy\FLAC\FLAC.EXEДополнительные параметры : -8 -V -T "ARTIST=%artist%" -T "TITLE=%title%" -T "ALBUM=%albumtitle%" -T "DATE=%year%" -T "TRACKNUMBER=%tracknr%" -T "GENRE=%genre%" -T "COMMENT=%comment%" -T "BAND=%albuminterpret%" -T "ALBUMARTIST=%albuminterpret%" -T "COMPOSER=%composer%" %haslyrics%--tag-from-file=LYRICS="%lyricsfile%"%haslyrics% -T "DISCNUMBER=%cdnumber%" -T "TOTALDISCS=%totalcds%" -T "TOTALTRACKS=%numtracks%" %hascover%--picture="%coverfile%"%hascover% %source% -o %dest%
TOC извлечённого CD
Трек | Старт | Длительность | Начальный сектор | Конечный сектор --------------------------------------------------------------------- 1 | 0:00.00 | 3:43.17 | 0 | 16741 2 | 3:43.17 | 2:36.68 | 16742 | 28509 3 | 6:20.10 | 2:37.02 | 28510 | 40286 4 | 8:57.12 | 2:51.68 | 40287 | 53179 5 | 11:49.05 | 2:23.65 | 53180 | 63969 6 | 14:12.70 | 2:53.57 | 63970 | 77001 7 | 17:06.52 | 3:09.48 | 77002 | 91224 8 | 20:16.25 | 3:56.20 | 91225 | 108944 9 | 24:12.45 | 3:24.65 | 108945 | 124309 10 | 27:37.35 | 3:07.35 | 124310 | 138369 11 | 30:44.70 | 3:40.20 | 138370 | 154889 12 | 34:25.15 | 3:14.02 | 154890 | 169441 13 | 37:39.17 | 2:37.08 | 169442 | 181224 14 | 40:16.25 | 2:29.52 | 181225 | 192451 15 | 42:46.02 | 2:54.33 | 192452 | 205534 16 | 45:40.35 | 3:38.47 | 205535 | 221931
Характеристики диапазона извлечения и сообщения об ошибках
Выбранный диапазон
Имя файла D:\РАЗДАЧИ\Francis Goya-Magic Moments (1999)\Francis Goya - Magic Moments.wav
Пиковый уровень 96.7 % Скорость извлечения 2.8 X Качество диапазона 99.9 % CRC теста 94EE00EA CRC копии 94EE00EA Копирование... OK
Ошибок не произошло
AccurateRip: сводка
Трек 1 : извлечено точно (доверие 1) [3597BE51] (AR v2)Трек 2 : извлечено точно (доверие 1) [388362C4] (AR v2)Трек 3 : извлечено точно (доверие 1) [4FCEB0EA] (AR v2)Трек 4 : извлечено точно (доверие 1) [180602C8] (AR v2)Трек 5 : извлечено точно (доверие 1) [9F155C57] (AR v2)Трек 6 : извлечено точно (доверие 1) [95A3A606] (AR v2)Трек 7 : извлечено точно (доверие 1) [2C8062DF] (AR v2)Трек 8 : извлечено точно (доверие 1) [54228F2B] (AR v2)Трек 9 : извлечено точно (доверие 1) [F04A490C] (AR v2)Трек 10 : извлечено точно (доверие 1) [77CA6399] (AR v2)Трек 11 : извлечено точно (доверие 1) [F7CDC948] (AR v2)Трек 12 : извлечено точно (доверие 1) [71D2944D] (AR v2)Трек 13 : извлечено точно (доверие 1) [4942DFC1] (AR v2)Трек 14 : извлечено точно (доверие 1) [06DA2D8D] (AR v2)Трек 15 : извлечено точно (доверие 1) [7F675B9A] (AR v2)Трек 16 : извлечено точно (доверие 1) [AFE881F3] (AR v2)
Все треки извлечены точно
Конец отчёта
==== Контрольная сумма отчёта C13F6941784B2435ECD60D58D5AF70A631B03F4495B5330459703E1189EC7B9B ====

RelizMAN

Post 17-Jul-2019 12:55

[Quote]

Estas Tonne - Дискография- -Жанр: World music, Meditative, Acoustic guitar
Носитель: WEB https://estastonne.com/sound-journeys/
Год издания: 2002-2019
Аудиокодек: FLAC (*.flac)
Тип рипа: tracks
Источник: собственная покупка
-Albums

2002 - Estas Tonne & Michael Shulman - Black and White World

Продолжительность: 28:50
Треклист:
01 - Estas Tonne & Michael Shulman - Cuban Dance (2002)
02 - Estas Tonne & Michael Shulman - Gypsy Eyes (original)
03 - Estas Tonne & Michael Shulman - Walk In Paris (2002)
04 - Estas Tonne & Michael Shulman - Brazilian Vacation
05 - Estas Tonne & Michael Shulman - Tragic New York
06 - Estas Tonne & Michael Shulman - Cuban Dance REDUX

Лог проверки качества

AUDIOCHECKER v2.0 beta (build 457) - by Dester - [email protected]
~~~~~~~~~~~~~~~~~~~~~~~~~~~~~~~~~~
-=== DO NOT EDIT THIS FILE! ===-
Path: ...\2002 - Estas Tonne & Michael Shulman - Black and White World
1 -=- 01 - Estas Tonne & Michael Shulman - Cuban Dance (2002).flac -=- MPEG (95%)
2 -=- 02 - Estas Tonne & Michael Shulman - Gypsy Eyes (original).flac -=- MPEG (95%)
3 -=- 03 - Estas Tonne & Michael Shulman - Walk In Paris (2002).flac -=- MPEG (95%)
4 -=- 04 - Estas Tonne & Michael Shulman - Brazilian Vacation.flac -=- MPEG (95%)
5 -=- 05 - Estas Tonne & Michael Shulman - Tragic New York.flac -=- MPEG (95%)
6 -=- 06 - Estas Tonne & Michael Shulman - Cuban Dance REDUX.flac -=- MPEG (95%)
Summary 5,00% CDDA
41706212

2007 - Estas Tonne - 13 Songs of Truth

Продолжительность: 51:37
Треклист:
01 - Estas Tonne - Romani Song
02 - Estas Tonne - The Way of the Gypsy
03 - Estas Tonne - David's Entry
04 - Estas Tonne - David's Song
05 - Estas Tonne - Walk In Paris
06 - Estas Tonne - El Salvaje
07 - Estas Tonne - The Song of the Golden Dragon
08 - Estas Tonne - Rossiya
09 - Estas Tonne - La Latina
10 - Estas Tonne - Wisteling Truth
11 - Estas Tonne - The Way of the Gypsy Romantic
12 - Estas Tonne - Cosmic Fairytale
13 - Estas Tonne - Cuban Rhapsody

Лог проверки качества

AUDIOCHECKER v2.0 beta (build 457) - by Dester - [email protected]
~~~~~~~~~~~~~~~~~~~~~~~~~~~~~~~~~~
-=== DO NOT EDIT THIS FILE! ===-
Path: ...\2007 - Estas Tonne - 13 Songs of Truth
01 -=- 01 - Estas Tonne - Romani Song.flac -=- MPEG (95%)
02 -=- 02 - Estas Tonne - The Way of the Gypsy.flac -=- MPEG (95%)
03 -=- 03 - Estas Tonne - David's Entry.flac -=- CDDA (85%)
04 -=- 04 - Estas Tonne - David's Song.flac -=- MPEG (95%)
05 -=- 05 - Estas Tonne - Walk In Paris.flac -=- CDDA (62%)
06 -=- 06 - Estas Tonne - El Salvaje.flac -=- CDDA (43%)
07 -=- 07 - Estas Tonne - The Song of the Golden Dragon.flac -=- MPEG (95%)
08 -=- 08 - Estas Tonne - Rossiya.flac -=- MPEG (95%)
09 -=- 09 - Estas Tonne - La Latina.flac -=- MPEG (95%)
10 -=- 10 - Estas Tonne - Wisteling Truth.flac -=- CDDA (92%)
11 -=- 11 - Estas Tonne - The Way of the Gypsy Romantic.flac -=- MPEG (95%)
12 -=- 12 - Estas Tonne - Cosmic Fairytale.flac -=- CDDA (100%)
13 -=- 13 - Estas Tonne - Cuban Rhapsody.flac -=- CDDA (86%)
Summary 38,69% CDDA
124106292

2008 - Estas Tonne - Dragon of Delight

Продолжительность: 39:35
Треклист:
01 - Estas Tonne - Cuban Dance Intro
02 - Estas Tonne - Cuban Dance (Arr.Estas Tonne')
03 - Estas Tonne - All Gypsies Swing
04 - Estas Tonne - Bohemian Skies
05 - Estas Tonne - The March Of Angels
06 - Estas Tonne - Just 4 Fun
07 - Estas Tonne - David's Song
08 - Estas Tonne - Russian Nostalgia
09 - Estas Tonne - Rebirth
10 - Estas Tonne - Dragon's Story
11 - Estas Tonne - Cuban Dance For Alvaren

Лог проверки качества

AUDIOCHECKER v2.0 beta (build 457) - by Dester - [email protected]
~~~~~~~~~~~~~~~~~~~~~~~~~~~~~~~~~~
-=== DO NOT EDIT THIS FILE! ===-
Path: ...\2008 - Estas Tonne - Dragon of Delight
01 -=- 01 - Estas Tonne - Cuban Dance Intro.flac -=- CDDA (100%)
02 -=- 02 - Estas Tonne - Cuban Dance (Arr.Estas Tonne').flac -=- CDDA (99%)
03 -=- 03 - Estas Tonne - All Gypsies Swing.flac -=- CDDA (100%)
04 -=- 04 - Estas Tonne - Bohemian Skies.flac -=- CDDA (99%)
05 -=- 05 - Estas Tonne - The March Of Angels.flac -=- CDDA (100%)
06 -=- 06 - Estas Tonne - Just 4 Fun.flac -=- CDDA (100%)
07 -=- 07 - Estas Tonne - David's Song.flac -=- CDDA (100%)
08 -=- 08 - Estas Tonne - Russian Nostalgia.flac -=- CDDA (100%)
09 -=- 09 - Estas Tonne - Rebirth.flac -=- CDDA (100%)
10 -=- 10 - Estas Tonne - Dragon's Story.flac -=- CDDA (100%)
11 -=- 11 - Estas Tonne - Cuban Dance For Alvaren.flac -=- CDDA (100%)
Summary 99,82% CDDA
267201364

2009 - Estas Tonne - Bohemian Skies

Продолжительность: 46:33
Треклист:
01 - Estas Tonne - All Roads Lead to Rome - Jerusalem
02 - Estas Tonne - The Song of the Golden Dragon
03 - Estas Tonne - Bohemian Skies
04 - Estas Tonne - David's Entry
05 - Estas Tonne - The Winds that Bring You Home
06 - Estas Tonne - Cuban Rhapsody 1917
07 - Estas Tonne - Como Un Cristal (feat. Hanna Jahanforooz)
08 - Estas Tonne - Nayae (feat. Hanna Jahanforooz)
09 - Estas Tonne - Who Am I (feat. Pete R Moore & Storia

Лог проверки качества

RelizMAN

Post 13-Jul-2019 20:15

[Quote]

Estas Tonne - Cappadosia Dust (Single)
Жанр: Meditative, Instrumental, Guitar
Носитель: WEB https://estastonne.com/release/cappadocia-dust/
Год издания: 2019
Номер по каталогу: 32
Аудиокодек: FLAC (*.flac)
Тип рипа: tracks
Продолжительность: 00:08:30
Источник: собственная покупка
Наличие сканов в содержимом раздачи: нет
Треклист:
Estas Tonne - Cappadocia Dust

Лог проверки качества

AUDIOCHECKER v2.0 beta (build 457) - by Dester - [email protected]~~~~~~~~~~~~~~~~~~~~~~~~~~~~~~~~~~-=== DO NOT EDIT THIS FILE! ===-
Path: ...\Estas Tonne - 2019 - Cappadosia Dust
1 -=- Estas Tonne - Cappadocia Dust.flac -=- CDDA (99%)
76657012

RelizMAN

Post 20-Jun-2019 08:40

[Quote]

Francis Goya / Goya by Candlelight
Жанр: Easy Listening, Acoustic Guitar
Носитель: WEB
Страна-производитель диска (релиза): The Netherlands
Год издания: 1979 (2017)
Издатель (лейбл): CNR Music
Номер по каталогу: 8714221081664
Страна исполнителя (группы): Belgium
Аудиокодек: FLAC (*.flac)
Тип рипа: tracks
Продолжительность: 1:09:21
Источник: SMLoadr
Наличие сканов в содержимом раздачи: нет
Треклист:
1. Bright Eyes (4:15)
2. If You Leave Me Now (3:36)
3. Nights in White Satin (3:13)
4. Moon Shadow (2:54)
5. I'm Not in Love (4:37)
6. If (3:30)
7. Just When I Needed You Most (4:07)
8. Lost Without Your Love (3:26)
9. I Started a Joke (3:09)
10. Blue Bayou (3:45)
11. Your Song (4:05)
12. Ballade pour Adeline (2:44)
13. Argentina (3:34)
14. If I Only Had Time (3:00)
15. If I Fell (3:09)
16. This Melody (4:14)
17. The Shadow of Your Smile (2:47)
18. Theme From "Mahogany" (3:08)
19. Let It Be Me (2:54)
20. Bridge Over Troubled Water (3:05)

Динамический диапазон: DR12

foobar2000 1.0.3 / Dynamic Range Meter 1.1.1log date: 2019-06-20 06:07:13
--------------------------------------------------------------------------------Analyzed: Francis Goya / Goya by Candlelight--------------------------------------------------------------------------------
DR Peak RMS Duration Track--------------------------------------------------------------------------------DR12 -3.23 dB -17.38 dB 4:16 01-Bright EyesDR12 -3.48 dB -17.75 dB 3:37 02-If You Leave Me NowDR13 -4.03 dB -19.44 dB 3:13 03-Nights in White SatinDR11 -2.66 dB -16.07 dB 2:54 04-Moon ShadowDR13 -2.98 dB -18.96 dB 4:37 05-I'm Not in LoveDR11 -4.04 dB -17.30 dB 3:30 06-IfDR11 -3.44 dB -17.11 dB 4:07 07-Just When I Needed You MostDR12 -4.24 dB -19.68 dB 3:27 08-Lost Without Your LoveDR10 -4.30 dB -17.44 dB 3:10 09-I Started a JokeDR12 -4.05 dB -18.99 dB 3:45 10-Blue BayouDR11 -2.33 dB -16.90 dB 4:05 11-Your SongDR11 -2.85 dB -16.08 dB 2:45 12-Ballade pour AdelineDR10 -3.28 dB -15.11 dB 3:35 13-ArgentinaDR11 -3.14 dB -17.07 dB 3:01 14-If I Only Had TimeDR12 -4.04 dB -18.58 dB 3:09 15-If I FellDR12 -4.90 dB -19.35 dB 4:15 16-This MelodyDR12 -4.20 dB -18.99 dB 2:48 17-The Shadow of Your SmileDR12 -4.66 dB -18.26 dB 3:08 18-Theme From "Mahogany"DR13 -3.66 dB -18.58 dB 2:54 19-Let It Be MeDR11 -4.38 dB -18.83 dB 3:05 20-Bridge Over Troubled Water--------------------------------------------------------------------------------
Number of tracks: 20Official DR value: DR12
Samplerate: 44100 HzChannels: 2Bits per sample: 16Bitrate: 787 kbpsCodec: FLAC================================================================================

Лог проверки качества

AUDIOCHECKER v2.0 beta (build 457) - by Dester - [email protected]~~~~~~~~~~~~~~~~~~~~~~~~~~~~~~~~~~-=== DO NOT EDIT THIS FILE! ===-
Path: ...\Francis Goya - [1979] Goya by Candlelight
01 -=- 01 - Bright Eyes.flac -=- CDDA (100%)02 -=- 02 - If You Leave Me Now.flac -=- CDDA (100%)03 -=- 03 - Nights in White Satin.flac -=- CDDA (100%)04 -=- 04 - Moon Shadow.flac -=- CDDA (100%)05 -=- 05 - I'm Not in Love.flac -=- CDDA (100%)06 -=- 06 - If.flac -=- CDDA (99%)07 -=- 07 - Just When I Needed You Most.flac -=- CDDA (100%)08 -=- 08 - Lost Without Your Love.flac -=- CDDA (100%)09 -=- 09 - I Started a Joke.flac -=- CDDA (100%)10 -=- 10 - Blue Bayou.flac -=- CDDA (100%)11 -=- 11 - Your Song.flac -=- CDDA (99%)12 -=- 12 - Ballade pour Adeline.flac -=- CDDA (100%)13 -=- 13 - Argentina.flac -=- CDDA (100%)14 -=- 14 - If I Only Had Time.flac -=- CDDA (100%)15 -=- 15 - If I Fell.flac -=- CDDA (100%)16 -=- 16 - This Melody.flac -=- CDDA (100%)17 -=- 17 - The Shadow of Your Smile.flac -=- CDDA (100%)18 -=- 18 - Theme From ''Mahogany''.flac -=- CDDA (100%)19 -=- 19 - Let It Be Me.flac -=- CDDA (100%)20 -=- 20 - Bridge Over Troubled Water.flac -=- CDDA (100%)
Summary 99.90% CDDA
228903220

Скриншот спектра частот


CUETools

На КД не издавался. И соответсвенно сверить не с чем. Нет пикових уровней и сумм по которым найти другие копии. Ну и как такая вебка лучше, все кто не навидит существование CUETools? Вдвое сомнительно.
Хорошее качество. Кажется прямо с ленты, без мастеринга.
Почти все от CNR Music с хорошим уровнем и качественно.

RelizMAN

Post 19-Jun-2019 09:55

[Quote]

Alex Bollard & London Starlight Orchestra / España!
Жанр: Latin, Instrumental, Guitar
Носитель: WEB
Год издания: 1992
Издатель (лейбл): Piros Comercial Digital
Номер по каталогу: 888608402903
Страна исполнителя (группы): The Netherlands
Аудиокодек: FLAC (*.flac)
Тип рипа: tracks
Продолжительность: 56:08
Источник: SMLoadr
Наличие сканов в содержимом раздачи: нет
Треклист:
1. El Gato Montés (3:15)
2. Malagueña (3:51)
3. Amor de Mis Amores (3:50)
4. Concierto de Aranjuez (3:56)
5. España Cañi (3:20)
6. Quiero (2:58)
7. Recuerdos de Alhambra (3:08)
8. Amor Amor Amor (3:42)
9. Jove Dolores (3:37)
10. Ai No Digas (2:46)
11. Granada (3:24)
12. Nostalgia (2:59)
13. Barcelona (5:30)
14. St. Agnes and the Burning Train (3:23)
15. La Felicidad (2:42)
16. Spanish Nights (3:43)

Динамический диапазон: DR13

foobar2000 1.0.3 / Dynamic Range Meter 1.1.1log date: 2019-06-19 08:25:18
--------------------------------------------------------------------------------Analyzed: Alex Bollard / España!--------------------------------------------------------------------------------
DR Peak RMS Duration Track--------------------------------------------------------------------------------DR14 -0.02 dB -16.18 dB 3:15 01-El Gato MontésDR13 -0.05 dB -17.15 dB 3:51 02-MalagueñaDR14 -0.11 dB -16.61 dB 3:50 03-Amor de Mis AmoresDR10 -0.27 dB -12.86 dB 3:57 04-Concierto de AranjuezDR15 -0.06 dB -17.60 dB 3:20 05-España CañiDR14 -0.10 dB -16.03 dB 2:58 06-QuieroDR13 -0.63 dB -16.56 dB 3:08 07-Recuerdos de AlhambraDR12 -0.29 dB -15.66 dB 3:43 08-Amor Amor AmorDR12 -0.19 dB -16.69 dB 3:37 09-Jove DoloresDR14 -0.11 dB -16.00 dB 2:46 10-Ai No DigasDR12 -0.07 dB -16.85 dB 3:24 11-GranadaDR9 -2.37 dB -13.54 dB 2:59 12-NostalgiaDR12 -0.27 dB -17.17 dB 5:31 13-BarcelonaDR13 -0.18 dB -16.82 dB 3:23 14-St. Agnes and the Burning TrainDR15 -0.12 dB -16.52 dB 2:42 15-La FelicidadDR10 -1.67 dB -14.17 dB 3:44 16-Spanish Nights--------------------------------------------------------------------------------
Number of tracks: 16Official DR value: DR13
Samplerate: 44100 HzChannels: 2Bits per sample: 16Bitrate: 797 kbpsCodec: FLAC================================================================================

Лог проверки качества

AUDIOCHECKER v2.0 beta (build 457) - by Dester - [email protected]~~~~~~~~~~~~~~~~~~~~~~~~~~~~~~~~~~-=== DO NOT EDIT THIS FILE! ===-
Path: ...\Alex Bollard - [1992] Espana!
01 -=- 01 - El Gato Montes.flac -=- CDDA (100%)02 -=- 02 - Malaguena.flac -=- CDDA (100%)03 -=- 03 - Amor de Mis Amores.flac -=- CDDA (100%)04 -=- 04 - Concierto de Aranjuez.flac -=- CDDA (43%)05 -=- 05 - Espana Cani.flac -=- CDDA (99%)06 -=- 06 - Quiero.flac -=- CDDA (100%)07 -=- 07 - Recuerdos de Alhambra.flac -=- CDDA (92%)08 -=- 08 - Amor Amor Amor.flac -=- CDDA (100%)09 -=- 09 - Jove Dolores.flac -=- CDDA (100%)10 -=- 10 - Ai No Digas.flac -=- CDDA (100%)11 -=- 11 - Granada.flac -=- CDDA (100%)12 -=- 12 - Nostalgia.flac -=- CDDA (100%)13 -=- 13 - Barcelona.flac -=- MPEG (80%)14 -=- 14 - St. Agnes and the Burning Train.flac -=- CDDA (49%)15 -=- 15 - La Felicidad.flac -=- CDDA (100%)16 -=- 16 - Spanish Nights.flac -=- CDDA (100%)
Summary 87.69% CDDA
192001124

Скриншот спектра частот


Produced by Alex Bollard and Ed Starink
Приглушеный, мелодичный звук, для северного уха.
Извините, не разбираюсь в испанской музыке. Пожалуйста подправте или перенесите.

RelizMAN

Post 17-Jun-2019 10:45

[Quote]

Miguel Flores Capullo de Jerez - Flor y Canela (2007)
Жанр: Flamenco
Носитель: CD https://www.discogs.com/Miguel-Flores-Capullo-De-Jerez-Flor-Y-Canela/release/7829360
Страна-производитель диска (релиза): Spain
Год издания: 2007
Издатель (лейбл): Flamenco en el foro
Номер по каталогу: FFCD17
Аудиокодек: FLAC (*.flac)
Тип рипа: tracks+.cue
Продолжительность: 35 минут
Источник: собственный рип
Наличие сканов в содержимом раздачи: нет
Треклист:
01 Son de lunares
02 Perdón
03 Flor de canela
04 A mis niñas
05 La culpa
06 Por tu puerta
07 Las Flores
08 Pan y queso
09 Entre amígos

Отчёт EAC

Exact Audio Copy V1.3 from 2. September 2016
EAC extraction logfile from 16. June 2019, 22:49
Miguel Flores / Capullo de Jerez / Flor y Canela
Used drive : MATSHITADVD+-RW UJ8D1 Adapter: 1 ID: 0
Read mode : SecureUtilize accurate stream : YesDefeat audio cache : YesMake use of C2 pointers : No
Read offset correction : 6Overread into Lead-In and Lead-Out : NoFill up missing offset samples with silence : YesDelete leading and trailing silent blocks : NoNull samples used in CRC calculations : YesUsed interface : Native Win32 interface for Win NT & 2000Gap handling : Appended to previous track
Used output format : User Defined EncoderSelected bitrate : 768 kBit/sQuality : HighAdd ID3 tag : NoCommand line compressor : C:\Program Files (x86)\Exact Audio Copy\FLAC\FLAC.EXEAdditional command line options : -6 -V -T "ARTIST=%artist%" -T "TITLE=%title%" -T "ALBUM=%albumtitle%" -T "DATE=%year%" -T "TRACKNUMBER=%tracknr%" -T "GENRE=%genre%" -T "COMMENT=%comment%" -T "BAND=%albuminterpret%" -T "ALBUMARTIST=%albuminterpret%" -T "COMPOSER=%composer%" %haslyrics%--tag-from-file=LYRICS="%lyricsfile%"%haslyrics% -T "DISCNUMBER=%cdnumber%" -T "TOTALDISCS=%totalcds%" -T "TOTALTRACKS=%numtracks%" %hascover%--picture="%coverfile%"%hascover% %source% -o %dest%
TOC of the extracted CD
Track | Start | Length | Start sector | End sector --------------------------------------------------------- 1 | 0:00.00 | 2:58.11 | 0 | 13360 2 | 2:58.11 | 3:09.48 | 13361 | 27583 3 | 6:07.59 | 4:00.08 | 27584 | 45591 4 | 10:07.67 | 5:17.62 | 45592 | 69428 5 | 15:25.54 | 3:18.21 | 69429 | 84299 6 | 18:44.00 | 2:36.27 | 84300 | 96026 7 | 21:20.27 | 3:08.72 | 96027 | 110198 8 | 24:29.24 | 3:36.02 | 110199 | 126400 9 | 28:05.26 | 7:01.67 | 126401 | 158042
Track 1
Filename C:\!EAC\01 Son de lunares.wav
Pre-gap length 0:00:02.00
Peak level 100.0 % Extraction speed 1.2 X Track quality 100.0 % Copy CRC 804CB34E Track not present in AccurateRip database Copy OK
Track 2
Filename C:\!EAC\02 Perdón.wav
Pre-gap length 0:00:02.00
Peak level 100.0 % Extraction speed 1.4 X Track quality 100.0 % Copy CRC 9A404310 Track not present in AccurateRip database Copy OK
Track 3
Filename C:\!EAC\03 Flor de canela.wav
Pre-gap length 0:00:02.00
Peak level 100.0 % Extraction speed 1.5 X Track quality 100.0 % Copy CRC 01F16DF4 Track not present in AccurateRip database Copy OK
Track 4
Filename C:\!EAC\04 A mis niñas.wav
Pre-gap length 0:00:02.00
Peak level 100.0 % Extraction speed 1.7 X Track quality 100.0 % Copy CRC EC871875 Track not present in AccurateRip database Copy OK
Track 5
Filename C:\!EAC\05 La culpa.wav
Pre-gap length 0:00:02.00
Peak level 100.0 % Extraction speed 1.7 X Track quality 100.0 % Copy CRC 496805B1 Track not present in AccurateRip database Copy OK
Track 6
Filename C:\!EAC\06 Por tu puerta.wav
Pre-gap length 0:00:02.00
Peak level 100.0 % Extraction speed 1.4 X Track quality 99.9 % Copy CRC 15DE13F4 Track not present in AccurateRip database Copy OK
Track 7
Filename C:\!EAC\07 Las Flores.wav
Pre-gap length 0:00:02.00
Peak level 100.0 % Extraction speed 1.8 X Track quality 100.0 % Copy CRC 080CE518 Track not present in AccurateRip database Copy OK
Track 8
Filename C:\!EAC\08 Pan y queso.wav
Pre-gap length 0:00:02.00
Peak level 100.0 % Extraction speed 1.9 X Track quality 100.0 % Copy CRC 049008F5 Track not present in AccurateRip database Copy OK
Track 9
Filename C:\!EAC\09 Entre amígos.wav
Pre-gap length 0:00:02.00
Peak level 100.0 % Extraction speed 2.2 X Track quality 100.0 % Copy CRC 98787AB5 Track not present in AccurateRip database Copy OK
None of the tracks are present in the AccurateRip database
No errors occurred
End of status report
---- CUETools DB Plugin V2.1.6
[CTDB TOCID: Iy7_YOxi64bWNPx5yoDgGYKJ3.Q-] foundSubmit result: Iy7_YOxi64bWNPx5yoDgGYKJ3.Q- has been confirmedTrack | CTDB Status 1 | (3/3) Accurately ripped 2 | (3/3) Accurately ripped 3 | (3/3) Accurately ripped 4 | (3/3) Accurately ripped 5 | (3/3) Accurately ripped 6 | (3/3) Accurately ripped 7 | (3/3) Accurately ripped 8 | (3/3) Accurately ripped 9 | (3/3) Accurately ripped

RelizMAN

Post 16-Jun-2019 18:35

[Quote]

Miguel Flores Capullo de Jerez - En Directo
Жанр: Flamenco
Носитель: CD https://www.discogs.com/Capullo-De-Jerez-En-Directo-Madrid-C%C3%B3rdoba-Barcelona.../release/7887335
Страна-производитель диска (релиза): Spain
Год издания: 2003
Издатель (лейбл): Flamenco en el foro
Номер по каталогу: FFCD11
Аудиокодек: FLAC (*.flac)
Тип рипа: tracks
Продолжительность: 64 минут
Источник: собственный рип
Наличие сканов в содержимом раздачи: нет
Треклист:
01 Soleá por Bulerías (Barcelona)
02 Tangos (Cordoba)
03 Martinete (Madrid)
04 Beluerías (Barcelona)
05 Tanquillos (Barcelona)
06 Fandangos (Madrid)
07 Tangos (Barcelona)
08 Rumba (Barcelona)
09 Bulerías fin de fiesta (Barcelona)
10 Bulerías fin de fiesta (Madrid)

Отчёт EAC

Exact Audio Copy V1.3 from 2. September 2016
EAC extraction logfile from 16. June 2019, 15:54
Miguel Flores / Capullo de Jerez / En Directo
Used drive : MATSHITADVD+-RW UJ8D1 Adapter: 1 ID: 0
Read mode : SecureUtilize accurate stream : YesDefeat audio cache : YesMake use of C2 pointers : No
Read offset correction : 6Overread into Lead-In and Lead-Out : NoFill up missing offset samples with silence : YesDelete leading and trailing silent blocks : NoNull samples used in CRC calculations : YesUsed interface : Native Win32 interface for Win NT & 2000Gap handling : Appended to previous track
Used output format : User Defined EncoderSelected bitrate : 768 kBit/sQuality : HighAdd ID3 tag : NoCommand line compressor : C:\Program Files (x86)\Exact Audio Copy\FLAC\FLAC.EXEAdditional command line options : -6 -V -T "ARTIST=%artist%" -T "TITLE=%title%" -T "ALBUM=%albumtitle%" -T "DATE=%year%" -T "TRACKNUMBER=%tracknr%" -T "GENRE=%genre%" -T "COMMENT=%comment%" -T "BAND=%albuminterpret%" -T "ALBUMARTIST=%albuminterpret%" -T "COMPOSER=%composer%" %haslyrics%--tag-from-file=LYRICS="%lyricsfile%"%haslyrics% -T "DISCNUMBER=%cdnumber%" -T "TOTALDISCS=%totalcds%" -T "TOTALTRACKS=%numtracks%" %hascover%--picture="%coverfile%"%hascover% %source% -o %dest%
TOC of the extracted CD
Track | Start | Length | Start sector | End sector --------------------------------------------------------- 1 | 0:00.00 | 8:26.55 | 0 | 38004 2 | 8:26.55 | 5:26.48 | 38005 | 62502 3 | 13:53.28 | 1:52.65 | 62503 | 70967 4 | 15:46.18 | 16:12.66 | 70968 | 143933 5 | 31:59.09 | 4:40.25 | 143934 | 164958 6 | 36:39.34 | 5:35.09 | 164959 | 190092 7 | 42:14.43 | 5:50.49 | 190093 | 216391 8 | 48:05.17 | 3:36.09 | 216392 | 232600 9 | 51:41.26 | 4:34.40 | 232601 | 253190 10 | 56:15.66 | 8:42.72 | 253191 | 292412
Track 1
Filename C:\!EAC\01 Soleá por Bulerías (Barcelona).wav
Pre-gap length 0:00:02.00
Peak level 95.8 % Extraction speed 3.2 X Track quality 100.0 % Copy CRC B4DF9EDC Accurately ripped (confidence 2) [9678A717] (AR v2) Copy OK
Track 2
Filename C:\!EAC\02 Tangos (Cordoba).wav
Pre-gap length 0:00:03.00
Peak level 92.1 % Extraction speed 3.0 X Track quality 99.9 % Copy CRC B1BF4207 Accurately ripped (confidence 1) [7A51CF05] (AR v2) Copy OK
Track 3
Filename C:\!EAC\03 Martinete (Madrid).wav
Pre-gap length 0:00:03.00
Peak level 89.1 % Extraction speed 2.4 X Track quality 99.9 % Copy CRC 9AA95245 Accurately ripped (confidence 2) [ED973D01] (AR v2) Copy OK
Track 4
Filename C:\!EAC\04 Beluerías (Barcelona).wav
Pre-gap length 0:00:03.00
Peak level 96.0 % Extraction speed 3.9 X Track quality 99.9 % Copy CRC 0D9CB9FF Accurately ripped (confidence 2) [13D0408C] (AR v2) Copy OK
Track 5
Filename C:\!EAC\05 Tanquillos (Barcelona).wav
Pre-gap length 0:00:03.00
Peak level 91.7 % Extraction speed 4.7 X Track quality 100.0 % Copy CRC 95A52D9E Accurately ripped (confidence 2) [79657FD2] (AR v2) Copy OK
Track 6
Filename C:\!EAC\06 Fandangos (Madrid).wav
Pre-gap length 0:00:03.00
Peak level 93.1 % Extraction speed 5.0 X Track quality 100.0 % Copy CRC 1A8C1772 Accurately ripped (confidence 2) [8B9AA795] (AR v2) Copy OK
Track 7
Filename C:\!EAC\07 Tangos (Barcelona).wav
Pre-gap length 0:00:03.00
Peak level 94.3 % Extraction speed 5.3 X Track quality 100.0 % Copy CRC 53D26428 Accurately ripped (confidence 2) [760038ED] (AR v2) Copy OK
Track 8
Filename C:\!EAC\08 Rumba (Barcelona).wav
Pre-gap length 0:00:03.00
Peak level 95.5 % Extraction speed 4.2 X Track quality 99.9 % Copy CRC 1790BF53 Accurately ripped (confidence 2) [A600DBDD] (AR v2) Copy OK
Track 9
Filename C:\!EAC\09 Bulerías fin de fiesta (Barcelona).wav
Pre-gap length 0:00:03.00
Peak level 95.6 % Extraction speed 4.5 X Track quality 99.9 % Copy CRC 6FA0A445 Accurately ripped (confidence 2) [CF6367A7] (AR v2) Copy OK
Track 10
Filename C:\!EAC\10 Bulerías fin de fiesta (Madrid).wav
Pre-gap length 0:00:03.00
Peak level 94.3 % Extraction speed 5.9 X Track quality 100.0 % Copy CRC 5C29AE0E Accurately ripped (confidence 2) [5EAE806F] (AR v2) Copy OK
All tracks accurately ripped
No errors occurred
End of status report
---- CUETools DB Plugin V2.1.6
[CTDB TOCID: siHQqw_85zyTSFmHEKP5rx39F4c-] foundSubmit result: already submittedTrack | CTDB Status 1 | (2/2) Accurately ripped 2 | (1/2) Accurately ripped 3 | (2/2) Accurately ripped 4 | (2/2) Accurately ripped 5 | (2/2) Accurately ripped 6 | (2/2) Accurately ripped 7 | (2/2) Accurately ripped 8 | (2/2) Accurately ripped 9 | (2/2) Accurately ripped 10 | (2/2) Accurately ripped

RelizMAN

Post 16-Jun-2019 11:00

[Quote]

Магия гитары - The Essential Guitar Collection (3CD) Жанр: Instrumental
Носитель: CD
Страна-производитель диска (релиза): Россия
Год издания: 2009
Аудиокодек: FLAC (*.flac)
Тип рипа: image+.cue
Источник: собственный рип
Наличие сканов в содержимом раздачи: нет
Продолжительность: 72 мин. + 74 мин. + 73 мин.
Об издании: Коллекционный сборник из 3-х дисков Издательского Дома "Ридерз Дайджест".

Disc 1

Romance And Fantasy - Романтические фантазии
01. Manuel Barrueco - Forbidden Games (Jeux Interdits) [1:33]
02. Manuel Barrueco - Asturias [6:17]
03. Manuel Barrueco - Cataluna [3:35]
04. Jorge Morel - Sevilla [4:44]
05. Jorge Morel - Spanish Dance No.5 [4:43]
06. Jorge Morel - Capricio Arabe [4:14]
07. Manuel Barrueco - Recuerdos De La Alhambra [3:15]
08. Manuel Barrueco - Spanish Dance No.4 [5:32]
09. Manuel Barrueco - Etude No.5 [2:15]
10. Guy Lukowski And Philippe Lemaigre - Carnaval De Venise [6:06]
11. Guy Lukowski And Philippe Lemaigre - La Romanella [2:56]
12. Guy Lukowski And Philippe Lemaigre - Fantaisie [4:05]
13. Guy Lukowski - Ramatuelle [1:40]
14. Guy Lukowski - Feste Lariane [3:27]
15. Guy Lukowski - Tango [2:20]
16. Cacho Tirao - Tango For Guitar: Adios Nonino [4:38]
17. Manuel Barrueco - Minuet, Op. 22 [3:36]
18. Manuel Barrueco - Minuets Nos.1 & 2 From 'Deuxieme Concert' [2:51]
19. Manuel Barrueco - Choros No.1 [5:16]

Лог создания рипа

Exact Audio Copy V1.3 from 2. September 2016
Отчёт EAC об извлечении, выполненном 15. июня 2019, 23:05
Various Artists / The Essential Guitar Collection - Romance and Fantasy
Дисковод: PIONEER BD-RW BDR-206D Adapter: 1 ID: 0
Режим чтения : ДостоверностьИспользование точного потока : ДаОтключение кэша аудио : ДаИспользование указателей C2 : Нет
Коррекция смещения при чтении : 667Способность читать области Lead-in и Lead-out : ДаЗаполнение пропущенных сэмплов тишиной : ДаУдаление блоков с тишиной в начале и конце : НетПри вычислениях CRC использовались нулевые сэмплы : ДаИнтерфейс : Встроенный Win32-интерфейс для Win NT/2000
Выходной формат : Пользовательский кодировщикВыбранный битрейт : 1024 kBit/sКачество : ВысокийДобавление ID3-тега : ДаУтилита сжатия : C:\Program Files (x86)\Exact Audio Copy\Flac\flac.exeДополнительные параметры : -V -8 -T "Date=%year%" -T "Genre=%genre%" %source%
TOC извлечённого CD
Трек | Старт | Длительность | Начальный сектор | Конечный сектор --------------------------------------------------------------------- 1 | 0:00.00 | 1:33.11 | 0 | 6985 2 | 1:33.11 | 6:16.54 | 6986 | 35239 3 | 7:49.65 | 3:34.50 | 35240 | 51339 4 | 11:24.40 | 4:44.01 | 51340 | 72640 5 | 16:08.41 | 4:42.39 | 72641 | 93829 6 | 20:51.05 | 4:13.67 | 93830 | 112871 7 | 25:04.72 | 3:14.42 | 112872 | 127463 8 | 28:19.39 | 5:32.28 | 127464 | 152391 9 | 33:51.67 | 2:14.54 | 152392 | 162495 10 | 36:06.46 | 6:05.57 | 162496 | 189927 11 | 42:12.28 | 2:55.58 | 189928 | 203110 12 | 45:08.11 | 4:04.59 | 203111 | 221469 13 | 49:12.70 | 1:39.50 | 221470 | 228944 14 | 50:52.45 | 3:27.32 | 228945 | 244501 15 | 54:20.02 | 2:19.51 | 244502 | 254977 16 | 56:39.53 | 4:38.09 | 254978 | 275836 17 | 61:17.62 | 2:35.38 | 275837 | 287499 18 | 63:53.25 | 2:50.58 | 287500 | 300307 19 | 66:44.08 | 5:16.20 | 300308 | 324027
Характеристики диапазона извлечения и сообщения об ошибках
Выбранный диапазон
Имя файла F:\Магия гитары - (2009)\Disc 1 - Romance And Fantasy\Various Artists - The Essential Guitar Collection - Romance and Fantasy.wav
Пиковый уровень 98.3 % Скорость извлечения 2.1 X Качество диапазона 100.0 % CRC теста 5A252A23 CRC копии 5A252A23 Копирование... OK
Ошибок не произошло
Конец отчёта
==== Контрольная сумма отчёта 66E0E9217570ADA048B89612962326501A47DD0B77BB41428019DB5A5C4A3650 ====

Содержание индексной карты (.CUE)

REM GENRE InstrumentalREM DATE 2009REM DISCID FC10E013REM COMMENT "ExactAudioCopy v1.3"PERFORMER "Various Artists"TITLE "The Essential Guitar Collection - Romance and Fantasy"REM COMPOSER ""FILE "Various Artists - The Essential Guitar Collection - Romance and Fantasy.flac" WAVE  TRACK 01 AUDIO    TITLE "Forbidden Games (Jeux Interdits)"    PERFORMER "Manuel Barrueco"    REM COMPOSER ""    INDEX 01 00:00:00  TRACK 02 AUDIO    TITLE "Asturias"    PERFORMER "Manuel Barrueco"    REM COMPOSER ""    INDEX 00 01:30:22    INDEX 01 01:33:11  TRACK 03 AUDIO    TITLE "Cataluna"    PERFORMER "Manuel Barrueco"    REM COMPOSER ""    INDEX 00 07:47:06    INDEX 01 07:49:65  TRACK 04 AUDIO    TITLE "Sevilla"    PERFORMER "Jorge Morel"    REM COMPOSER ""    INDEX 00 11:21:55    INDEX 01 11:24:40  TRACK 05 AUDIO    TITLE "Spanish Dance No.5"    PERFORMER "Jorge Morel"    REM COMPOSER ""    INDEX 00 16:05:55    INDEX 01 16:08:41  TRACK 06 AUDIO    TITLE "Capricio Arabe"    PERFORMER "Jorge Morel"    REM COMPOSER ""    INDEX 00 20:48:15    INDEX 01 20:51:05  TRACK 07 AUDIO    TITLE "Recuerdos De La Alhambra"    PERFORMER "Manuel Barrueco"    REM COMPOSER ""    INDEX 00 25:02:10    INDEX 01 25:04:72  TRACK 08 AUDIO    TITLE "Spanish Dance No.4"    PERFORMER "Manuel Barrueco"    REM COMPOSER ""    INDEX 00 28:16:49    INDEX 01 28:19:39  TRACK 09 AUDIO    TITLE "Etude No.5"    PERFORMER "Manuel Barrueco"    REM COMPOSER ""    INDEX 00 33:49:06    INDEX 01 33:51:67  TRACK 10 AUDIO    TITLE "Carnaval De Venise"    PERFORMER "Guy Lukowski And Philippe Lemaigre"    REM COMPOSER ""    INDEX 00 36:03:60    INDEX 01 36:06:46  TRACK 11 AUDIO    TITLE "La Romanella"    PERFORMER "Guy Lukowski And Philippe Lemaigre"    REM COMPOSER ""    INDEX 00 42:09:42    INDEX 01 42:12:28  TRACK 12 AUDIO    TITLE "Fantaisie"    PERFORMER "Guy Lukowski And Philippe Lemaigre"    REM COMPOSER ""    INDEX 00 45:05:24    INDEX 01 45:08:11  TRACK 13 AUDIO    TITLE "Ramatuelle"    PERFORMER "Guy Lukowski"    REM COMPOSER ""    INDEX 00 49:10:10    INDEX 01 49:12:70  TRACK 14 AUDIO    TITLE "Feste Lariane"    PERFORMER "Guy Lukowski"    REM COMPOSER ""    INDEX 00 50:49:53    INDEX 01 50:52:45  TRACK 15 AUDIO    TITLE "Tango"    PERFORMER "Guy Lukowski"    REM COMPOSER ""    INDEX 00 54:17:17    INDEX 01 54:20:02  TRACK 16 AUDIO    TITLE "Tango For Guitar: Adios Nonino"    PERFORMER "Cacho Tirao"    REM COMPOSER ""    INDEX 00 56:36:55    INDEX 01 56:39:53  TRACK 17 AUDIO    TITLE "Minuet, Op. 22"    PERFORMER "Manuel Barrueco"    REM COMPOSER ""    INDEX 00 61:15:01    INDEX 01 61:17:62  TRACK 18 AUDIO    TITLE "Minuets Nos.1 & 2 From 'Deuxieme Concert'"    PERFORMER "Manuel Barrueco"    REM COMPOSER ""    INDEX 00 63:50:46    INDEX 01 63:53:25  TRACK 19 AUDIO    TITLE "Choros No.1"    PERFORMER "Manuel Barrueco"    REM COMPOSER ""    INDEX 00 66:41:22    INDEX 01 66:44:08

Disc 2

Straight From The Heart - Из глубины души
01. Canut Reyes - Sueno De Amor [4:31]
02. Canut Reyes - Gipsy Waltz [4:31]
03. Canut Reyes - Gitana Morena [3:48]
04. Canut Reyes - Soleares Tartarinos [4:26]
05. Paco Pena - Alegrias [3:53]
06. Paco Pena - Bulerias [2:25]
07. Paco Pena - Farrucas [3:05]
08. Paco Pena With Tito Losada - Las Feriales (Sevillanas) [3:25]
09. Paco Pena - Riomar (Fandangos De Huelva) [4:07]
10. Charlie Byrd - Gitanerias [2:38]
11. Charlie Byrd - Gitanerias [3:05]
12. Charlie Byrd And Laurindo Almeida - Cochichando [2:40]
13. Jose Feliciano - Malaguena [4:52]
14. Jose Feliciano - Pegao [2:40]
15. Los Reyes - Dilo Con El Corazon (Dit Avec Le Coeur) [3:59]
16. Los Reyes - Nostalgie Gitane [5:48]
17. Jose Reyes And Los Reyes - Entre Dos Aguas (Entre Duex Eaux) [4:03]
18. Jose Reyes And Los Reyes - Gipsy Maure [3:59]
19. Jose Reyes And Los Reyes - Les Gitans De La Roquetta [3:57]
20. Jose Reyes And Los Reyes - Le Galop Sauvage [2:13]

Лог создания рипа

Exact Audio Copy V1.3 from 2. September 2016
Отчёт EAC об извлечении, выполненном 16. июня 2019, 7:10
Various Artists / The Essential Guitar Collection - Straight From The Heart
Дисковод: PIONEER BD-RW BDR-206D Adapter: 1 ID: 0
Режим чтения : ДостоверностьИспользование точного потока : ДаОтключение кэша аудио : ДаИспользование указателей C2 : Нет
Коррекция смещения при чтении : 667Способность читать области Lead-in и Lead-out : ДаЗаполнение пропущенных сэмплов тишиной : ДаУдаление блоков с тишиной в начале и конце : НетПри вычислениях CRC использовались нулевые сэмплы : ДаИнтерфейс : Встроенный Win32-интерфейс для Win NT/2000
Выходной формат : Пользовательский кодировщикВыбранный битрейт : 1024 kBit/sКачество : ВысокийДобавление ID3-тега : ДаУтилита сжатия : C:\Program Files (x86)\Exact Audio Copy\Flac\flac.exeДополнительные параметры : -V -8 -T "Date=%year%" -T "Genre=%genre%" %source%
TOC извлечённого CD
Трек | Старт | Длительность | Начальный сектор | Конечный сектор --------------------------------------------------------------------- 1 | 0:00.00 | 4:31.34 | 0 | 20358 2 | 4:31.34 | 4:31.21 | 20359 | 40704 3 | 9:02.55 | 3:47.70 | 40705 | 57799 4 | 12:50.50 | 4:25.68 | 57800 | 77742 5 | 17:16.43 | 3:52.69 | 77743 | 95211 6 | 21:09.37 | 2:24.66 | 95212 | 106077 7 | 23:34.28 | 3:04.44 | 106078 | 119921 8 | 26:38.72 | 3:24.45 | 119922 | 135266 9 | 30:03.42 | 4:06.45 | 135267 | 153761 10 | 34:10.12 | 2:38.34 | 153762 | 165645 11 | 36:48.46 | 3:04.46 | 165646 | 179491 12 | 39:53.17 | 2:39.59 | 179492 | 191475 13 | 42:33.01 | 4:52.02 | 191476 | 213377 14 | 47:25.03 | 2:40.24 | 213378 | 225401 15 | 50:05.27 | 3:59.23 | 225402 | 243349 16 | 54:04.50 | 5:48.17 | 243350 | 269466 17 | 59:52.67 | 4:02.51 | 269467 | 287667 18 | 63:55.43 | 3:58.48 | 287668 | 305565 19 | 67:54.16 | 3:56.61 | 305566 | 323326 20 | 71:51.02 | 2:12.54 | 323327 | 333280
Характеристики диапазона извлечения и сообщения об ошибках
Выбранный диапазон
Имя файла F:\Магия гитары - (2009)\Disc 2 - Straight From The Heart\Various Artists - The Essential Guitar Collection - Straight From The Heart.wav
Пиковый уровень 98.8 % Скорость извлечения 2.0 X Качество диапазона 100.0 % CRC теста 3955750F CRC копии 3955750F Копирование... OK
Ошибок не произошло
Конец отчёта
==== Контрольная сумма отчёта 575F125D6844A68180266344CA41CFFC39F401C3E06BE398E8CC3F706C4DDF39 ====

Содержание индексной карты (.CUE)

REM GENRE InstrumentalREM DATE 2009REM DISCID 0A115B14REM COMMENT "ExactAudioCopy v1.3"PERFORMER "Various Artists"TITLE "The Essential Guitar Collection - Straight From The Heart"REM COMPOSER ""FILE "Various Artists - The Essential Guitar Collection - Straight From The Heart.flac" WAVE  TRACK 01 AUDIO    TITLE "Sueno De Amor"    PERFORMER "Canut Reyes"    REM COMPOSER ""    INDEX 01 00:00:00  TRACK 02 AUDIO    TITLE "Gipsy Waltz"    PERFORMER "Canut Reyes"    REM COMPOSER ""    INDEX 00 04:28:52    INDEX 01 04:31:34  TRACK 03 AUDIO    TITLE "Gitana Morena"    PERFORMER "Canut Reyes"    REM COMPOSER ""    INDEX 00 08:59:73    INDEX 01 09:02:55  TRACK 04 AUDIO    TITLE "Soleares Tartarinos"    PERFORMER "Canut Reyes"    REM COMPOSER ""    INDEX 00 12:47:67    INDEX 01 12:50:50  TRACK 05 AUDIO    TITLE "Alegrias"    PERFORMER "Paco Pena"    REM COMPOSER ""    INDEX 00 17:13:62    INDEX 01 17:16:43  TRACK 06 AUDIO    TITLE "Bulerias"    PERFORMER "Paco Pena"    REM COMPOSER ""    INDEX 00 21:06:55    INDEX 01 21:09:37  TRACK 07 AUDIO    TITLE "Farrucas"    PERFORMER "Paco Pena"    REM COMPOSER ""    INDEX 00 23:31:47    INDEX 01 23:34:28  TRACK 08 AUDIO    TITLE "Las Feriales (Sevillanas)"    PERFORMER "Paco Pena With Tito Losada"    REM COMPOSER ""    INDEX 00 26:36:16    INDEX 01 26:38:72  TRACK 09 AUDIO    TITLE "Riomar (Fandangos De Huelva)"    PERFORMER "Paco Pena"    REM COMPOSER ""    INDEX 00 30:00:58    INDEX 01 30:03:42  TRACK 10 AUDIO    TITLE "Gitanerias"    PERFORMER "Charlie Byrd"    REM COMPOSER ""    INDEX 00 34:07:28    INDEX 01 34:10:12  TRACK 11 AUDIO    TITLE "Vou Vivendo"    PERFORMER "Charlie Byrd"    REM COMPOSER ""    INDEX 00 36:45:65    INDEX 01 36:48:46  TRACK 12 AUDIO    TITLE "Cochichando"    PERFORMER "Charlie Byrd And Laurindo Almeida"    REM COMPOSER ""    INDEX 00 39:50:36    INDEX 01 39:53:17  TRACK 13 AUDIO    TITLE "Malaguena"    PERFORMER "Jose Feliciano"    REM COMPOSER ""    INDEX 00 42:30:18    INDEX 01 42:33:01  TRACK 14 AUDIO    TITLE "Pegao"    PERFORMER "Jose Feliciano"    REM COMPOSER ""    INDEX 00 47:22:20    INDEX 01 47:25:03  TRACK 15 AUDIO    TITLE "Dilo Con El Corazon (Dit Avec Le Coeur)"    PERFORMER "Los Reyes"    REM COMPOSER ""    INDEX 00 50:02:46    INDEX 01 50:05:27  TRACK 16 AUDIO    TITLE "Nostalgie Gitane"    PERFORMER "Los Reyes"    REM COMPOSER ""    INDEX 00 54:01:68    INDEX 01 54:04:50  TRACK 17 AUDIO    TITLE "Entre Dos Aguas (Entre Duex Eaux)"    PERFORMER "Jose Reyes And Los Reyes"    REM COMPOSER ""    INDEX 00 59:50:10    INDEX 01 59:52:67  TRACK 18 AUDIO    TITLE "Gipsy Maure"    PERFORMER "Jose Reyes And Los Reyes"    REM COMPOSER ""    INDEX 00 63:52:61    INDEX 01 63:55:43  TRACK 19 AUDIO    TITLE "Les Gitans De La Roquetta"    PERFORMER "Jose Reyes And Los Reyes"    REM COMPOSER ""    INDEX 00 67:51:35    INDEX 01 67:54:16  TRACK 20 AUDIO    TITLE "Le Galop Sauvage"    PERFORMER "Jose Reyes And Los Reyes"    REM COMPOSER ""    INDEX 00 71:48:17    INDEX 01 71:51:02

Disc 3

The Most Beautiful Guitar Concertos - Восхитительные концерты
01. Carlos Bonnell With The National Philharmonic Orchestra - Concierto De Aranjuez - 1st Movement: Allegro Con Spirito [6:16]
02. Carlos Bonnell With The National Philharmonic Orchestra - Concierto De Aranjuez - 2nd Movement: Adagio [10:36]
03. Carlos Bonnell With The National Philharmonic Orchestra - Concierto De Aranjuez - 3rd Movement: Allegro Gentile [5:13]
04. Alfonso Moreno With The State Of Mexico Symphony Orchestra - Fantasia Para Un Gentilhombre - I Villano Y Ricercare: Adagietto [2:29]
05. Alfonso Moreno With The State Of Mexico Symphony Orchestra - Fantasia Para Un Gentilhombre - Ricercare: Andante Moderato [2:28]
06. Alfonso Moreno With The State Of Mexico Symphony Orchestra - Fantasia Para Un Gentilhombre - Espanoleta Y Fanfare [8:58]
07. Alfonso Moreno With The State Of Mexico Symphony Orchestra - Fantasia Para Un Gentilhombre - Danza De Las Hachas [2:02]
08. Alfonso Moreno With The State Of Mexico Symphony Orchestra - Fantasia Para Un Gentilhombre - Canario: Allegro Ma Non Troppo [5:02]
09. Alfonso Moreno With The State Of Mexico Symphony Orchestra - Concierto Del Sur - 1st Movement: Allegretto [12:56]
10. Alfonso Moreno With The State Of Mexico Symphony Orchestra - Concierto Del Sur - 2nd Movement: Andante [7:04]
11. Alfonso Moreno With The State Of Mexico Symphony Orchestra - Concierto Del Sur - 3rd Movement: Allegro Moderato E Festivo [5:14]
12. Manuel Barrueco With The National Philharmonic Orchestra - Concierto For Guitar And Orchestra In D - Largo [4:40]

Лог создания рипа

Exact Audio Copy V1.3 from 2. September 2016
Отчёт EAC об извлечении, выполненном 16. июня 2019, 8:28
Various Artists / The Essential Guitar Collection - The Most Beautiful Guitar Concertos
Дисковод: PIONEER BD-RW BDR-206D Adapter: 1 ID: 0
Режим чтения : ДостоверностьИспользование точного потока : ДаОтключение кэша аудио : ДаИспользование указателей C2 : Нет
Коррекция смещения при чтении : 667Способность читать области Lead-in и Lead-out : ДаЗаполнение пропущенных сэмплов тишиной : ДаУдаление блоков с тишиной в начале и конце : НетПри вычислениях CRC использовались нулевые сэмплы : ДаИнтерфейс : Встроенный Win32-интерфейс для Win NT/2000
Выходной формат : Пользовательский кодировщикВыбранный битрейт : 1024 kBit/sКачество : ВысокийДобавление ID3-тега : ДаУтилита сжатия : C:\Program Files (x86)\Exact Audio Copy\Flac\flac.exeДополнительные параметры : -V -8 -T "Date=%year%" -T "Genre=%genre%" %source%
TOC извлечённого CD
Трек | Старт | Длительность | Начальный сектор | Конечный сектор --------------------------------------------------------------------- 1 | 0:00.00 | 6:16.09 | 0 | 28208 2 | 6:16.09 | 10:35.64 | 28209 | 75897 3 | 16:51.73 | 5:13.37 | 75898 | 99409 4 | 22:05.35 | 2:29.05 | 99410 | 110589 5 | 24:34.40 | 2:28.07 | 110590 | 121696 6 | 27:02.47 | 8:57.39 | 121697 | 162010 7 | 36:00.11 | 2:01.41 | 162011 | 171126 8 | 38:01.52 | 5:01.54 | 171127 | 193755 9 | 43:03.31 | 12:56.32 | 193756 | 251987 10 | 55:59.63 | 7:03.59 | 251988 | 283771 11 | 63:03.47 | 5:14.07 | 283772 | 307328 12 | 68:17.54 | 4:39.41 | 307329 | 328294
Характеристики диапазона извлечения и сообщения об ошибках
Выбранный диапазон
Имя файла F:\Магия гитары - (2009)\Disc 3 - The Most Beautiful Guitar Concertos\Various Artists - The Essential Guitar Collection - The Most Beautiful Guitar Concertos.wav
Пиковый уровень 99.0 % Скорость извлечения 1.9 X Качество диапазона 100.0 % CRC теста FCF510CE CRC копии FCF510CE Копирование... OK
Ошибок не произошло
Конец отчёта
==== Контрольная сумма отчёта ABBB2C59D86CAF459481B25FDE634864CB0B1271489123AEF87F8F7656876A25 ====

Содержание индексной карты (.CUE)

REM GENRE InstrumentalREM DATE 2009REM DISCID AD11190CREM COMMENT "ExactAudioCopy v1.3"PERFORMER "Various Artists"TITLE "The Essential Guitar Collection - The Most Beautiful Guitar Concertos"REM COMPOSER ""FILE "Various Artists - The Essential Guitar Collection - The Most Beautiful Guitar Concertos.flac" WAVE  TRACK 01 AUDIO    TITLE "Concierto De Aranjuez - 1st Movement: Allegro Con Spirito"    PERFORMER "Carlos Bonnell With The National Philharmonic Orchestra"    REM COMPOSER ""    INDEX 01 00:00:00  TRACK 02 AUDIO    TITLE "Concierto De Aranjuez - 2nd Movement: Adagio"    PERFORMER "Carlos Bonnell With The National Philharmonic Orchestra"    REM COMPOSER ""    INDEX 00 06:12:31    INDEX 01 06:16:09  TRACK 03 AUDIO    TITLE "Concierto De Aranjuez - 3rd Movement: Allegro Gentile"    PERFORMER "Carlos Bonnell With The National Philharmonic Orchestra"    REM COMPOSER ""    INDEX 00 16:49:49    INDEX 01 16:51:73  TRACK 04 AUDIO    TITLE "Fantasia Para Un Gentilhombre - I Villano Y Ricercare: Adagietto"    PERFORMER "Alfonso Moreno With The State Of Mexico Symphony Orchestra"    REM COMPOSER ""    INDEX 00 22:01:49    INDEX 01 22:05:35  TRACK 05 AUDIO    TITLE "Fantasia Para Un Gentilhombre - Ricercare: Andante Moderato"    PERFORMER "Alfonso Moreno With The State Of Mexico Symphony Orchestra"    REM COMPOSER ""    INDEX 00 24:32:37    INDEX 01 24:34:40  TRACK 06 AUDIO    TITLE "Fantasia Para Un Gentilhombre - Espanoleta Y Fanfare"    PERFORMER "Alfonso Moreno With The State Of Mexico Symphony Orchestra"    REM COMPOSER ""    INDEX 00 26:59:37    INDEX 01 27:02:47  TRACK 07 AUDIO    TITLE "Fantasia Para Un Gentilhombre - Danza De Las Hachas"    PERFORMER "Alfonso Moreno With The State Of Mexico Symphony Orchestra"    REM COMPOSER ""    INDEX 00 35:59:20    INDEX 01 36:00:11  TRACK 08 AUDIO    TITLE "Fantasia Para Un Gentilhombre - Canario: Allegro Ma Non Troppo"    PERFORMER "Alfonso Moreno With The State Of Mexico Symphony Orchestra"    REM COMPOSER ""    INDEX 00 37:59:53    INDEX 01 38:01:52  TRACK 09 AUDIO    TITLE "Concierto Del Sur - 1st Movement: Allegretto"    PERFORMER "Alfonso Moreno With The State Of Mexico Symphony Orchestra"    REM COMPOSER ""    INDEX 00 42:59:03    INDEX 01 43:03:31  TRACK 10 AUDIO    TITLE "Concierto Del Sur - 2nd Movement: Andante"    PERFORMER "Alfonso Moreno With The State Of Mexico Symphony Orchestra"    REM COMPOSER ""    INDEX 00 55:57:72    INDEX 01 55:59:63  TRACK 11 AUDIO    TITLE "Concierto Del Sur - 3rd Movement: Allegro Moderato E Festivo"    PERFORMER "Alfonso Moreno With The State Of Mexico Symphony Orchestra"    REM COMPOSER ""    INDEX 00 63:01:49    INDEX 01 63:03:47  TRACK 12 AUDIO    TITLE "Concierto For Guitar And Orchestra In D - Largo"    PERFORMER "Manuel Barrueco With The National Philharmonic Orchestra"    REM COMPOSER ""    INDEX 00 68:14:29    INDEX 01 68:17:54

RelizMAN

Post 10-Jun-2019 23:05

[Quote]

Miguel Flores Capullo de Jerez - Capullo de Jerez (2004)
Жанр: Flamenco
Носитель: CD https://www.amazon.fr/Capullo-Jerez-anglais-Miguel-Flores/dp/B000V6JMLG/ref=sr_1_...music&sr=1-3
Страна-производитель диска (релиза): Spain
Год издания: 2004
Издатель (лейбл): Flamenco en el foro
Номер по каталогу: FFCD01
Аудиокодек: FLAC (*.flac)
Тип рипа: tracks
Продолжительность: 37 минут
Источник: собственный рип
Наличие сканов в содержимом раздачи: нет
Треклист:
01 Decidme lo que pasa aquí (Soleá por Bulerías)
02 Sólo por tus besos (Tanguillos)
03 Dicen que el mundo es así (Bulerías)
04 Sentado en mi viejo petate (Martinete)
05 ¿Por qué sufrimos tanto? (Tangos)
06 Un hombre le dice a un sabio (Fandangos)
07 ¿Dónde miraban tus ojos? (Bulerías)
08 La vida ezs une rutina (Rumba)
09 Vente conmigo, vente (Bulerías al aire libre)

Отчёт EAC

Exact Audio Copy V1.3 from 2. September 2016
EAC extraction logfile from 10. June 2019, 14:41
Miguel Flores / Capullo de Jerez / Capullo de Jerez
Used drive : MATSHITADVD+-RW UJ8D1 Adapter: 1 ID: 0
Read mode : SecureUtilize accurate stream : YesDefeat audio cache : NoMake use of C2 pointers : No
Read offset correction : 6Overread into Lead-In and Lead-Out : NoFill up missing offset samples with silence : YesDelete leading and trailing silent blocks : NoNull samples used in CRC calculations : YesUsed interface : Native Win32 interface for Win NT & 2000Gap handling : Not detected, thus appended to previous track
Used output format : User Defined EncoderSelected bitrate : 768 kBit/sQuality : HighAdd ID3 tag : NoCommand line compressor : C:\Program Files (x86)\Exact Audio Copy\FLAC\FLAC.EXEAdditional command line options : -6 -V -T "ARTIST=%artist%" -T "TITLE=%title%" -T "ALBUM=%albumtitle%" -T "DATE=%year%" -T "TRACKNUMBER=%tracknr%" -T "GENRE=%genre%" -T "COMMENT=%comment%" -T "BAND=%albuminterpret%" -T "ALBUMARTIST=%albuminterpret%" -T "COMPOSER=%composer%" %haslyrics%--tag-from-file=LYRICS="%lyricsfile%"%haslyrics% -T "DISCNUMBER=%cdnumber%" -T "TOTALDISCS=%totalcds%" -T "TOTALTRACKS=%numtracks%" %hascover%--picture="%coverfile%"%hascover% %source% -o %dest%
TOC of the extracted CD
Track | Start | Length | Start sector | End sector --------------------------------------------------------- 1 | 0:00.00 | 3:56.50 | 0 | 17749 2 | 3:56.50 | 3:55.48 | 17750 | 35422 3 | 7:52.23 | 4:09.02 | 35423 | 54099 4 | 12:01.25 | 1:57.68 | 54100 | 62942 5 | 13:59.18 | 5:03.02 | 62943 | 85669 6 | 19:02.20 | 5:40.72 | 85670 | 111241 7 | 24:43.17 | 5:12.24 | 111242 | 134665 8 | 29:55.41 | 3:13.21 | 134666 | 149161 9 | 33:08.62 | 4:12.01 | 149162 | 168062
Track 1
Filename C:\!EAC\01 Decidme lo que pasa aquí (Soleá por Bulerías).wav
Peak level 98.3 % Extraction speed 4.0 X Track quality 100.0 % Copy CRC 1CB1B450 Cannot be verified as accurate (confidence 2) [899FF03F], AccurateRip returned [DDF3B8FF] (AR v2) Copy OK
Track 2
Filename C:\!EAC\02 Sólo por tus besos (Tanguillos).wav
Peak level 87.0 % Extraction speed 5.2 X Track quality 100.0 % Copy CRC 163F75F5 Cannot be verified as accurate (confidence 2) [177D1E1F], AccurateRip returned [5D9CFFA1] (AR v2) Copy OK
Track 3
Filename C:\!EAC\03 Dicen que el mundo es así (Bulerías).wav
Peak level 87.0 % Extraction speed 5.8 X Track quality 100.0 % Copy CRC 3DCFBDA8 Cannot be verified as accurate (confidence 2) [17B1E7B6], AccurateRip returned [D6C732F4] (AR v2) Copy OK
Track 4
Filename C:\!EAC\04 Sentado en mi viejo petate (Martinete).wav
Peak level 81.0 % Extraction speed 6.1 X Track quality 100.0 % Copy CRC CB636B18 Cannot be verified as accurate (confidence 2) [E7D46EDA], AccurateRip returned [9B3BBAEB] (AR v2) Copy OK
Track 5
Filename C:\!EAC\05 ¿Por qué sufrimos tanto (Tangos).wav
Peak level 93.3 % Extraction speed 6.4 X Track quality 100.0 % Copy CRC 093D5DFC Cannot be verified as accurate (confidence 2) [371C4C84], AccurateRip returned [26A23A4A] (AR v2) Copy OK
Track 6
Filename C:\!EAC\06 Un hombre le dice a un sabio (Fandangos).wav
Peak level 91.5 % Extraction speed 6.8 X Track quality 99.9 % Copy CRC 56345D62 Cannot be verified as accurate (confidence 2) [9984A0CB], AccurateRip returned [CBA1EECD] (AR v2) Copy OK
Track 7
Filename C:\!EAC\07 ¿Dónde miraban tus ojos (Bulerías).wav
Peak level 89.1 % Extraction speed 7.1 X Track quality 100.0 % Copy CRC 1C8168B2 Cannot be verified as accurate (confidence 2) [56FFB5BF], AccurateRip returned [E053FD86] (AR v2) Copy OK
Track 8
Filename C:\!EAC\08 La vida ezs une rutina (Rumba).wav
Peak level 89.1 % Extraction speed 7.9 X Track quality 100.0 % Copy CRC F816EAC0 Cannot be verified as accurate (confidence 2) [B57EC16D], AccurateRip returned [AF35A6BE] (AR v2) Copy OK
Track 9
Filename C:\!EAC\09 Vente conmigo, vente (Bulerías al aire libre).wav
Peak level 89.1 % Extraction speed 7.9 X Track quality 99.9 % Copy CRC 05F5F237 Cannot be verified as accurate (confidence 2) [23819524], AccurateRip returned [41332ED9] (AR v2) Copy OK
No tracks could be verified as accurateYou may have a different pressing from the one(s) in the database
No errors occurred
End of status report
---- CUETools DB Plugin V2.1.6
[CTDB TOCID: YXxh7zhlgVjGwU5d.Gvp.Uoynow-] foundSubmit result: YXxh7zhlgVjGwU5d.Gvp.Uoynow- has been confirmedTrack | CTDB Status 1 | (3/3) Accurately ripped 2 | (3/3) Accurately ripped 3 | (3/3) Accurately ripped 4 | (3/3) Accurately ripped 5 | (3/3) Accurately ripped 6 | (3/3) Accurately ripped 7 | (3/3) Accurately ripped 8 | (3/3) Accurately ripped 9 | (3/3) Accurately ripped

RelizMAN

Post 10-Jun-2019 12:15

[Quote]

Miguel Flores Capullo de Jerez - Éste soy yo (2000)
Жанр: Flamenco
Носитель: CD https://www.amazon.es/Este-Soy-Yo-Capullo-Jerez/dp/B01K8NPXF0/ref=sr_1_1?__mk_es_...music&sr=1-1
Страна-производитель диска (релиза): Spain
Год издания: 2000
Издатель (лейбл): Flamenco en el foro
Номер по каталогу: ALFFCD3
Аудиокодек: FLAC (*.flac)
Тип рипа: tracks
Продолжительность: 33 минут
Источник: собственный рип
Наличие сканов в содержимом раздачи: нет
Треклист:
01 Decidme lo que pasa aquí (Soleá por Bulerías)
02 Sólo por tus besos (Tanguillos)
03 Dicen que el mundo es así (Bulerías)
04 Sentao en mi viejo petate (Martinete)
05 ¿Por qué sufrimos tanto (si nos tenemos que morir) (Tangos)
06 Un hombre le dice a un sabio (Fandangos)
07 ¿Dónde miraban tus ojos (Bulerías)
08 La vida es una ruina (apágame la luz) (Rumba).
 

Current time is: 08-Dec 19:03

All times are UTC + 3