Search found 238 matches

Author Message

Vi$itReal

Post 29-Nov-2019 12:45

[Quote]

Taylor Swift - Tmall Double Eleven Gala

Жанр: Country Pop
Продолжительность: 00:12:50
Год выпуска: 2019
Треклист:
Me!
Lover
You Need to Calm Down
Качество: HDTV (FEED)
Разрешение видео/развертка: 1080i
Контейнер: TS
Видео кодек: MPEG2 4:2:2
Аудио кодек: MP2
Видео: MPEG2, 1920x1080 (16:9), 25 fps, 34,1 Mbps
Аудио: MP2, 384, 2 ch, 48 KHz

Отчёт MediaInfo

ОбщееИдентификатор                            : 1 (0x1)Полное имя                               : K:\VIDEO\Video-Clips\Taylor Swift - Me!, Lover, You Need to Calm Down - 2019 Tmall Double Eleven Gala 1080i FEED MPEG2-NGB.tsФормат                                   : MPEG-TSРазмер файла                             : 3,25 ГбайтПродолжительность                        : 12 м. 50 с.Режим общего битрейта                    : ПеременныйОбщий поток                              : 36,2 Мбит/секМаксимальный общий битрейт               : 35,5 Мбит/сек
ВидеоИдентификатор : 4113 (0x1011)Идентификатор меню : 1 (0x1)Формат : MPEG VideoВерсия формата : Version 2Профиль формата : 4:2:[email protected]Настройки формата : BVOPПараметр BVOP формата : ДаПараметр матрицы формата : По умолчаниюПараметр GOP формата : VariableСтруктура изображения : FrameИдентификатор кодека : 2Продолжительность : 12 м. 50 с.Вид битрейта : ПеременныйБитрейт : 34,1 Мбит/секМаксимальный битрейт : 35,8 Мбит/секШирина : 1920 пикселейВысота : 1080 пикселейСоотношение сторон : 16:9Описание активного формата : Full frame 16:9 imageЧастота кадров : 25,000 кадров/секЦветовое пространство : YUVСубдискретизация насыщенности : 4:2:2Битовая глубина : 8 битТип развёртки : ЧересстрочнаяПорядок развёртки : Верхнее поле первоеМетод сжатия : С потерямиБит/(Пиксели*Кадры) : 0.657Временной код первого кадра : 03:49:58:21Оригинал временного кода : Group of pictures headerGOP, открыто/закрыто : ОткрытоРазмер потока : 3,06 Гбайт (94%)
АудиоИдентификатор : 4352 (0x1100)Идентификатор меню : 1 (0x1)Формат : MPEG AudioВерсия формата : Version 1Профиль формата : Layer 2Идентификатор кодека : 4Продолжительность : 12 м. 50 с.Вид битрейта : ПостоянныйБитрейт : 384 Кбит/секКаналы : 2 каналаЧастота : 48,0 КГцЧастота кадров : 41,667 кадра/сек (1152 SPF)Метод сжатия : С потерямиЗадержка видео : 22 мс.Размер потока : 35,3 Мбайт (1%)Язык : English

Скриншоты

Vi$itReal

Post 24-Nov-2019 15:55

[Quote]

Dixie Chicks - DCX MMXVI Live
Жанр: Country, Rock, Folk
Продолжительность: 02:01:15
Год выпуска: 2017
Треклист:
1. The Long Way Around
2. Lubbock or Leave It
3. Truth No. 2
4. Easy Silence
5. Long Time Gone
6. Nothing Compares 2 U
7. Top of the World
8. Goodbye Earl
9. Ace Of Spades
10. Don't Let Me Die in Florida
11. Daddy Lessons
12. White Trash Wedding
13. Travelin' Soldier
14. Bluegrass Instrumental
15. Ready To Run
16. Mississippi
17. Landslide
18. Cowboy Take Me Away
19. Wide Open Spaces
20. Sin Wagon
21. Not Ready to Make Nice
22. Better Way
Качество: BDRip
Разрешение видео/развертка: 720p
Контейнер: MKV
Видео кодек: H.264
Аудио кодек:FLAC, DTS
Видео: AVC, 1280x720 (16:9), 23.976 fps, 4 550 kb/s
Аудио#1: DTS, 48.0 kHz, 6 ch, 1 509 kb/s
Аудио#2: FLAC, 48.0 kHz, 2 ch, 1 745 kb/s

MediaInfo / x264Log / DTS Log

x264Log / DTS Log

DTS Log

****************************************MAS Version Number = 2.60.22
AUDIO INPUT SETTINGS------------------------------------------------------Media Type = Blu-ray Disc (.dtshd)Product Type = DTS-HD Master AudioBit Rate = 1509 kbpsChannel Layout = 5.1 - L, R, C, LFE, Ls, RsBit Width = 24DialNorm = -31 dBFS (No Attenuation)Sample Rate = 48 kHz-3db Rear Attenuation = falseES Phase Shift = falseES Pre-Mixed = falseUsing 96/24 Core = false
INPUT FILES------------------------------------------------------Left = K:\ripmkv\Dixie\00001.m2ts_5eng.L.wavRight = K:\ripmkv\Dixie\00001.m2ts_5eng.R.wavCenter = K:\ripmkv\Dixie\00001.m2ts_5eng.C.wavLow Frequency Effects = K:\ripmkv\Dixie\00001.m2ts_5eng.LFE.wavLeft Surround = K:\ripmkv\Dixie\00001.m2ts_5eng.SL.wavRight Surround = K:\ripmkv\Dixie\00001.m2ts_5eng.SR.wav
BITSTREAM SETTINGS------------------------------------------------------Program Info =Enable Remapping = false
TIME CODE SETTINGS------------------------------------------------------Frame Rate = 23.976Encode Entire File = trueStart Time = 00:00:00:00End Time = 02:01:07:02Use Reference = false
OUTPUT LOCATION------------------------------------------------------Directory = K:\ripmkv\Dixie\Filename = DTSENC.dtshd
DOWNMIX SETTINGS------------------------------------------------------5.x Downmix Not Enabled2.0 Downmix Not Enabled
----------------------------------------------------
MD5: 868881b8e0f7fe520ea9aa1eb010134a
Avg Bitrate CBR core + VBR Lossless ext (kbps): 4291Peak Bitrate CBR core + VBR Lossless ext (kbps): 4611PBR max from 00:00:25:00 to 00:00:29:00PBR max from 00:00:36:00 to 00:00:47:00PBR max from 00:00:48:00 to 00:00:49:00PBR max from 00:00:51:00 to 00:01:09:00PBR max from 00:01:10:00 to 00:01:12:00PBR max from 00:01:15:00 to 00:01:16:00PBR max from 00:01:18:00 to 00:01:19:00PBR max from 00:01:44:00 to 00:01:45:00PBR max from 00:01:46:00 to 00:01:47:00PBR max from 00:01:50:00 to 00:05:31:00PBR max from 00:05:42:00 to 00:05:58:00PBR max from 00:06:00:00 to 00:06:04:00PBR max from 00:06:05:00 to 00:06:21:00PBR max from 00:06:22:00 to 00:06:30:00PBR max from 00:06:32:00 to 00:08:31:00PBR max from 00:08:32:00 to 00:09:38:00PBR max from 00:09:46:00 to 00:09:49:00PBR max from 00:09:50:00 to 00:10:21:00PBR max from 00:10:22:00 to 00:10:29:00PBR max from 00:10:30:00 to 00:12:54:00PBR max from 00:12:56:00 to 00:13:04:00PBR max from 00:13:07:00 to 00:14:06:00PBR max from 00:14:09:00 to 00:14:22:00PBR max from 00:14:25:00 to 00:14:28:00PBR max from 00:15:00:00 to 00:15:01:00PBR max from 00:15:03:00 to 00:15:04:00PBR max from 00:16:23:00 to 00:16:54:00PBR max from 00:16:55:00 to 00:16:57:00PBR max from 00:16:58:00 to 00:17:01:00PBR max from 00:17:02:00 to 00:17:05:00PBR max from 00:17:06:00 to 00:17:16:00PBR max from 00:17:17:00 to 00:17:19:00PBR max from 00:17:20:00 to 00:17:23:00PBR max from 00:17:24:00 to 00:17:26:00PBR max from 00:17:44:00 to 00:17:52:00PBR max from 00:17:53:00 to 00:17:56:00PBR max from 00:17:57:00 to 00:18:14:00PBR max from 00:18:15:00 to 00:18:21:00PBR max from 00:18:22:00 to 00:18:30:00PBR max from 00:18:32:00 to 00:18:39:00PBR max from 00:18:40:00 to 00:18:43:00PBR max from 00:18:44:00 to 00:18:47:00PBR max from 00:18:48:00 to 00:18:50:00PBR max from 00:18:51:00 to 00:18:52:00PBR max from 00:19:06:00 to 00:21:29:00PBR max from 00:21:30:00 to 00:23:33:00PBR max from 00:23:43:00 to 00:23:47:00PBR max from 00:23:55:00 to 00:23:57:00PBR max from 00:25:09:00 to 00:25:10:00PBR max from 00:25:11:00 to 00:25:14:00PBR max from 00:25:15:00 to 00:25:16:00PBR max from 00:25:18:00 to 00:25:36:00PBR max from 00:25:43:00 to 00:25:46:00PBR max from 00:25:53:00 to 00:25:56:00PBR max from 00:25:58:00 to 00:26:01:00PBR max from 00:26:04:00 to 00:26:05:00PBR max from 00:26:11:00 to 00:26:12:00PBR max from 00:26:13:00 to 00:26:16:00PBR max from 00:26:22:00 to 00:26:24:00PBR max from 00:26:26:00 to 00:26:28:00PBR max from 00:26:30:00 to 00:26:40:00PBR max from 00:26:41:00 to 00:26:47:00PBR max from 00:26:49:00 to 00:26:57:00PBR max from 00:26:59:00 to 00:27:00:00PBR max from 00:27:06:00 to 00:27:07:00PBR max from 00:27:12:00 to 00:27:13:00PBR max from 00:27:26:00 to 00:27:29:00PBR max from 00:27:42:00 to 00:27:48:00PBR max from 00:27:53:00 to 00:27:56:00PBR max from 00:27:59:00 to 00:28:24:00PBR max from 00:28:26:00 to 00:28:27:00PBR max from 00:28:36:00 to 00:28:37:00PBR max from 00:28:39:00 to 00:28:40:00PBR max from 00:28:43:00 to 00:28:44:00PBR max from 00:28:47:00 to 00:28:48:00PBR max from 00:28:50:00 to 00:28:52:00PBR max from 00:28:55:00 to 00:29:38:00PBR max from 00:35:04:00 to 00:35:05:00PBR max from 00:35:56:00 to 00:36:21:00PBR max from 00:36:22:00 to 00:36:24:00PBR max from 00:36:29:00 to 00:37:57:00PBR max from 00:37:58:00 to 00:38:01:00PBR max from 00:38:02:00 to 00:38:08:00PBR max from 00:38:09:00 to 00:40:26:00PBR max from 00:42:01:00 to 00:42:02:00PBR max from 00:42:28:00 to 00:42:29:00PBR max from 00:44:01:00 to 00:44:03:00PBR max from 00:44:05:00 to 00:44:14:00PBR max from 00:44:15:00 to 00:44:16:00PBR max from 00:44:19:00 to 00:44:20:00PBR max from 00:44:24:00 to 00:44:27:00PBR max from 00:44:29:00 to 00:44:31:00PBR max from 00:44:39:00 to 00:44:40:00PBR max from 00:44:49:00 to 00:44:50:00PBR max from 00:44:52:00 to 00:44:53:00PBR max from 00:44:54:00 to 00:44:56:00PBR max from 00:44:57:00 to 00:44:58:00PBR max from 00:45:00:00 to 00:45:02:00PBR max from 00:45:24:00 to 00:45:25:00PBR max from 00:45:27:00 to 00:45:28:00PBR max from 00:45:31:00 to 00:45:32:00PBR max from 00:45:41:00 to 00:45:43:00PBR max from 00:46:09:00 to 00:46:10:00PBR max from 00:46:11:00 to 00:46:14:00PBR max from 00:46:15:00 to 00:47:00:00PBR max from 00:47:02:00 to 00:47:09:00PBR max from 00:47:11:00 to 00:47:13:00PBR max from 00:47:14:00 to 00:47:48:00PBR max from 00:47:49:00 to 00:47:50:00PBR max from 00:47:51:00 to 00:47:55:00PBR max from 00:47:56:00 to 00:48:16:00PBR max from 00:48:38:00 to 00:48:39:00PBR max from 00:48:40:00 to 00:48:41:00PBR max from 00:48:46:00 to 00:48:47:00PBR max from 00:48:53:00 to 00:49:46:00PBR max from 00:49:47:00 to 00:49:56:00PBR max from 00:49:57:00 to 00:50:01:00PBR max from 00:50:02:00 to 00:50:09:00PBR max from 00:50:10:00 to 00:50:11:00PBR max from 00:50:20:00 to 00:50:21:00PBR max from 00:50:24:00 to 00:50:25:00PBR max from 00:50:29:00 to 00:50:33:00PBR max from 00:50:44:00 to 00:50:47:00PBR max from 00:50:51:00 to 00:50:54:00PBR max from 00:50:57:00 to 00:50:58:00PBR max from 00:51:07:00 to 00:51:10:00PBR max from 00:51:11:00 to 00:51:12:00PBR max from 00:51:23:00 to 00:51:24:00PBR max from 00:51:40:00 to 00:51:41:00PBR max from 00:51:43:00 to 00:51:45:00PBR max from 00:51:49:00 to 00:51:57:00PBR max from 00:51:58:00 to 00:51:59:00PBR max from 00:52:03:00 to 00:52:04:00PBR max from 00:52:07:00 to 00:52:08:00PBR max from 00:52:26:00 to 00:52:27:00PBR max from 00:53:51:00 to 00:53:52:00PBR max from 00:53:59:00 to 00:54:00:00PBR max from 00:54:01:00 to 00:54:02:00PBR max from 00:55:15:00 to 00:55:16:00PBR max from 00:55:56:00 to 00:55:57:00PBR max from 00:56:08:00 to 00:56:09:00PBR max from 00:56:10:00 to 00:56:11:00PBR max from 00:56:18:00 to 00:56:19:00PBR max from 00:56:20:00 to 00:56:22:00PBR max from 00:56:25:00 to 00:56:26:00PBR max from 00:56:29:00 to 00:56:30:00PBR max from 00:56:31:00 to 00:56:33:00PBR max from 00:56:39:00 to 00:56:40:00PBR max from 00:56:50:00 to 00:56:52:00PBR max from 00:56:56:00 to 00:56:57:00PBR max from 00:57:04:00 to 00:57:08:00PBR max from 00:57:09:00 to 00:57:10:00PBR max from 00:57:59:00 to 00:58:07:00PBR max from 00:58:08:00 to 00:58:09:00PBR max from 00:58:12:00 to 00:58:13:00PBR max from 00:58:26:00 to 00:58:27:00PBR max from 00:58:28:00 to 00:58:29:00PBR max from 00:58:37:00 to 00:58:38:00PBR max from 00:58:41:00 to 00:58:42:00PBR max from 00:58:51:00 to 00:58:52:00PBR max from 00:58:54:00 to 00:58:57:00PBR max from 00:59:04:00 to 00:59:05:00PBR max from 00:59:35:00 to 00:59:36:00PBR max from 00:59:37:00 to 00:59:44:00PBR max from 00:59:45:00 to 00:59:47:00PBR max from 00:59:49:00 to 00:59:57:00PBR max from 00:59:58:00 to 01:00:01:00PBR max from 01:00:02:00 to 01:00:03:00PBR max from 01:00:26:00 to 01:00:28:00PBR max from 01:00:29:00 to 01:00:30:00PBR max from 01:00:34:00 to 01:00:38:00PBR max from 01:00:40:00 to 01:00:41:00PBR max from 01:00:44:00 to 01:00:45:00PBR max from 01:00:54:00 to 01:00:56:00PBR max from 01:01:02:00 to 01:01:03:00PBR max from 01:01:05:00 to 01:01:06:00PBR max from 01:01:11:00 to 01:01:12:00PBR max from 01:01:23:00 to 01:01:24:00PBR max from 01:01:31:00 to 01:01:33:00PBR max from 01:01:41:00 to 01:01:42:00PBR max from 01:01:43:00 to 01:01:45:00PBR max from 01:01:46:00 to 01:01:47:00PBR max from 01:01:48:00 to 01:01:53:00PBR max from 01:01:57:00 to 01:02:08:00PBR max from 01:02:11:00 to 01:02:13:00PBR max from 01:02:16:00 to 01:02:17:00PBR max from 01:02:20:00 to 01:02:38:00PBR max from 01:02:39:00 to 01:02:44:00PBR max from 01:02:45:00 to 01:02:46:00PBR max from 01:02:48:00 to 01:02:50:00PBR max from 01:02:56:00 to 01:03:06:00PBR max from 01:08:12:00 to 01:08:13:00PBR max from 01:11:40:00 to 01:12:05:00PBR max from 01:12:16:00 to 01:12:17:00PBR max from 01:12:23:00 to 01:12:25:00PBR max from 01:12:26:00 to 01:12:31:00PBR max from 01:12:32:00 to 01:12:49:00PBR max from 01:12:50:00 to 01:12:57:00PBR max from 01:12:59:00 to 01:13:05:00PBR max from 01:13:08:00 to 01:13:33:00PBR max from 01:13:35:00 to 01:13:51:00PBR max from 01:13:52:00 to 01:13:58:00PBR max from 01:13:59:00 to 01:15:36:00PBR max from 01:16:09:00 to 01:17:37:00PBR max from 01:17:38:00 to 01:19:02:00PBR max from 01:19:05:00 to 01:19:09:00PBR max from 01:19:10:00 to 01:20:07:00PBR max from 01:20:08:00 to 01:21:58:00PBR max from 01:22:07:00 to 01:22:09:00PBR max from 01:22:11:00 to 01:22:12:00PBR max from 01:22:40:00 to 01:22:41:00PBR max from 01:22:47:00 to 01:22:48:00PBR max from 01:24:07:00 to 01:24:08:00PBR max from 01:24:32:00 to 01:24:40:00PBR max from 01:24:42:00 to 01:24:43:00PBR max from 01:24:45:00 to 01:24:47:00PBR max from 01:24:49:00 to 01:24:55:00PBR max from 01:24:56:00 to 01:24:57:00PBR max from 01:24:59:00 to 01:25:09:00PBR max from 01:25:10:00 to 01:25:17:00PBR max from 01:25:18:00 to 01:25:19:00PBR max from 01:25:20:00 to 01:25:35:00PBR max from 01:25:36:00 to 01:25:37:00PBR max from 01:25:38:00 to 01:25:49:00PBR max from 01:25:52:00 to 01:25:54:00PBR max from 01:25:55:00 to 01:25:57:00PBR max from 01:26:03:00 to 01:26:04:00PBR max from 01:26:08:00 to 01:26:16:00PBR max from 01:26:17:00 to 01:26:18:00PBR max from 01:26:19:00 to 01:26:20:00PBR max from 01:26:24:00 to 01:26:29:00PBR max from 01:26:30:00 to 01:26:31:00PBR max from 01:26:32:00 to 01:26:34:00PBR max from 01:26:36:00 to 01:26:41:00PBR max from 01:26:42:00 to 01:26:43:00PBR max from 01:26:44:00 to 01:26:51:00PBR max from 01:28:15:00 to 01:28:17:00PBR max from 01:28:18:00 to 01:28:19:00PBR max from 01:28:20:00 to 01:28:24:00PBR max from 01:28:26:00 to 01:28:29:00PBR max from 01:28:30:00 to 01:28:31:00PBR max from 01:28:32:00 to 01:28:34:00PBR max from 01:28:49:00 to 01:28:50:00PBR max from 01:28:51:00 to 01:28:52:00PBR max from 01:28:54:00 to 01:28:55:00PBR max from 01:28:57:00 to 01:28:58:00PBR max from 01:28:59:00 to 01:29:05:00PBR max from 01:29:06:00 to 01:29:11:00PBR max from 01:29:12:00 to 01:30:13:00PBR max from 01:30:24:00 to 01:32:04:00PBR max from 01:32:06:00 to 01:32:09:00PBR max from 01:32:42:00 to 01:32:43:00PBR max from 01:32:44:00 to 01:32:45:00PBR max from 01:32:46:00 to 01:32:47:00PBR max from 01:33:01:00 to 01:33:02:00PBR max from 01:33:07:00 to 01:33:08:00PBR max from 01:33:09:00 to 01:35:00:00PBR max from 01:35:05:00 to 01:35:06:00PBR max from 01:35:07:00 to 01:35:08:00PBR max from 01:35:09:00 to 01:35:53:00PBR max from 01:35:54:00 to 01:35:57:00PBR max from 01:35:58:00 to 01:36:29:00PBR max from 01:36:31:00 to 01:36:32:00PBR max from 01:37:02:00 to 01:37:34:00PBR max from 01:37:35:00 to 01:38:48:00PBR max from 01:38:49:00 to 01:39:17:00PBR max from 01:39:18:00 to 01:40:22:00PBR max from 01:42:40:00 to 01:42:45:00PBR max from 01:42:46:00 to 01:42:47:00PBR max from 01:42:53:00 to 01:42:54:00PBR max from 01:42:58:00 to 01:42:59:00PBR max from 01:43:04:00 to 01:43:05:00PBR max from 01:43:29:00 to 01:43:34:00PBR max from 01:43:37:00 to 01:43:41:00PBR max from 01:43:43:00 to 01:43:44:00PBR max from 01:43:46:00 to 01:43:48:00PBR max from 01:43:49:00 to 01:44:02:00PBR max from 01:44:03:00 to 01:44:10:00PBR max from 01:44:11:00 to 01:44:13:00PBR max from 01:44:14:00 to 01:44:16:00PBR max from 01:44:20:00 to 01:44:21:00PBR max from 01:44:26:00 to 01:44:27:00PBR max from 01:44:28:00 to 01:44:30:00PBR max from 01:44:31:00 to 01:44:33:00PBR max from 01:44:35:00 to 01:44:36:00PBR max from 01:44:37:00 to 01:44:39:00PBR max from 01:44:42:00 to 01:44:44:00PBR max from 01:44:45:00 to 01:44:46:00PBR max from 01:44:49:00 to 01:44:52:00PBR max from 01:44:53:00 to 01:44:54:00PBR max from 01:44:55:00 to 01:44:56:00PBR max from 01:44:58:00 to 01:44:59:00PBR max from 01:45:11:00 to 01:45:12:00PBR max from 01:45:43:00 to 01:45:45:00PBR max from 01:45:48:00 to 01:45:50:00PBR max from 01:45:51:00 to 01:45:54:00PBR max from 01:45:55:00 to 01:46:09:00PBR max from 01:46:11:00 to 01:46:13:00PBR max from 01:46:15:00 to 01:46:16:00PBR max from 01:46:17:00 to 01:46:18:00PBR max from 01:46:19:00 to 01:46:20:00PBR max from 01:46:21:00 to 01:46:22:00PBR max from 01:46:23:00 to 01:46:24:00PBR max from 01:46:25:00 to 01:46:26:00PBR max from 01:46:27:00 to 01:46:28:00PBR max from 01:46:31:00 to 01:46:32:00PBR max from 01:46:35:00 to 01:46:37:00PBR max from 01:46:39:00 to 01:46:40:00PBR max from 01:46:47:00 to 01:46:48:00PBR max from 01:46:49:00 to 01:46:50:00PBR max from 01:46:51:00 to 01:46:52:00PBR max from 01:46:54:00 to 01:46:56:00PBR max from 01:46:59:00 to 01:47:00:00PBR max from 01:47:01:00 to 01:47:02:00PBR max from 01:47:03:00 to 01:47:04:00PBR max from 01:47:05:00 to 01:47:08:00PBR max from 01:47:10:00 to 01:47:20:00PBR max from 01:47:21:00 to 01:47:22:00PBR max from 01:47:23:00 to 01:47:24:00PBR max from 01:47:29:00 to 01:47:34:00PBR max from 01:47:35:00 to 01:47:37:00PBR max from 01:47:38:00 to 01:47:39:00PBR max from 01:47:46:00 to 01:47:48:00PBR max from 01:48:08:00 to 01:48:10:00PBR max from 01:48:11:00 to 01:48:12:00PBR max from 01:48:13:00 to 01:48:14:00PBR max from 01:48:15:00 to 01:48:16:00PBR max from 01:48:20:00 to 01:48:21:00PBR max from 01:48:59:00 to 01:49:00:00PBR max from 01:49:03:00 to 01:49:04:00PBR max from 01:49:11:00 to 01:49:12:00PBR max from 01:49:31:00 to 01:49:33:00PBR max from 01:49:34:00 to 01:49:37:00PBR max from 01:49:38:00 to 01:49:41:00PBR max from 01:49:48:00 to 01:49:49:00PBR max from 01:49:51:00 to 01:49:52:00PBR max from 01:49:54:00 to 01:49:57:00PBR max from 01:50:04:00 to 01:50:08:00PBR max from 01:50:09:00 to 01:50:10:00PBR max from 01:50:11:00 to 01:50:15:00PBR max from 01:50:17:00 to 01:50:18:00PBR max from 01:50:20:00 to 01:50:23:00PBR max from 01:50:27:00 to 01:51:02:00PBR max from 01:51:03:00 to 01:51:16:00PBR max from 01:51:17:00 to 01:51:19:00PBR max from 01:51:20:00 to 01:51:22:00PBR max from 01:51:23:00 to 01:51:33:00PBR max from 01:51:34:00 to 01:51:42:00PBR max from 01:51:43:00 to 01:52:19:00PBR max from 01:52:21:00 to 01:52:22:00PBR max from 01:52:24:00 to 01:52:25:00PBR max from 01:52:26:00 to 01:52:32:00PBR max from 01:52:43:00 to 01:52:44:00PBR max from 01:52:50:00 to 01:52:51:00PBR max from 01:54:42:00 to 01:54:43:00PBR max from 01:54:58:00 to 01:54:59:00PBR max from 01:55:17:00 to 01:55:18:00PBR max from 01:55:19:00 to 01:55:52:00PBR max from 01:55:53:00 to 01:55:57:00PBR max from 01:55:59:00 to 01:56:03:00PBR max from 01:56:04:00 to 01:56:07:00PBR max from 01:56:09:00 to 01:56:10:00PBR max from 01:56:21:00 to 01:56:23:00PBR max from 01:56:31:00 to 01:56:32:00PBR max from 01:56:42:00 to 01:56:50:00PBR max from 01:56:51:00 to 01:57:07:00PBR max from 01:57:09:00 to 01:57:30:00PBR max from 01:57:37:00 to 01:57:38:00PBR max from 01:57:40:00 to 01:57:41:00PBR max from 01:57:47:00 to 01:57:49:00PBR max from 01:57:50:00 to 01:57:54:00PBR max from 01:57:55:00 to 01:57:56:00PBR max from 01:57:57:00 to 01:57:59:00PBR max from 01:58:00:00 to 01:58:05:00PBR max from 01:58:07:00 to 01:58:26:00PBR max from 01:58:27:00 to 01:58:30:00PBR max from 01:58:36:00 to 01:58:40:00PBR max from 01:58:41:00 to 01:58:57:00PBR max from 01:59:00:00 to 01:59:01:00PBR max from 01:59:02:00 to 01:59:05:00PBR max from 01:59:07:00 to 01:59:15:00PBR max from 01:59:16:00 to 01:59:17:00PBR max from 01:59:19:00 to 01:59:21:00
Encode completed successfully.
[Information] [23.11.2019 2:56:16] Standard error stream-[Information] [23.11.2019 2:56:59] y4m [info]: 1280x720p 1:1 @ 24000/1001 fps (cfr)-[Information] [23.11.2019 2:56:59] x264 [info]: using SAR=1/1-[Information] [23.11.2019 2:56:59] x264 [info]: using cpu capabilities: MMX2 SSE2Fast SSSE3 SSE4.2 AVX-[Information] [23.11.2019 2:56:59] x264 [info]: profile High, level 4.1, 4:2:0, 8-bit-[Information] [23.11.2019 19:19:57] x264 [info]: frame I:1398  Avg QP:16.77  size:115095-[Information] [23.11.2019 19:19:57] x264 [info]: frame P:49083 Avg QP:20.41  size: 38906-[Information] [23.11.2019 19:19:57] x264 [info]: frame B:123953 Avg QP:22.26  size: 16682-[Information] [23.11.2019 19:19:57] x264 [info]: consecutive B-frames:  5.8%  6.1% 12.9% 34.0% 16.4% 21.3%  2.0%  0.7%  0.3%  0.5%-[Information] [23.11.2019 19:19:57] x264 [info]: mb I  I16..4:  8.8% 69.6% 21.6%-[Information] [23.11.2019 19:19:57] x264 [info]: mb P  I16..4:  1.5% 10.4%  1.9%  P16..4: 32.0% 37.3% 10.2%  1.7%  0.2%    skip: 4.9%-[Information] [23.11.2019 19:19:57] x264 [info]: mb B  I16..4:  0.1%  1.6%  0.2%  B16..8: 40.7% 22.4%  3.1%  direct: 5.7%  skip:26.2%  L0:45.2% L1:42.3% BI:12.5%-[Information] [23.11.2019 19:19:57] x264 [info]: 8x8 transform intra:76.0% inter:71.3%-[Information] [23.11.2019 19:19:57] x264 [info]: direct mvs  spatial:96.9% temporal:3.1%-[Information] [23.11.2019 19:19:57] x264 [info]: coded y,uvDC,uvAC intra: 83.1% 79.1% 51.2% inter: 25.0% 29.1% 5.7%-[Information] [23.11.2019 19:19:57] x264 [info]: i16 v,h,dc,p: 14% 23%  3% 61%-[Information] [23.11.2019 19:19:57] x264 [info]: i8 v,h,dc,ddl,ddr,vr,hd,vl,hu:  9%  8%  4% 11% 15% 14% 13% 13% 12%-[Information] [23.11.2019 19:19:57] x264 [info]: i4 v,h,dc,ddl,ddr,vr,hd,vl,hu: 10% 12%  4%  9% 15% 14% 13% 11% 13%-[Information] [23.11.2019 19:19:57] x264 [info]: i8c dc,h,v,p: 34% 27% 20% 19%-[Information] [23.11.2019 19:19:57] x264 [info]: Weighted P-Frames: Y:9.9% UV:6.0%-[Information] [23.11.2019 19:19:57] x264 [info]: ref P L0: 47.5%  9.8% 16.7%  7.2%  5.6%  4.2%  3.7%  2.3%  2.3%  0.5%  0.0%-[Information] [23.11.2019 19:19:57] x264 [info]: ref B L0: 73.5% 11.5%  6.1%  3.2%  2.3%  1.8%  1.2%  0.4%-[Information] [23.11.2019 19:19:57] x264 [info]: ref B L1: 94.7%  5.3%-[Information] [23.11.2019 19:19:57] x264 [info]: kb/s:4550.44-[Information] [23.11.2019 19:19:57] encoded 174434 frames, 2.96 fps, 4550.44 kb/s
GeneralUnique ID                   : 301264898538156016221529288170365734402 (0xE2A58249276DA00DAA9DD6E0F9CB4E02)Complete name               : T:\BDRip\Dixie Chicks - DCX MMXVI Live.BDRip720p.mkvFormat                      : MatroskaFormat version              : Version 2File size                   : 6.61 GiBDuration                    : 2 h 1 minOverall bit rate mode       : VariableOverall bit rate            : 7 807 kb/sMovie name                  : Dixie Chicks - DCX MMXVI Live.BDRip720p @ rutracker.orgEncoded date                : UTC 2019-11-23 21:34:07Writing application         : mkvmerge v35.0.0 ('All The Love In The World') 64-bitWriting library             : libebml v1.3.9 + libmatroska v1.5.2
VideoID : 1Format : AVCFormat/Info : Advanced Video CodecFormat profile : [email protected] settings : CABAC / 9 Ref FramesFormat settings, CABAC : YesFormat settings, Reference : 9 framesCodec ID : V_MPEG4/ISO/AVCDuration : 2 h 1 minBit rate : 4 550 kb/sWidth : 1 280 pixelsHeight : 720 pixelsDisplay aspect ratio : 16:9Frame rate mode : ConstantFrame rate : 23.976 (24000/1001) FPSColor space : YUVChroma subsampling : 4:2:0Bit depth : 8 bitsScan type : ProgressiveBits/(Pixel*Frame) : 0.206Stream size : 3.85 GiB (58%)Title : anbelk27 @ rutracker.orgWriting library : x264 core 157 r2935 545de2fEncoding settings : cabac=1 / ref=9 / deblock=1:-3:-3 / analyse=0x3:0x133 / me=umh / subme=11 / psy=1 / psy_rd=1.13:0.07 / mixed_ref=1 / me_range=40 / chroma_me=1 / trellis=2 / 8x8dct=1 / cqm=0 / deadzone=21,11 / fast_pskip=1 / chroma_qp_offset=-3 / threads=6 / lookahead_threads=1 / sliced_threads=0 / nr=0 / decimate=1 / interlaced=0 / bluray_compat=0 / constrained_intra=0 / bframes=9 / b_pyramid=2 / b_adapt=2 / b_bias=0 / direct=3 / weightb=1 / open_gop=0 / weightp=2 / keyint=240 / keyint_min=23 / scenecut=50 / intra_refresh=0 / rc_lookahead=60 / rc=2pass / mbtree=1 / bitrate=4550 / ratetol=1.0 / qcomp=0.60 / qpmin=0 / qpmax=69 / qpstep=4 / cplxblur=20.0 / qblur=0.5 / vbv_maxrate=50000 / vbv_bufsize=62500 / nal_hrd=none / filler=0 / ip_ratio=1.40 / aq=1:1.00Default : YesForced : No
Audio #1ID : 2Format : DTSFormat/Info : Digital Theater SystemsCodec ID : A_DTSDuration : 2 h 1 minBit rate mode : ConstantBit rate : 1 509 kb/sChannel(s) : 6 channelsChannel layout : C L R Ls Rs LFESampling rate : 48.0 kHzFrame rate : 93.750 FPS (512 SPF)Bit depth : 24 bitsCompression mode : LossyStream size : 1.28 GiB (19%)Title : DTS 5.1 @ 24 bitDefault : YesForced : No
Audio #2ID : 3Format : FLACFormat/Info : Free Lossless Audio CodecCodec ID : A_FLACDuration : 2 h 1 minBit rate mode : VariableBit rate : 1 745 kb/sChannel(s) : 2 channelsChannel layout : L RSampling rate : 48.0 kHzFrame rate : 11.719 FPS (4096 SPF)Bit depth : 24 bitsCompression mode : LosslessStream size : 1.48 GiB (22%)Title : FLAC 2.0 @ 24 bitWriting library : libFLAC 1.2.1 (UTC 2007-09-17)Default : NoForced : No
Menu00:00:00.000 : en: 01. The Long Way Around00:05:41.550 : en: 02. Lubbock or Leave It00:09:45.418 : en: 03. Truth No. 200:15:00.817 : en: 04. Easy Silence00:19:07.897 : en: 05. Long Time Gone00:23:55.267 : en: 06. Nothing Compares 2 U00:29:56.878 : en: 07. Top of the World00:35:56.529 : en: 08. Goodbye Earl00:40:31.554 : en: 09. Ace Of Spades00:44:40.136 : en: 10. Don't Let Me Die in Florida00:50:32.112 : en: 11. Daddy Lessons00:57:21.063 : en: 12. White Trash Wedding01:03:16.001 : en: 13. Travelin' Soldier01:08:58.217 : en: 14. Bluegrass Instrumental01:11:25.907 : en: 15. Ready To Run01:16:05.352 : en: 16. Mississippi01:22:22.437 : en: 17. Landslide01:27:15.647 : en: 18. Cowboy Take Me Away01:32:42.390 : en: 19. Wide Open Spaces01:36:54.809 : en: 20. Sin Wagon01:41:49.937 : en: 21. Not Ready to Make Nice01:45:43.587 : en: 22. Better Way01:53:40.230 : en: 23. Credits

Скриншоты


Vi$itReal

Post 22-Nov-2019 23:50

[Quote]

Dixie Chicks - DCX MMXVI Live
Жанр: Country, Rock, Folk
Продолжительность: 02:01:15
Год выпуска: 2017
Треклист:
1. The Long Way Around
2. Lubbock or Leave It
3. Truth No. 2
4. Easy Silence
5. Long Time Gone
6. Nothing Compares 2 U
7. Top of the World
8. Goodbye Earl
9. Ace Of Spades
10. Don't Let Me Die in Florida
11. Daddy Lessons
12. White Trash Wedding
13. Travelin' Soldier
14. Bluegrass Instrumental
15. Ready To Run
16. Mississippi
17. Landslide
18. Cowboy Take Me Away
19. Wide Open Spaces
20. Sin Wagon
21. Not Ready to Make Nice
22. Better Way
Качество: Blu-ray
Разрешение видео/развертка: 1080p
Контейнер: BDMV
Видео кодек: H.264
Аудио кодек: PCM, AC3
Видео: MPEG-4 AVC Video / 31993 kbps / 1080p / 23.976 fps / 16:9 / High Profile 4.1
Аудио#1: English / LPCM Audio / 2.0 / 48 kHz / 2304 kbps / 24-bit
Аудио#2: English / Dolby Digital Audio / 5.1 / 48 kHz / 640 kbps / DN -31dB
Аудио#3: English / LPCM Audio / 5.1 / 48 kHz / 6912 kbps / 24-bit
Субтитры: English
BDInfo
Disc Title:     Dixie Chicks DCX MMXVI LiveDisc Label:     Dixie.Chicks.DCX.MMXVI.Live.2017Disc Size:      40,525,112,612 bytesProtection:     AACSExtras:         BD-JavaBDInfo:         0.7.5.5
Notes:
BDINFO HOME: Cinema Squid (old) http://www.cinemasquid.com/blu-ray/tools/bdinfo UniqProject GitHub (new) https://github.com/UniqProject/BDInfo
INCLUDES FORUMS REPORT FOR: AVS Forum Blu-ray Audio and Video Specifications Thread http://www.avsforum.com/avs-vb/showthread.php?t=1155731
********************PLAYLIST: 00800.MPLS********************
Total   Video
Title                                                           Codec   Length  Movie Size      Disc Size       Bitrate Bitrate Main Audio Track                          Secondary Audio Track
-----                                                           ------  ------- --------------  --------------  ------- ------- ------------------                        ---------------------
00800.MPLS                                                      AVC     2:01:15 40,050,143,232  40,525,112,612  44.04   31.99   LPCM 2.0 2304Kbps (48kHz/24-bit)          DD AC3 5.1 640Kbps
DISC INFO:
Disc Title:     Dixie Chicks DCX MMXVI Live
Disc Label:     Dixie.Chicks.DCX.MMXVI.Live.2017
Disc Size:      40,525,112,612 bytes
Protection:     AACS
Extras:         BD-Java
BDInfo:         0.7.5.5
PLAYLIST REPORT:
Name:                   00800.MPLS
Length:                 2:01:15.351 (h:m:s.ms)
Size:                   40,050,143,232 bytes
Total Bitrate:          44.04 Mbps
VIDEO:
Codec                   Bitrate             Description
-----                   -------             -----------
MPEG-4 AVC Video        31993 kbps          1080p / 23.976 fps / 16:9 / High Profile 4.1
AUDIO:
Codec                           Language        Bitrate         Description
-----                           --------        -------         -----------
LPCM Audio                      English         2304 kbps       2.0 / 48 kHz /  2304 kbps / 24-bit
Dolby Digital Audio             English         640 kbps        5.1 / 48 kHz /   640 kbps / DN -31dB
LPCM Audio                      English         6912 kbps       5.1 / 48 kHz /  6912 kbps / 24-bit
SUBTITLES:
Codec                           Language        Bitrate         Description
-----                           --------        -------         -----------
Presentation Graphics           English         29.429 kbps
FILES:
Name            Time In         Length          Size            Total Bitrate
----            -------         ------          ----            -------------
00001.M2TS      0:00:00.000     2:01:15.351     40,050,143,232  44,039
CHAPTERS:
Number          Time In         Length          Avg Video Rate  Max 1-Sec Rate  Max 1-Sec Time  Max 5-Sec Rate  Max 5-Sec Time  Max 10Sec Rate  Max 10Sec Time  Avg Frame Size  Max Frame Size  Max Frame Time
------          -------         ------          --------------  --------------  --------------  --------------  --------------  --------------  --------------  --------------  --------------  --------------
1               0:00:00.000     0:05:41.549     31,620 kbps     38,343 kbps     00:00:35.660    35,188 kbps     00:03:47.018    34,833 kbps     00:02:21.766    164,833 bytes   619,432 bytes   00:00:36.536
2               0:05:41.549     0:04:03.868     33,489 kbps     40,690 kbps     00:08:20.583    35,919 kbps     00:08:16.621    35,207 kbps     00:08:14.785    174,595 bytes   464,691 bytes   00:08:21.083
3               0:09:45.418     0:05:15.398     31,299 kbps     39,652 kbps     00:13:14.126    35,830 kbps     00:13:10.122    34,782 kbps     00:13:10.122    163,178 bytes   428,928 bytes   00:14:18.732
4               0:15:00.816     0:04:07.080     31,141 kbps     37,526 kbps     00:17:37.222    35,208 kbps     00:16:04.964    34,899 kbps     00:17:09.028    162,355 bytes   352,176 bytes   00:16:04.088
5               0:19:07.896     0:04:47.370     32,418 kbps     36,877 kbps     00:21:28.954    35,070 kbps     00:21:24.950    34,891 kbps     00:21:36.586    169,012 bytes   362,155 bytes   00:19:09.815
6               0:23:55.267     0:06:01.611     32,363 kbps     37,464 kbps     00:29:25.472    35,151 kbps     00:28:25.203    34,949 kbps     00:25:43.792    168,727 bytes   383,410 bytes   00:27:59.844
7               0:29:56.878     0:05:59.650     32,588 kbps     40,590 kbps     00:33:45.857    35,119 kbps     00:29:59.380    34,973 kbps     00:32:36.204    169,900 bytes   367,381 bytes   00:31:24.841
8               0:35:56.529     0:04:35.024     33,115 kbps     40,479 kbps     00:36:12.795    35,440 kbps     00:39:28.657    34,910 kbps     00:37:19.028    172,645 bytes   414,499 bytes   00:39:09.764
9               0:40:31.554     0:04:08.581     28,746 kbps     38,612 kbps     00:42:18.077    35,086 kbps     00:44:18.572    34,948 kbps     00:44:15.986    149,867 bytes   378,738 bytes   00:42:18.827
10              0:44:40.135     0:05:51.976     33,575 kbps     36,538 kbps     00:47:58.750    35,094 kbps     00:45:33.021    34,951 kbps     00:45:27.349    175,042 bytes   366,166 bytes   00:45:37.025
11              0:50:32.112     0:06:48.950     30,972 kbps     36,112 kbps     00:55:22.318    35,036 kbps     00:55:18.565    34,773 kbps     00:56:50.907    161,473 bytes   375,754 bytes   00:51:14.071
12              0:57:21.062     0:05:54.937     32,098 kbps     36,872 kbps     01:02:02.677    35,180 kbps     01:01:58.798    34,916 kbps     00:58:41.643    167,346 bytes   389,634 bytes   00:57:58.600
13              1:03:16.000     0:05:42.216     30,696 kbps     36,071 kbps     01:04:27.572    34,945 kbps     01:04:07.552    33,939 kbps     01:04:04.549    160,034 bytes   356,376 bytes   01:05:40.895
14              1:08:58.217     0:02:27.689     32,459 kbps     36,556 kbps     01:10:23.552    34,842 kbps     01:11:19.733    34,462 kbps     01:10:03.240    169,226 bytes   329,245 bytes   01:10:24.303
15              1:11:25.906     0:04:39.445     33,667 kbps     37,459 kbps     01:14:10.571    35,277 kbps     01:15:05.667    34,961 kbps     01:15:06.543    175,524 bytes   355,532 bytes   01:12:52.201
16              1:16:05.352     0:06:17.085     32,322 kbps     38,043 kbps     01:16:43.849    35,143 kbps     01:19:36.938    34,933 kbps     01:20:55.350    168,511 bytes   478,729 bytes   01:16:44.725
17              1:22:22.437     0:04:53.209     31,350 kbps     36,630 kbps     01:23:28.503    35,039 kbps     01:24:23.725    34,915 kbps     01:24:21.139    163,447 bytes   450,372 bytes   01:23:30.213
18              1:27:15.647     0:05:26.743     31,925 kbps     36,955 kbps     01:30:36.514    35,127 kbps     01:30:32.677    34,797 kbps     01:30:35.888    166,445 bytes   415,005 bytes   01:28:31.097
19              1:32:42.390     0:04:12.418     32,404 kbps     37,286 kbps     01:35:57.918    35,014 kbps     01:36:28.449    34,821 kbps     01:34:13.648    168,940 bytes   426,209 bytes   01:35:06.367
20              1:36:54.809     0:04:55.128     32,543 kbps     36,974 kbps     01:38:37.745    35,144 kbps     01:39:01.060    34,990 kbps     01:38:28.736    169,662 bytes   386,214 bytes   01:38:01.500
21              1:41:49.937     0:03:53.650     31,291 kbps     37,205 kbps     01:43:30.204    35,125 kbps     01:43:26.200    34,785 kbps     01:44:51.034    163,139 bytes   352,017 bytes   01:43:30.954
22              1:45:43.587     0:07:56.642     30,784 kbps     39,467 kbps     01:52:43.298    35,074 kbps     01:53:04.527    34,769 kbps     01:53:03.234    160,492 bytes   385,086 bytes   01:53:05.862
23              1:53:40.230     0:07:35.121     33,124 kbps     50,743 kbps     01:59:45.094    38,322 kbps     01:59:41.090    36,594 kbps     01:59:36.085    172,710 bytes   630,370 bytes   01:59:45.928
STREAM DIAGNOSTICS:
File            PID             Type            Codec           Language                Seconds                 Bitrate                 Bytes           Packets
----            ---             ----            -----           --------                --------------          --------------          -------------   -----
00001.M2TS      4113 (0x1011)   0x1B            AVC                                     7275.185                31,994                  29,095,339,813  158,228,324
00001.M2TS      4352 (0x1100)   0x80            LPCM            eng (English)           7275.185                2,310                   2,101,122,524   11,640,568
00001.M2TS      4353 (0x1101)   0x81            AC3             eng (English)           7275.185                640                     582,028,800     3,410,325
00001.M2TS      4354 (0x1102)   0x80            LPCM            eng (English)           7275.185                6,918                   6,290,862,204   34,916,904
00001.M2TS      4608 (0x1200)   0x90            PGS             eng (English)           7275.185                29                      26,763,169      154,620
QUICK SUMMARY:
Disc Title: Dixie Chicks DCX MMXVI LiveDisc Label: Dixie.Chicks.DCX.MMXVI.Live.2017Disc Size: 40,525,112,612 bytesProtection: AACSPlaylist: 00800.MPLSSize: 40,050,143,232 bytesLength: 2:01:15.351Total Bitrate: 44.04 MbpsVideo: MPEG-4 AVC Video / 31993 kbps / 1080p / 23.976 fps / 16:9 / High Profile 4.1Audio: English / LPCM Audio / 2.0 / 48 kHz / 2304 kbps / 24-bitAudio: English / Dolby Digital Audio / 5.1 / 48 kHz / 640 kbps / DN -31dBAudio: English / LPCM Audio / 5.1 / 48 kHz / 6912 kbps / 24-bitSubtitle: English / 29.429 kbps
********************PLAYLIST: 00080.MPLS********************[/pre]
Total   Video
Title                                                           Codec   Length  Movie Size      Disc Size       Bitrate Bitrate Main Audio Track                          Secondary Audio Track
-----                                                           ------  ------- --------------  --------------  ------- ------- ------------------                        ---------------------
00080.MPLS                                                      AVC     0:00:33 17,756,160      40,525,112,612  4.30    2.28    LPCM 2.0 1536Kbps (48kHz/16-bit)
DISC INFO:
Disc Title:     Dixie Chicks DCX MMXVI Live
Disc Label:     Dixie.Chicks.DCX.MMXVI.Live.2017
Disc Size:      40,525,112,612 bytes
Protection:     AACS
Extras:         BD-Java
BDInfo:         0.7.5.5
PLAYLIST REPORT:
Name:                   00080.MPLS
Length:                 0:00:33.033 (h:m:s.ms)
Size:                   17,756,160 bytes
Total Bitrate:          4.30 Mbps
VIDEO:
Codec                   Bitrate             Description
-----                   -------             -----------
MPEG-4 AVC Video        2277 kbps           1080i / 29.970 fps / 16:9 / High Profile 4.1
AUDIO:
Codec                           Language        Bitrate         Description
-----                           --------        -------         -----------
LPCM Audio                      English         1536 kbps       2.0 / 48 kHz /  1536 kbps / 16-bit
FILES:
Name            Time In         Length          Size            Total Bitrate
----            -------         ------          ----            -------------
00006.M2TS      0:00:00.000     0:00:33.033     17,756,160      4,300
CHAPTERS:
Number          Time In         Length          Avg Video Rate  Max 1-Sec Rate  Max 1-Sec Time  Max 5-Sec Rate  Max 5-Sec Time  Max 10Sec Rate  Max 10Sec Time  Avg Frame Size  Max Frame Size  Max Frame Time
------          -------         ------          --------------  --------------  --------------  --------------  --------------  --------------  --------------  --------------  --------------  --------------
1               0:00:00.000     0:00:33.033     2,277 kbps      8,576 kbps      00:00:22.622    3,835 kbps      00:00:21.020    3,350 kbps      00:00:22.522    9,497 bytes     183,505 bytes   00:00:30.030
STREAM DIAGNOSTICS:
File            PID             Type            Codec           Language                Seconds                 Bitrate                 Bytes           Packets
----            ---             ----            -----           --------                --------------          --------------          -------------   -----
00006.M2TS      4113 (0x1011)   0x1B            AVC                                     32.900                  2,286                   9,402,394       51,710
00006.M2TS      4352 (0x1100)   0x80            LPCM            eng (English)           32.900                  1,549                   6,369,148       39,642
QUICK SUMMARY:
Disc Title: Dixie Chicks DCX MMXVI LiveDisc Label: Dixie.Chicks.DCX.MMXVI.Live.2017Disc Size: 40,525,112,612 bytesProtection: AACSPlaylist: 00080.MPLSSize: 17,756,160 bytesLength: 0:00:33.033Total Bitrate: 4.30 MbpsVideo: MPEG-4 AVC Video / 2277 kbps / 1080i / 29.970 fps / 16:9 / High Profile 4.1Audio: English / LPCM Audio / 2.0 / 48 kHz / 1536 kbps / 16-bit
********************PLAYLIST: 00050.MPLS********************[/pre]
Total   Video
Title                                                           Codec   Length  Movie Size      Disc Size       Bitrate Bitrate Main Audio Track                          Secondary Audio Track
-----                                                           ------  ------- --------------  --------------  ------- ------- ------------------                        ---------------------
00050.MPLS                                                      MPEG-2  0:00:21 13,584,384      40,525,112,612  5.17    3.11    LPCM 2.0 1536Kbps (48kHz/16-bit)
DISC INFO:
Disc Title:     Dixie Chicks DCX MMXVI Live
Disc Label:     Dixie.Chicks.DCX.MMXVI.Live.2017
Disc Size:      40,525,112,612 bytes
Protection:     AACS
Extras:         BD-Java
BDInfo:         0.7.5.5
PLAYLIST REPORT:
Name:                   00050.MPLS
Length:                 0:00:21.021 (h:m:s.ms)
Size:                   13,584,384 bytes
Total Bitrate:          5.17 Mbps
VIDEO:
Codec                   Bitrate             Description
-----                   -------             -----------
MPEG-2 Video            3115 kbps           480i / 29.970 fps / 16:9
AUDIO:
Codec                           Language        Bitrate         Description
-----                           --------        -------         -----------
LPCM Audio                      English         1536 kbps       2.0 / 48 kHz /  1536 kbps / 16-bit
FILES:
Name            Time In         Length          Size            Total Bitrate
----            -------         ------          ----            -------------
00010.M2TS      0:00:00.000     0:00:21.021     13,584,384      5,170
CHAPTERS:
Number          Time In         Length          Avg Video Rate  Max 1-Sec Rate  Max 1-Sec Time  Max 5-Sec Rate  Max 5-Sec Time  Max 10Sec Rate  Max 10Sec Time  Avg Frame Size  Max Frame Size  Max Frame Time
------          -------         ------          --------------  --------------  --------------  --------------  --------------  --------------  --------------  --------------  --------------  --------------
1               0:00:00.000     0:00:21.021     3,115 kbps      9,028 kbps      00:00:08.675    6,785 kbps      00:00:06.072    4,802 kbps      00:00:06.539    12,991 bytes    64,044 bytes    00:00:09.509
STREAM DIAGNOSTICS:
File            PID             Type            Codec           Language                Seconds                 Bitrate                 Bytes           Packets
----            ---             ----            -----           --------                --------------          --------------          -------------   -----
00010.M2TS      4113 (0x1011)   0x02            MPEG-2                                  20.888                  3,135                   8,184,052       44,857
00010.M2TS      4352 (0x1100)   0x80            LPCM            eng (English)           20.888                  1,550                   4,046,872       25,188
QUICK SUMMARY:
Disc Title: Dixie Chicks DCX MMXVI LiveDisc Label: Dixie.Chicks.DCX.MMXVI.Live.2017Disc Size: 40,525,112,612 bytesProtection: AACSPlaylist: 00050.MPLSSize: 13,584,384 bytesLength: 0:00:21.021Total Bitrate: 5.17 MbpsVideo: MPEG-2 Video / 3115 kbps / 480i / 29.970 fps / 16:9Audio: English / LPCM Audio / 2.0 / 48 kHz / 1536 kbps / 16-bit[/pre]

Скриншоты


Vi$itReal

Post 14-Nov-2019 12:35

[Quote]

53rd CMA Awards
Жанр: Country
Продолжительность: 02:09:00
Год выпуска: 2019
Автор записи: ilya2129
Качество: HDTVRip
Разрешение видео/развертка: 720p
Контейнер: TS
Видео кодек: MPEG2
Аудио кодек: AC3
Видео: MPEG2, 1280x720p, 10600kbps, 59,97fps
Аудио: AC3, 384kbps, 4800kHZ, 6ch

Треклист

Carrie Underwood & Reba McEntire & Dolly Parton & Little Big Town & Jennifer Nettles & The Highwomen & Tanya Tucker & Gretchen Wilson & Crystal Gayle & Terri Clark & Sara Evans & Martina McBride - Medley
Dan + Shay - "Speechless"
Miranda Lambert - "It All Comes Out in the Wash"
Reba McEntire - "Fancy"
Chris Stapleton & Pink - "Love Me Anyway"
Old Dominion - "One Man Band"
Carrie Underwood - "Drinking Alone"
Luke Combs - "Beer Never Broke My Heart"
Kelsea Ballerini & Lindsay Ell & Runaway June & Maddie & Tae & Ashley & McBryde & Carly Pearce & Little Big Town - "homecoming queen?" / "Girl Crush"
Lady Antebellum & Halsey "What If I Never Get Over You" / "Graveyard"
Brooks & Dunn & Brothers Osborne - "Hard Workin' Man"
Maren Morris - "Girl"
Blake Shelton - "God's Country"
Thomas Rhett - "Remember You Young"
Dolly Parton & For King & Country & Zach Williams - Medley
Keith Urban - "We Were"
Dierks Bentley & Sheryl Crow & Chris Janson & John Osborne & Joe Walsh - Tribute to Kris Kristofferson / "Me and Bobby McGee"
Eric Church - "Some of It"
Kacey Musgraves & Willie Nelson - "Rainbow Connection" / "Rainbow"
Garth Brooks & Blake Shelton - "Dive Bar"

Отчёт MediaInfo / BDInfo

ОбщееИдентификатор                            : 1 (0x1)Полное имя                               : D:\53rd Annual Country Music Association Awards.tsФормат                                   : MPEG-TSРазмер файла                             : 10,6 ГбайтПродолжительность                        : 2 ч. 9 м.Режим общего битрейта                    : ПеременныйОбщий поток                              : 11,7 Мбит/секНазвание фильма                          : LOCAL PROGRAMMINGОграничение по возрасту                  : TV-PG (DL)
ВидеоИдентификатор : 101 (0x65)Идентификатор меню : 1 (0x1)Формат : MPEG VideoВерсия формата : Version 2Профиль формата : [email protected]Настройки формата : CustomMatrix / BVOPПараметр BVOP формата : ДаПараметр матрицы формата : ВыборочнаяПараметр GOP формата : VariableИдентификатор кодека : 2Продолжительность : 2 ч. 9 м.Вид битрейта : ПеременныйБитрейт : 10,6 Мбит/секМаксимальный битрейт : 24,0 Мбит/секШирина : 1280 пикселейВысота : 720 пикселейСоотношение сторон : 16:9Описание активного формата : Letterbox 16:9 imageЧастота кадров : 59,940 (60000/1001) кадров/секЦветовое пространство : YUVСубдискретизация насыщенности : 4:2:0Битовая глубина : 8 битТип развёртки : ПрогрессивнаяМетод сжатия : С потерямиБит/(Пиксели*Кадры) : 0.193Временной код первого кадра : 00:00:00;00Оригинал временного кода : Group of pictures headerGOP, открыто/закрыто : ОткрытоGOP, открыто/закрыто на первом кадре : ЗакрытоРазмер потока : 9,64 Гбайт (91%)
Аудио #1Идентификатор : 7572 (0x1D94)Идентификатор меню : 1 (0x1)Формат : AC-3Формат/Информация : Audio Coding 3Коммерческое название : Dolby DigitalИдентификатор кодека : 129Продолжительность : 2 ч. 9 м.Вид битрейта : ПостоянныйБитрейт : 384 Кбит/секКаналы : 6 каналовChannelLayout : L R C LFE Ls RsЧастота : 48,0 КГцЧастота кадров : 31,250 кадров/сек (1536 SPF)Битовая глубина : 16 битМетод сжатия : С потерямиЗадержка видео : 7 мс.Размер потока : 356 Мбайт (3%)Язык : EnglishServiceKind/String : Complete Main
Аудио #2Идентификатор : 7573 (0x1D95)Идентификатор меню : 1 (0x1)Формат : AC-3Формат/Информация : Audio Coding 3Коммерческое название : Dolby DigitalИдентификатор кодека : 129Продолжительность : 2 ч. 9 м.Вид битрейта : ПостоянныйБитрейт : 96,0 Кбит/секКаналы : 2 каналаChannelLayout : L RЧастота : 48,0 КГцЧастота кадров : 31,250 кадров/сек (1536 SPF)Битовая глубина : 16 битМетод сжатия : С потерямиЗадержка видео : 9 мс.Размер потока : 89,0 Мбайт (1%)Язык : SpanishServiceKind/String : Complete Main
Текст #1Идентификатор : 101 (0x65)-CC1Идентификатор меню : 1 (0x1)Формат : EIA-608Режим смешивания : A/53 / DTVCC TransportРежим смешивания, доп. информация : Muxed in Video #1Продолжительность : 2 ч. 9 м.Вид битрейта : ПостоянныйРазмер потока : 0,00 байт (0%)CaptionServiceName : CC1
Текст #2Идентификатор : 101 (0x65)-1Идентификатор меню : 1 (0x1)Формат : EIA-708Режим смешивания : A/53 / DTVCC TransportРежим смешивания, доп. информация : Muxed in Video #1Продолжительность : 2 ч. 9 м.Вид битрейта : ПостоянныйРазмер потока : 0,00 байт (0%)
Текст #3Идентификатор : 101 (0x65)-5Идентификатор меню : 1 (0x1)Формат : EIA-708Режим смешивания : A/53 / DTVCC TransportРежим смешивания, доп. информация : Muxed in Video #1Продолжительность : 2 ч. 9 м.Вид битрейта : ПостоянныйРазмер потока : 0,00 байт (0%)
Текст #4Идентификатор : 101 (0x65)-6Идентификатор меню : 1 (0x1)Формат : EIA-708Режим смешивания : A/53 / DTVCC TransportРежим смешивания, доп. информация : Muxed in Video #1Продолжительность : 2 ч. 9 м.Вид битрейта : ПостоянныйРазмер потока : 0,00 байт (0%)

Скриншоты

Vi$itReal

Post 12-Nov-2019 01:00

[Quote]

Taylor Swift
Tmall Double Eleven Gala

Жанр: Country Pop
Продолжительность: 00:13:34
Год выпуска: 2019
Качество: HDTV
Разрешение видео/развертка: 1080i
Контейнер: TS
Видео кодек: MPEG2
Аудио кодек: AC3, MP2
Видео: MPEG2 Video 1920x1080 25fps 15.5 Mb/s
Аудио 1: Dolby AC3 48000Hz stereo 448kbps
Аудио 2: MPEG Audio 48000Hz stereo 128kbps

Треклист

Me!
Lover
You Need to Calm Down

Отчёт MediaInfo / BDInfo

GeneralID                             : 1 (0x1)Complete name                  : F:\Taylor Swift - Tmall Double Eleven Gala 2019 .tsFormat                         : MPEG-TSFile size                      : 1.61 GiBDuration                       : 13 min 34 sOverall bit rate mode          : VariableOverall bit rate               : 16.9 Mb/s
VideoID : 2576 (0xA10)Menu ID : 3301 (0xCE5)Format : MPEG VideoFormat version : Version 2Format profile : [email protected] settings : CustomMatrix / BVOPFormat settings, BVOP : YesFormat settings, Matrix : CustomFormat settings, GOP : VariableFormat settings, picture struc : FrameCodec ID : 2Duration : 13 min 34 sBit rate mode : ConstantBit rate : 15.5 Mb/sMaximum bit rate : 16.0 Mb/sWidth : 1 920 pixelsHeight : 1 080 pixelsDisplay aspect ratio : 16:9Frame rate : 25.000 FPSColor space : YUVChroma subsampling : 4:2:0Bit depth : 8 bitsScan type : InterlacedScan order : Top Field FirstCompression mode : LossyBits/(Pixel*Frame) : 0.299Time code of first frame : 00:00:00:00Time code source : Group of pictures headerGOP, Open/Closed : OpenGOP, Open/Closed of first fram : ClosedStream size : 1.47 GiB (92%)
Audio #1ID : 2579 (0xA13)Menu ID : 3301 (0xCE5)Format : AC-3Format/Info : Audio Coding 3Commercial name : Dolby DigitalCodec ID : 6Duration : 13 min 34 sBit rate mode : ConstantBit rate : 448 kb/sChannel(s) : 2 channelsChannel layout : L RSampling rate : 48.0 kHzFrame rate : 31.250 FPS (1536 SPF)Compression mode : LossyDelay relative to video : 6 msStream size : 43.5 MiB (3%)Language : EnglishService kind : Complete Main
Audio #2ID : 2580 (0xA14)Menu ID : 3301 (0xCE5)Format : MPEG AudioFormat version : Version 1Format profile : Layer 2Format settings : Joint stereoCodec ID : 3Duration : 13 min 34 sBit rate mode : ConstantBit rate : 128 kb/sChannel(s) : 2 channelsSampling rate : 48.0 kHzFrame rate : 41.667 FPS (1152 SPF)Compression mode : LossyDelay relative to video : 23 msStream size : 12.4 MiB (1%)Language : English

Скриншоты

Vi$itReal

Post 07-Oct-2019 09:25

[Quote]


Taylor Swift

FEED
Жанр: Country Pop
Продолжительность: 00:10:36
Год выпуска: 2019
Качество: HDTV
Разрешение видео/развертка: 1080i
Контейнер: TS
Видео кодек: H.264
Аудио кодек: E-AC-3
Видео: MPEG4 Video (H264) 1920x1080 29.97fps 22.3 Mb/s
Аудио: E-AC-3 48000Hz 6ch 384kbps

Треклист

One Commercial
False God
Lover

Отчёт MediaInfo / BDInfo

GeneralID                             : 1 (0x1)Complete name                  : F:\Taylor Swift - Saturday Night Live 2019.tsFormat                         : MPEG-TSFile size                      : 1.77 GiBDuration                       : 10 min 36 sOverall bit rate mode          : VariableOverall bit rate               : 23.8 Mb/sMovie name                     : Saturday Night LiveLaw rating                     : TV-14 (DL)
VideoID : 257 (0x101)Menu ID : 1 (0x1)Format : AVCFormat/Info : Advanced Video CodecFormat profile : [email protected] settings : CABAC / 4 Ref FramesFormat settings, CABAC : YesFormat settings, Reference fra : 4 framesCodec ID : 27Duration : 10 min 36 sBit rate : 22.3 Mb/sWidth : 1 920 pixelsHeight : 1 080 pixelsDisplay aspect ratio : 16:9Frame rate : 29.970 (30000/1001) FPSColor space : YUVChroma subsampling : 4:2:0Bit depth : 8 bitsScan type : InterlacedScan type, store method : Separated fieldsScan order : Top Field FirstBits/(Pixel*Frame) : 0.358Stream size : 1.65 GiB (93%)Color range : LimitedColor primaries : BT.709Transfer characteristics : BT.709Matrix coefficients : BT.709
AudioID : 256 (0x100)Menu ID : 1 (0x1)Format : E-AC-3Format/Info : Enhanced AC-3Commercial name : Dolby Digital PlusCodec ID : 135Duration : 10 min 36 sBit rate mode : ConstantBit rate : 384 kb/sChannel(s) : 6 channelsChannel layout : L R C LFE Ls RsSampling rate : 48.0 kHzFrame rate : 31.250 FPS (1536 SPF)Compression mode : LossyDelay relative to video : -10 msStream size : 29.1 MiB (2%)Service kind : Complete Main

Скриншоты

Мои раздачи ®

Vi$itReal

Post 06-Oct-2019 13:55

[Quote]

Taylor Swift - False God / Lover @ Saturday Night Live Жанр: Pop
Продолжительность: 00:04:03 + 00:04:04
Год выпуска: 2019
Автор рипа/записи: ilya2129
Телеканал: NBC 4 HD New York (WNBC)
Качество: HDTVRip
Разрешение видео/развертка: 1080i
Контейнер: TS
Видео кодек: MPEG2
Аудио кодек: AC3
Видео: MPEG2, 1920x1080, 8670kbps, 29.97fps
Аудио: AC3, 384 kbps, 6ch, 48000kHz

Отчёт MediaInfo / BDInfo

ОбщееИдентификатор                            : 1 (0x1)Полное имя                               : D:\Taylor Swift @ SNL S45\Taylor Swift - False God - Live @ Saturday Night Live.tsФормат                                   : MPEG-TSРазмер файла                             : 289 МбайтПродолжительность                        : 4 м. 9 с.Режим общего битрейта                    : ПеременныйОбщий поток                              : 9684 Кбит/секОграничение по возрасту                  : None
ВидеоИдентификатор : 101 (0x65)Идентификатор меню : 1 (0x1)Формат : MPEG VideoВерсия формата : Version 2Профиль формата : [email protected]Настройки формата : BVOPПараметр BVOP формата : ДаПараметр матрицы формата : По умолчаниюПараметр GOP формата : VariableСтруктура изображения : FrameИдентификатор кодека : 2Продолжительность : 4 м. 9 с.Вид битрейта : ПеременныйБитрейт : 8624 Кбит/секМаксимальный битрейт : 80,0 Мбит/секШирина : 1920 пикселейВысота : 1080 пикселейСоотношение сторон : 16:9Описание активного формата : Full frame 16:9 imageЧастота кадров : 29,970 (30000/1001) кадров/секЦветовое пространство : YUVСубдискретизация насыщенности : 4:2:0Битовая глубина : 8 битТип развёртки : ЧересстрочнаяПорядок развёртки : Верхнее поле первоеМетод сжатия : С потерямиБит/(Пиксели*Кадры) : 0.139Временной код первого кадра : 00:00:00;00Оригинал временного кода : Group of pictures headerРазмер потока : 257 Мбайт (89%)
Аудио #1Идентификатор : 7542 (0x1D76)Идентификатор меню : 1 (0x1)Формат : AC-3Формат/Информация : Audio Coding 3Коммерческое название : Dolby DigitalИдентификатор кодека : 129Продолжительность : 4 м. 9 с.Вид битрейта : ПостоянныйБитрейт : 384 Кбит/секКаналы : 6 каналовChannelLayout : L R C LFE Ls RsЧастота : 48,0 КГцЧастота кадров : 31,250 кадров/сек (1536 SPF)Битовая глубина : 16 битМетод сжатия : С потерямиЗадержка видео : 22 мс.Размер потока : 11,4 Мбайт (4%)Язык : EnglishServiceKind/String : Complete Main
Аудио #2Идентификатор : 7543 (0x1D77)Идентификатор меню : 1 (0x1)Формат : AC-3Формат/Информация : Audio Coding 3Коммерческое название : Dolby DigitalИдентификатор кодека : 129Продолжительность : 4 м. 9 с.Вид битрейта : ПостоянныйБитрейт : 192 Кбит/секКаналы : 2 каналаChannelLayout : L RЧастота : 48,0 КГцЧастота кадров : 31,250 кадров/сек (1536 SPF)Битовая глубина : 16 битМетод сжатия : С потерямиЗадержка видео : 1 мс.Размер потока : 5,71 Мбайт (2%)Язык : SpanishServiceKind/String : Complete Main
Текст #1Идентификатор : 101 (0x65)-CC1Идентификатор меню : 1 (0x1)Формат : EIA-608Режим смешивания : A/53 / DTVCC TransportРежим смешивания, доп. информация : Muxed in Video #1Продолжительность : 4 м. 9 с.Вид битрейта : ПостоянныйРазмер потока : 0,00 байт (0%)CaptionServiceName : CC1
Текст #2Идентификатор : 101 (0x65)-1Идентификатор меню : 1 (0x1)Формат : EIA-708Режим смешивания : A/53 / DTVCC TransportРежим смешивания, доп. информация : Muxed in Video #1Продолжительность : 4 м. 9 с.Вид битрейта : ПостоянныйРазмер потока : 0,00 байт (0%)

Скриншоты

Vi$itReal

Post 09-Sep-2019 22:55

[Quote]

-- Жанр: Colognian Dialect and Karnevalsmusik, Brass Music
Продолжительность: 00:41:19
Год выпуска: 2019-Доп. информация: Level, finesse, punk and intelligence have seldom given so much pleasure. Thirteen loudly nice people who know what they act if they ask for the dance. This tape lives with heart blood for the live moments. One can ponder long, however, at the end of the day across beat is the maximum Rave, the ex-approx. Li borer of the escalation art. This tape never stands still. The new album “edge ale & cheers” has become a top 10-albums. Everything on anew.-Треклист:
01 Endstufe 2
02 Randale & Hurra
03 Ciao Loser
04 The Fresh Prince Of Bel Air / Guten Morgen Barbarossaplatz
05 Cowbell Dub
06 Intoxycrazytekkno
07 Wenn uns keiner süht
08 Romeo
09 Freaks-Качество: Web-DL
Разрешение видео/развертка: 1080p
Контейнер: MKV
Видео кодек: MPEG-4 AVC
Аудио кодек: AAC
Видео: MPEG-4 AVC / 1920*1080 / (16:9) / 9000 kbps / 25.0 fps
Аудио: AAC / 128 kbps / 48.0 khz / 2 ch

MI

ОбщееУникальный идентификатор                 : 194497488770947531907176467698608004931 (0x9252DA90E18A0051ABA549AF12085F43)Полное имя                               : C:\Video\Querbeat - Lollapalooza Berlin 2019.mkvФормат                                   : MatroskaВерсия формата                           : Version 4Размер файла                             : 2,62 ГбайтПродолжительность                        : 41 м. 19 с.Общий поток                              : 9081 Кбит/секДата кодирования                         : UTC 2019-09-09 18:08:17Программа кодирования                    : mkvmerge v7.1.0 ('Good Love') 64bit built on Jul 27 2014 13:06:55Библиотека кодирования                   : libebml v1.3.0 + libmatroska v1.4.1
ВидеоИдентификатор : 1Формат : AVCФормат/Информация : Advanced Video CodecПрофиль формата : [email protected]Настройки формата : CABAC / 4 Ref FramesПараметр CABAC формата : ДаПараметр RefFrames формата : 4 кадраИдентификатор кодека : V_MPEG4/ISO/AVCПродолжительность : 41 м. 19 с.Вид битрейта : ПостоянныйБитрейт : 9000 Кбит/сек / 9000 Кбит/секШирина : 1920 пикселейВысота : 1080 пикселейСоотношение сторон : 16:9Режим частоты кадров : ПостоянныйЧастота кадров : 25,000 кадров/секЦветовое пространство : YUVСубдискретизация насыщенности : 4:2:0Битовая глубина : 8 битТип развёртки : ПрогрессивнаяБит/(Пиксели*Кадры) : 0.174Размер потока : 2,58 Гбайт (99%)Библиотека кодирования : x264 core 148Настройки программы : cabac=1 / ref=4 / deblock=1:-1:-1 / analyse=0x1:0x111 / me=hex / subme=7 / psy=1 / psy_rd=1.00:0.15 / mixed_ref=1 / me_range=16 / chroma_me=1 / trellis=1 / 8x8dct=0 / cqm=0 / deadzone=21,11 / fast_pskip=1 / chroma_qp_offset=-3 / threads=12 / lookahead_threads=2 / sliced_threads=0 / nr=0 / decimate=1 / interlaced=0 / paff=0 / bluray_compat=0 / constrained_intra=0 / bframes=3 / b_pyramid=2 / b_adapt=1 / b_bias=0 / direct=1 / weightb=1 / open_gop=0 / weightp=2 / keyint=50 / keyint_min=5 / scenecut=0 / intra_refresh=0 / rc_lookahead=40 / rc=cbr / mbtree=1 / bitrate=9000 / ratetol=1.0 / qcomp=0.60 / qpmin=0 / qpmax=69 / qpstep=4 / vbv_maxrate=9000 / vbv_bufsize=18000 / nal_hrd=cbr / filler=1 / ip_ratio=1.40 / aq=1:1.00Default : ДаForced : НетЦветовой диапазон : LimitedОсновные цвета : BT.709Характеристики трансфера : BT.709Коэффициенты матрицы : BT.709
АудиоИдентификатор : 2Формат : AAC LCФормат/Информация : Advanced Audio Codec Low ComplexityИдентификатор кодека : A_AAC-2Продолжительность : 41 м. 19 с.Битрейт : 128 Кбит/секКаналы : 2 каналаChannelLayout : L RЧастота : 48,0 КГцЧастота кадров : 46,875 кадров/сек (1024 SPF)Метод сжатия : С потерямиРазмер потока : 37,8 Мбайт (1%)Default : ДаForced : Нет

Скриншоты


Vi$itReal

Post 06-Sep-2019 16:55

[Quote]

Taylor Swift - You Need To Calm Down & Lover (MTV Video Music Awards 2019)
Жанр: Pop
Продолжительность: 00:05:57
Год выпуска: 2019
Качество: HDTV (FEED)
Разрешение видео/развертка: 1080i
Контейнер: MKV
Видео кодек: H.264
Аудио кодек: MP2
Видео: H.264, 1920x1080 (16:9), 29.970 fps, 59,9 Mbps
Аудио: MP2, 384, 2 ch, 48 KHz

Отчёт MediaInfo

ОбщееУникальный идентификатор                 : 49765328360703801925095735747771961927 (0x2570741FAAFD880DBD8167B08C351247)Полное имя                               : K:\VIDEO\Video-Clips\Taylor Swift - You Need To Calm Down & Lover (MTV Video Music Awards 2019) 1080i HDTV Backhaul MPA2.0 H.264-TrollHD.mkvФормат                                   : MatroskaВерсия формата                           : Version 4Размер файла                             : 2,51 ГбайтПродолжительность                        : 5 м. 57 с.Общий поток                              : 60,3 Мбит/секДата кодирования                         : UTC 2019-08-28 05:07:16Программа кодирования                    : mkvmerge v37.0.0 ('Leave It') 64-bitБиблиотека кодирования                   : libebml v1.3.9 + libmatroska v1.5.2
ВидеоИдентификатор : 1Формат : AVCФормат/Информация : Advanced Video CodecПрофиль формата : [email protected]Настройки формата : 4 Ref FramesПараметр CABAC формата : НетПараметр RefFrames формата : 4 кадраПараметр GOP формата : M=4, N=32Идентификатор кодека : V_MPEG4/ISO/AVCПродолжительность : 5 м. 57 с.Битрейт : 59,9 Мбит/секШирина : 1920 пикселейВысота : 1080 пикселейСоотношение сторон : 16:9Режим частоты кадров : ПеременныйЧастота кадров : 59,940 (60000/1001) кадров/секЧастота кадров в оригинале : 29,970 (30000/1001) кадров/секЦветовое пространство : YUVСубдискретизация насыщенности : 4:2:0Битовая глубина : 8 битТип развёртки : ЧересстрочнаяМетод сохранения типа развёртки : Раздельные поляПорядок развёртки : Верхнее поле первоеБит/(Пиксели*Кадры) : 0.482Размер потока : 2,50 Гбайт (99%)Default : ДаForced : НетЦветовой диапазон : LimitedОсновные цвета : BT.709Характеристики трансфера : BT.709Коэффициенты матрицы : BT.709
АудиоИдентификатор : 2Формат : MPEG AudioВерсия формата : Version 1Профиль формата : Layer 2Идентификатор кодека : A_MPEG/L2Идентификатор кодека/Подсказка : MP2Продолжительность : 5 м. 57 с.Вид битрейта : ПостоянныйБитрейт : 384 Кбит/секКаналы : 2 каналаЧастота : 48,0 КГцЧастота кадров : 41,667 кадра/сек (1152 SPF)Метод сжатия : С потерямиЗадержка видео : 114 мс.Размер потока : 16,4 Мбайт (1%)Язык : EnglishDefault : ДаForced : Нет

Скриншоты

Vi$itReal

Post 03-Sep-2019 20:40

[Quote]

Taylor Swift
BBC Radio 1 Live Lounge


Жанр: Country Pop
Продолжительность: 00:36:16
Год выпуска: 2nd September 2019
Качество: HDTV
Разрешение видео/развертка: 1080i
Контейнер: TS
Видео кодек: H.264
Аудио кодек: AAC
Видео: MPEG4 Video (H264) 1920x1080 25fps 12.2 Mb/s
Аудио: AAC 48000Hz stereo 224kbps

Треклист

Interview
London Boy
Lover
The Archer
Cant Stop Loving You (Phil Collins cover)
Holy Ground
You Need To Clam Down

Отчёт MediaInfo / BDInfo

GeneralID : 1 (0x1)Complete name : F:\Taylor Swift - BBC Radio 1 Live Lounge 2019.tsFormat : MPEG-TSFile size : 3.19 GiBDuration : 36 min 16 sOverall bit rate mode : VariableOverall bit rate : 12.6 Mb/s
VideoID : 100 (0x64)Menu ID : 2 (0x2)Format : AVCFormat/Info : Advanced Video CodecFormat profile : [email protected] settings : CABAC / 2 Ref FramesFormat settings, CABAC : YesFormat settings, RefFrames : 2 framesFormat settings, GOP : M=2, N=12Codec ID : 27Duration : 36 min 16 sWidth : 1 920 pixelsHeight : 1 080 pixelsDisplay aspect ratio : 16:9Frame rate : 25.000 FPSColor space : YUVChroma subsampling : 4:2:0Bit depth : 8 bitsScan type : InterlacedScan type, store method : Separated fieldsScan order : Top Field FirstColor range : LimitedColor primaries : BT.709Transfer characteristics : BT.709Matrix coefficients : BT.709
AudioID : 101 (0x65)Menu ID : 2 (0x2)Format : AAC LCFormat/Info : Advanced Audio Codec Low ComplexityFormat version : Version 4Muxing mode : ADTSCodec ID : 15-2Duration : 36 min 16 sBit rate mode : VariableChannel(s) : 2 channelsChannel layout : L RSampling rate : 48.0 kHzFrame rate : 46.875 FPS (1024 SPF)Compression mode : Lossy

Скриншоты

Мои раздачи ®

Vi$itReal

Post 03-Sep-2019 09:50

[Quote]

Taylor Swift
BBC Radio 1 Live Lounge


Жанр: Country Pop
Продолжительность: 00:36:16
Год выпуска: 2nd September 2019
Качество: Web-DL
Разрешение видео/развертка: 720p
Контейнер: MP4
Видео кодек: H.264
Аудио кодек: AAC
Видео: MPEG4 Video (H264) 1280x720 50fps 5 059 kb/s
Аудио: AAC 48000Hz stereo 127kbps

Треклист

Interview
London Boy
Lover
The Archer
Cant Stop Loving You (Phil Collins cover)
Holy Ground
You Need To Clam Down

Отчёт MediaInfo / BDInfo

GeneralComplete name                  : G:\Taylor Swift - BBC Radio 1 Live Lounge 2019.mp4Format                         : MPEG-4Format profile                 : Base MediaCodec ID                       : isom (isom/iso2/avc1/mp41)File size                      : 1.32 GiBDuration                       : 36 min 16 sOverall bit rate               : 5 195 kb/sWriting application            : Lavf58.26.101
VideoID : 1Format : AVCFormat/Info : Advanced Video CodecFormat profile : [email protected] settings : CABAC / 4 Ref FramesFormat settings, CABAC : YesFormat settings, Reference fra : 4 framesCodec ID : avc3Codec ID/Info : Advanced Video CodingDuration : 36 min 16 sBit rate : 5 059 kb/sWidth : 1 280 pixelsHeight : 720 pixelsDisplay aspect ratio : 16:9Frame rate mode : ConstantFrame rate : 50.000 FPSColor space : YUVChroma subsampling : 4:2:0Bit depth : 8 bitsScan type : ProgressiveBits/(Pixel*Frame) : 0.110Stream size : 1.28 GiB (97%)Color range : LimitedColor primaries : BT.709Transfer characteristics : BT.709Matrix coefficients : BT.709Codec configuration box : avcC
AudioID : 2Format : AAC LCFormat/Info : Advanced Audio Codec Low ComplexityCodec ID : mp4a-40-2Duration : 36 min 16 sBit rate mode : ConstantBit rate : 128 kb/sChannel(s) : 2 channelsChannel layout : L RSampling rate : 48.0 kHzFrame rate : 46.875 FPS (1024 SPF)Compression mode : LossyStream size : 33.2 MiB (2%)Language : EnglishDefault : YesAlternate group : 1

Мои раздачи ®

Vi$itReal

Post 23-Aug-2019 12:45

[Quote]


Taylor Swift


Жанр: Country Pop
Продолжительность: 00:34:36
Год выпуска: 2019
Качество: HDTV
Разрешение видео/развертка: 720p
Контейнер: MKV
Видео кодек: H.264
Аудио кодек: MP2
Видео: MPEG4 Video (H264) 1280x720 59.94fps 13.7 Mb/s
Аудио: MPEG Audio 48000Hz stereo 320kbps

Треклист

Intro
ME!
You Need To Calm Down
Shake It Off
Interview

Отчёт MediaInfo / BDInfo

GeneralUnique ID                      : 132349248522415695671580493224363523540 (0x639189BFEA58B54275D545CF43317DD4)Complete name                  : E:\Taylor Swift - Good Morning America Summer Concert Series (Full) 2019.mkvFormat                         : MatroskaFormat version                 : Version 4File size                      : 3.39 GiBDuration                       : 34 min 35 sOverall bit rate mode          : ConstantOverall bit rate               : 14.0 Mb/sEncoded date                   : UTC 2019-08-22 21:54:12Writing application            : mkvmerge v35.0.0 ('All The Love In The World') 64-bitWriting library                : libebml v1.3.9 + libmatroska v1.5.2
VideoID : 1Format : AVCFormat/Info : Advanced Video CodecFormat profile : [email protected] settings : 2 Ref FramesFormat settings, CABAC : NoFormat settings, Reference fra : 2 framesFormat settings, GOP : M=3, N=12Codec ID : V_MPEG4/ISO/AVCDuration : 34 min 35 sBit rate mode : ConstantBit rate : 13.7 Mb/sWidth : 1 280 pixelsHeight : 720 pixelsDisplay aspect ratio : 16:9Frame rate mode : ConstantFrame rate : 59.940 (60000/1001) FPSColor space : YUVChroma subsampling : 4:2:0Bit depth : 8 bitsScan type : ProgressiveBits/(Pixel*Frame) : 0.248Stream size : 3.32 GiB (98%)Default : YesForced : NoColor range : LimitedColor primaries : BT.709Transfer characteristics : BT.709Matrix coefficients : BT.709
AudioID : 2Format : MPEG AudioFormat version : Version 1Format profile : Layer 2Codec ID : A_MPEG/L2Codec ID/Hint : MP2Duration : 34 min 35 sBit rate mode : ConstantBit rate : 320 kb/sChannel(s) : 2 channelsSampling rate : 48.0 kHzFrame rate : 41.667 FPS (1152 SPF)Compression mode : LossyStream size : 79.2 MiB (2%)Language : EnglishDefault : YesForced : No

Скриншоты

Мои раздачи ®

Vi$itReal

Post 22-Aug-2019 20:30

[Quote]

Taylor Swift - ME! / You Need To Calm Down / Shake It Off | Live @ Good Morning America
Жанр: Pop
Продолжительность: 00:10:33
Год выпуска: 2019
Автор рипа/записи: ilya2129
Запись с канала: ABC 7 HD New York (WABC)
Качество: HDTVRip
Разрешение видео/развертка: 720p
Контейнер: TS
Видео кодек: MPEG2
Аудио кодек: AC3
Видео: MPEG2, 1280x720, 13800kbps, 59.97fps
Аудио: AC3, 384kbps 48000kHz, 6ch

Отчёт MediaInfo / BDInfo

ОбщееИдентификатор                            : 1 (0x1)Полное имя                               : D:\Записи\Taylor Swift Live @ GMA from Central Park.tsФормат                                   : MPEG-TSРазмер файла                             : 1,11 ГбайтПродолжительность                        : 10 м. 33 с.Режим общего битрейта                    : ПеременныйОбщий поток                              : 15,0 Мбит/секНазвание фильма                          : GOOD MORNING AMERICAОграничение по возрасту                  : None
ВидеоИдентификатор : 101 (0x65)Идентификатор меню : 1 (0x1)Формат : MPEG VideoВерсия формата : Version 2Профиль формата : [email protected]Настройки формата : CustomMatrix / BVOPПараметр BVOP формата : ДаПараметр матрицы формата : ВыборочнаяПараметр GOP формата : VariableИдентификатор кодека : 2Продолжительность : 10 м. 33 с.Вид битрейта : ПеременныйБитрейт : 13,8 Мбит/секМаксимальный битрейт : 24,0 Мбит/секШирина : 1280 пикселейВысота : 720 пикселейСоотношение сторон : 16:9Описание активного формата : Letterbox 16:9 imageЧастота кадров : 59,940 (60000/1001) кадров/секЦветовое пространство : YUVСубдискретизация насыщенности : 4:2:0Битовая глубина : 8 битТип развёртки : ПрогрессивнаяМетод сжатия : С потерямиБит/(Пиксели*Кадры) : 0.250Временной код первого кадра : 00:00:00;00Оригинал временного кода : Group of pictures headerGOP, открыто/закрыто : ОткрытоGOP, открыто/закрыто на первом кадре : ЗакрытоРазмер потока : 1,02 Гбайт (92%)
Аудио #1Идентификатор : 7572 (0x1D94)Идентификатор меню : 1 (0x1)Формат : AC-3Формат/Информация : Audio Coding 3Коммерческое название : Dolby DigitalИдентификатор кодека : 129Продолжительность : 10 м. 33 с.Вид битрейта : ПостоянныйБитрейт : 384 Кбит/секКаналы : 6 каналовChannelLayout : L R C LFE Ls RsЧастота : 48,0 КГцЧастота кадров : 31,250 кадров/сек (1536 SPF)Битовая глубина : 16 битМетод сжатия : С потерямиЗадержка видео : 29 мс.Размер потока : 29,0 Мбайт (3%)Язык : EnglishServiceKind/String : Complete Main
Аудио #2Идентификатор : 7573 (0x1D95)Идентификатор меню : 1 (0x1)Формат : AC-3Формат/Информация : Audio Coding 3Коммерческое название : Dolby DigitalИдентификатор кодека : 129Продолжительность : 10 м. 33 с.Вид битрейта : ПостоянныйБитрейт : 96,0 Кбит/секКаналы : 2 каналаChannelLayout : L RЧастота : 48,0 КГцЧастота кадров : 31,250 кадров/сек (1536 SPF)Битовая глубина : 16 битМетод сжатия : С потерямиРазмер потока : 7,25 Мбайт (1%)Язык : SpanishServiceKind/String : Complete Main
Текст #1Идентификатор : 101 (0x65)-CC1Идентификатор меню : 1 (0x1)Формат : EIA-608Режим смешивания : A/53 / DTVCC TransportРежим смешивания, доп. информация : Muxed in Video #1Продолжительность : 10 м. 33 с.Вид битрейта : ПостоянныйРазмер потока : 0,00 байт (0%)CaptionServiceName : CC1
Текст #2Идентификатор : 101 (0x65)-1Идентификатор меню : 1 (0x1)Формат : EIA-708Режим смешивания : A/53 / DTVCC TransportРежим смешивания, доп. информация : Muxed in Video #1Продолжительность : 10 м. 33 с.Вид битрейта : ПостоянныйРазмер потока : 0,00 байт (0%)
Текст #3Идентификатор : 101 (0x65)-5Идентификатор меню : 1 (0x1)Формат : EIA-708Режим смешивания : A/53 / DTVCC TransportРежим смешивания, доп. информация : Muxed in Video #1Продолжительность : 10 м. 33 с.Вид битрейта : ПостоянныйРазмер потока : 0,00 байт (0%)
Текст #4Идентификатор : 101 (0x65)-6Идентификатор меню : 1 (0x1)Формат : EIA-708Режим смешивания : A/53 / DTVCC TransportРежим смешивания, доп. информация : Muxed in Video #1Продолжительность : 10 м. 33 с.Вид битрейта : ПостоянныйРазмер потока : 0,00 байт (0%)

Скриншоты

Vi$itReal

Post 22-Aug-2019 08:35

[Quote]


Taylor Swift


Жанр: Country Pop
Продолжительность: 00:54:34
Год выпуска: 2017
Качество: HDTV
Разрешение видео/развертка: 1080i
Контейнер: TS
Видео кодек: MPEG2
Аудио кодек: AC3
Видео: MPEG2 Video 1920x1080 29.97fps 30.8 Mb/s
Аудио: Dolby AC3 48000Hz 6ch 384kbps

Треклист

New Romantics
Blank Space
I Knew You Were Trouble
I Don’t Wanna Live Forever (Live Worldwide Debut; Acoustic)
You Belong With Me
Red
All Too Well
Bad Blood
Out of the Woods
Shake It Off

Отчёт MediaInfo / BDInfo

GeneralID                             : 1 (0x1)Complete name                  : I:\Taylor Swift - Super Saturday Night 2017.tsFormat                         : MPEG-TSFile size                      : 12.3 GiBDuration                       : 53 min 34 sOverall bit rate mode          : VariableOverall bit rate               : 32.8 Mb/s
VideoID : 256 (0x100)Menu ID : 1 (0x1)Format : MPEG VideoFormat version : Version 2Format profile : [email protected] settings : BVOPFormat settings, BVOP : YesFormat settings, Matrix : DefaultFormat settings, GOP : M=3, N=12Format settings, picture struc : FrameCodec ID : 2Duration : 53 min 34 sBit rate mode : ConstantBit rate : 30.8 Mb/sMaximum bit rate : 30.0 Mb/sWidth : 1 920 pixelsHeight : 1 080 pixelsDisplay aspect ratio : 16:9Frame rate : 29.970 (30000/1001) FPSColor space : YUVChroma subsampling : 4:2:0Bit depth : 8 bitsScan type : InterlacedScan order : Bottom Field FirstCompression mode : LossyBits/(Pixel*Frame) : 0.496Time code of first frame : 00:00:00:00Time code source : Group of pictures headerGOP, Open/Closed : OpenGOP, Open/Closed of first fram : ClosedStream size : 11.5 GiB (94%)
AudioID : 257 (0x101)Menu ID : 1 (0x1)Format : AC-3Format/Info : Audio Coding 3Commercial name : Dolby DigitalCodec ID : 129Duration : 53 min 34 sBit rate mode : ConstantBit rate : 384 kb/sChannel(s) : 6 channelsChannel layout : L R C LFE Ls RsSampling rate : 48.0 kHzFrame rate : 31.250 FPS (1536 SPF)Bit depth : 16 bitsCompression mode : LossyDelay relative to video : -35 msStream size : 147 MiB (1%)Service kind : Complete Main

Мои раздачи ®

Vi$itReal

Post 22-Jul-2019 22:55

[Quote]

Taylor Swift & Ed Sheeran - Everything Has Changed
Жанр: Country pop, folk-pop
Продолжительность: 04:17
Год выпуска: 2013
Качество: Master 1080p
Контейнер: MOV
Видео кодек: ProRes
Аудио кодек: PCM
Видео: ProRes 0, 1920x1080 (16:9), 23.976 fps, 170 Mb/s
Аудио: PCM, 48.0 kHz, 2 ch, 2 304 kb/s

MediaInfo

GeneralComplete name               : T:\master\Taylor Swift & Ed Sheeran - Everything Has Changed.movFormat                      : MPEG-4Format profile              : QuickTimeCodec ID                    : qt   2005.03 (qt  )File size                   : 5.15 GiBDuration                    : 4 min 17 sOverall bit rate mode       : VariableOverall bit rate            : 172 Mb/sEncoded date                : UTC 2017-05-24 12:54:21Tagged date                 : UTC 2017-05-24 13:04:34Writing library             : Apple QuickTime
VideoID : 1Format : ProResFormat version : Version 0Format profile : 422 HQCodec ID : apchDuration : 4 min 17 sBit rate mode : VariableBit rate : 170 Mb/sWidth : 1 920 pixelsHeight : 1 080 pixelsDisplay aspect ratio : 16:9Frame rate mode : ConstantFrame rate : 23.976 (24000/1001) FPSColor space : YUVChroma subsampling : 4:2:2Scan type : ProgressiveBits/(Pixel*Frame) : 3.412Stream size : 5.09 GiB (99%)Writing library : arh0Language : EnglishEncoded date : UTC 2017-05-24 12:54:24Tagged date : UTC 2017-05-24 13:04:34Color primaries : BT.709Transfer characteristics : BT.709Matrix coefficients : BT.709
AudioID : 2Format : PCMFormat settings : Little / SignedCodec ID : in24Duration : 4 min 17 sBit rate mode : ConstantBit rate : 2 304 kb/sChannel(s) : 2 channelsChannel layout : L RSampling rate : 48.0 kHzBit depth : 24 bitsStream size : 70.7 MiB (1%)Language : EnglishEncoded date : UTC 2017-05-24 12:54:24Tagged date : UTC 2017-05-24 13:04:36

Скриншоты


 

Current time is: 08-Dec 18:34

All times are UTC + 3