Search found 301 matches

Author Message

RelizMAN

Post 05-Nov-2019 14:00

[Quote]

Фольклорный ансамбль "Воля" / Чернобровый казаченька
Жанр: Folk
Страна исполнителя (группы): Россия
Год издания: 2010
Аудиокодек: MP3
Тип рипа: tracks
Битрейт аудио: 320 kbps
Продолжительность: 01:10:57
Наличие сканов в содержимом раздачи: да
Треклист:
01. Вот заныло мое ретивое.
02. Где ж ты заинька бегала.
03. Гора Афон, гора святая.
04. Ох, ты гульба.
05. День хожу, а ночь гуляю.
06. Еще чей это садок.
07. Ой, не бела ли зоренька.
08. Как во полюшке.
09. Как по морю было.
10. Когда б я мальчик был свободен.
11. У одного мужика было девять сыновей.
12. Орлик-орел, где ты сполетывал.
13. Стлала полковница мягкие постели.
14. Слобода,наша слободушка.
15. Солнце низко, вечер близко.
16. Ходила, да гуляла Машенька.
17. Цыганские кибитки.
18. Чернобровый казаченька.

Об исполнителе (группе)

Традиционные песни Оренбургских казаков новой линии.
Фольклорный ансамбль "Воля" г. Первоуральск, Свердловская область.

RelizMAN

Post 05-Nov-2019 14:00

[Quote]

Казаки кавказской линии станицы Баклановская / Оседлаю я коня
Жанр: Folk
Страна исполнителя (группы): Россия
Год издания: 2009
Аудиокодек: MP3
Тип рипа: tracks
Битрейт аудио: 320 kbps
Продолжительность: 01:31:06
Наличие сканов в содержимом раздачи: да
Треклист:
01. Христос с учениками.
02. Мимо Раю.
03. Вниз по матушке по Волге.
04. Ва лугах было всё то во лужочку.
05. Выйду я на горушку.
06. Горы закавказские.
07. Да кукушачка,моя душачка.
08. Для каво любовь отрада.
09. Долина моя была долинушка.
10. Из под тучки чёрный дым.
11. Лезгинки.
12. На родимую сторонку.
13. Оседлаю я ж коня.
14. Ой чии то волы.
15. Ой младенький.
16. Осенние ночи.
17. Чарочка моя.
18. Гости милые.
19. Полно вам снежочки.
20. По-над лесом.
21. Да посеяли девки лён.
22. Проснётся день красы моей.
23. Раз пропала ершова голова.
24. Усе утушки, усе серые.
25. Уж рюмочка-чепурушка.
26. Туман яром.
27. Не заря моя зорюшка.

RelizMAN

Post 05-Nov-2019 14:00

[Quote]

Казаки кавказской линии Дагестана / Ой, орел, ты орел
Жанр: Folk
Страна исполнителя (группы): Россия
Год издания: 2009
Аудиокодек: MP3
Тип рипа: tracks
Битрейт аудио: 320 kbps
Продолжительность: 00:55:01
Наличие сканов в содержимом раздачи: да
Треклист:
01. Вся духовная собранья.
02. Прощай наша обитель святая.
03. Братья мой, вы сестры мои.
04. Вот скоро настанет то праздник.
05. Прилетел сокол.
06. Ой, орел ты орел молодой.
07. Как при поле, при долине.
08. Камыш - травка зеленеется.
09. Ветер дует, дождь идет.
10. Ай, во поле мой шатер.
11. Эсминец на рейде у моря стоял.
12. Калина с малиной.
13. А чем я мужу не жена.
14. Ой, вы бабочки.
15. Соловей кукушку уговаривал.
16. Не бойся мальчишка.
17. Ой, раненко, раненко во дворе.

RelizMAN

Post 05-Nov-2019 14:00

[Quote]

Казаки станицы Старопавловская (Ставропольский край) / Оставляли мы станицу
Жанр: Folk
Страна исполнителя (группы): Россия
Год издания: 2009
Аудиокодек: MP3
Тип рипа: tracks
Битрейт аудио: 320 kbps
Продолжительность: 01:34:34
Наличие сканов в содержимом раздачи: да
Треклист:
01. Во пиру я была.
02. Бочечка.
03. Чай пила.
04. Горе моё горе.
05. Ой как братцы надоело.
06. Надоела братцы нам чужая сторона.
07. Жил был Яшка у попа.
08. И кумушки пьють...(свадебн).
09. Как на поле, на полюшке(свадебн.).
10. Как под вишенкою, под череншнкою....
11. На горе высокой(два креста).
12. Невинное сердечко.
13. Ой вы гости мои....
14. Ой да как ходил, тали да гулял....
15. Ой, да мил уехал(свадебн.).
16. Ой, да ты змея.
17. Ой, ты роща моя,ты роща....
18. Ой, что это за верба....
19. Ой,на горе калина стояла.
20. Оставляли мы станицу.
21. По-над лугом идёть шлях-дороженка....
22. Тост.
23. Уговаривал Ванюша(свадебная).
24. Уж ты рюмка-чепурушка....
25. Уж, я пашенку пашу.
26. Шамиля.

RelizMAN

Post 02-Nov-2019 16:40

[Quote]

SEX у нашому селі- Жанр: Фольклор в современной обработке, народная песня, Folklore
Год выпуска диска: 2007
Производитель диска: Украина
Аудио кодек: MP3
Тип рипа: tracks
Битрейт аудио: 160-256 kbps
Продолжительность: 06:11:41

Трэклист

01. Коломийка вітальна [4:38] [256 kbps]
02. Колимийка весільна [5:08] [256 kbps]
03. Зятьок [4:03] [256 kbps]
04. Чорнобривці [5:54] [256 kbps]
05. Запорожець [3:46] [256 kbps]
06. Дика полька [3:57] [256 kbps]
07. Фай-дулі-фай [8:15] [256 kbps]
08. Коломийка 1 [4:37] [256 kbps]
09. Я казала у вивторок [2:28] [160 kbps]
10. Водка без пива [2:32] [160 kbps]
11. Желтое польто [2:52] [160 kbps]
12. А я не женюся [2:58] [256 kbps]
13. Покохала діда [2:55] [256 kbps]
14. Колимийка бойківська [4:20] [256 kbps]
15. Полька - [3:29] [256 kbps]
16. Пісня про [4:24] [256 kbps]
17. Кляті москалі [5:44] [256 kbps]
18. Ламбада у селі [4:33] [256 kbps]
19. Ой, ой мамаша [4:15] [256 kbps]
20. Сало [4:29] [256 kbps]
21. Ти казала вчора [5:12] [256 kbps]
22. Чи я тобі не казав [6:04] [256 kbps]
23. Два миколи [3:26] [256 kbps]
24. Сільськи частівки [5:11] [256 kbps]
25. Гоп-кума [5:26] [256 kbps]
26. Сільська коломийка [4:58] [256 kbps]
27. Ой, на горі високій [4:47] [256 kbps]
28. Ой, ти, галю [3:23] [256 kbps]
29. Коломийка застільна [4:53] [256 kbps]
30. Ти не моя [4:06] [256 kbps]
31. Нафіга [4:16] [256 kbps]
32. Коломийка верховинська [5:29] [256 kbps]
33. Дай рузя, бузя [4:35] [256 kbps]
34. Віть-тьох [3:09] [256 kbps]
35. Pro-фурa [3:26] [256 kbps]
36. Серденько [3:41] [256 kbps]
37. Коломийка 3 [5:51] [256 kbps]
38. Колимийка святкова [4:55] [256 kbps]
39. Женячка [3:55] [256 kbps]
40. Месні пацани [3:02] [256 kbps]
41. Коломийка класична [4:18] [256 kbps]
42. Бомба [3:51] [256 kbps]
43. Тоска [4:16] [256 kbps]
44. Тобі давала, я [3:49] [256 kbps]
45. Лелека [4:02] [256 kbps]
46. Колимийка кавалєрська [6:06] [256 kbps]
47. Цівок [5:01] [256 kbps]
48. Коломийка 2 [5:19] [256 kbps]
49. Бойківськи переспіви [5:07] [256 kbps]
50. Бойківська [3:51] [256 kbps]
51. Чи не пішли би ми [5:33] [256 kbps]
52. Тарабанка [3:41] [256 kbps]
53. Киця [4:27] [256 kbps]
54. Чорнобрива [6:34] [256 kbps]
55. Я молода [4:01] [256 kbps]
56. Бригада [3:37] [256 kbps]
57. Ой, холєра ясна! [3:10] [256 kbps]
58. Гуцульська [4:02] [256 kbps]
59. Тра-та-та [3:59] [256 kbps]
60. Накалатав [3:26] [256 kbps]
61. Маруся [3:00] [256 kbps]
62. Моргает [2:52] [160 kbps]
63. Нло [2:16] [160 kbps]
64. Кума [5:11] [256 kbps]
65. Ода пиву [4:35] [256 kbps]
66. Я люблю [3:36] [256 kbps]
67. Коломийка лемківська [5:04] [256 kbps]
68. Колимийка гуцульска [4:21] [256 kbps]
69. Колимийка про шнурок [4:18] [256 kbps]
70. Їхав івась на коні [2:49] [160 kbps]
71. А ти страшна [3:00] [160 kbps]
72. Червона ружа [3:12] [160 kbps]
73. Коломийка молдованська [5:32] [160 kbps]
74. Весільні переспівки [4:29] [160 kbps]
75. А я жінка пишнотіла [3:33] [160 kbps]
76. Ой, хто пьє, тому наливайте! [3:05] [160 kbps]
77. Ой, на горі стоїть хата [3:26] [160 kbps]
78. Не бійся, мила [4:16] [160 kbps]
79. Столичний гімн [6:06] [160 kbps]
80. Дай похмэлытыся [3:00] [160 kbps]
81. Почему я без баяна [3:31] [160 kbps]
82. Свадебная [3:01] [160 kbps]
83. Собака пся [2:26] [160 kbps]
84. Не забувайтэ пысять перед сном [2:01] [160 kbps]
85. Зпиймаю стрекозу [1:33] [160 kbps]
86. Ая шла шла шла [3:25] [160 kbps]
87. Первомай [4:47] [160 kbps]
88. Хочеш солнце в апельсинах [2:20] [160 kbps]
89. Веселье новогоднее [2:23] [160 kbps]
90. Запорожець [2:50] [160 kbps]
91. Упал отжался [2:31] [160 kbps]

RelizMAN

Post 02-Nov-2019 15:35

[Quote]

SEX у нашому селі
Жанр: Folk, Народная песня
Страна исполнителя (группы): Украина
Год издания: 2006
Аудиокодек: MP3
Тип рипа: tracks
Битрейт аудио: 224 kbps
Продолжительность: 07:07:52
Наличие сканов в содержимом раздачи: нет

Треклист

01. Ой, холера ясна (03:11)
02. Висить вiн тай висить (04:21)
03. Чи не пiшли би ми (05:36)
04. Пий, гуляй (05:02)
05. Пicня про коника (04:34)
06. Не дам (04:20)
07. А ти страшна (03:01)
08. Ой на горі високій (04:47)
09. Сільскі частівки (05:12)
10. Ой, ти галю (03:23)
11. Накалатав (03:27)
12. Пiсня про (04:25)
13. Фай-дулі-фай (08:16)
14. Я не дам (04:11)
15. Тобі, давала я (03:50)
16. Дай, рузя бузя (04:35)
17. Киця (04:27)
18. Ода пиву (04:36)
19. Марусю, чом (04:59)
20. Нафіга (04:16)
21. Їхав василь (02:51)
22. А я жінка пишнотіла (03:33)
23. Бойківська (03:52)
24. Виноград (04:31)
25. Гарбузи (03:23)
26. Дика полька (03:57)
27. Забава (04:15)
28. Кума (05:11)
29. Лелека (04:03)
30. Месні пацани (03:02)
31. Не бійся, мила (04:15)
32. Ой, ой мамашо (04:16)
33. Прийде кум на кутю (03:13)
34. Сало (04:29)
35. Тарабайка (03:41)
36. Сім сорок (03:51)
37. Ти казала вчора (05:13)
38. Тра-та-та (03:59)
39. У клубi танцi (03:36)
40. Pro-фура (03:26)
41. А я люблю тую бабу (03:51)
42. Весiльнi дружки (03:34)
43. Гімн поліцая (03:56)
44. А я не женюся (02:58)
45. Бригада (03:35)
46. Дай кума (05:02)
47. Женячка (03:56)
48. Зятьок (04:02)
49. Канада (04:00)
50. Весiльна полька (05:07)
51. А козак є козак (03:08)
52. Весільні переспівки (04:29)
53. Гоп! ца-ца! (03:43)
54. Вьить-тьох (03:09)
55. Два миколи (03:26)
56. Їхав івась на коні (02:49)
57. Кляті москалі (05:45)
58. Гоп-кума (05:26)
59. Катерина (04:13)
60. Ламбада у селі (04:34)
61. Гуцульска (04:02)
62. Запорожець (03:46)
63. Їде дідо вгорі селом (03:16)
64. Коломийка (04:38)
65. Коломийка 2 (05:19)
66. Коломийка 3 (05:51)
67. Коломийка 4 (03:57)
68. Коломийка бойківська (04:21)
69. Коломийка весільна (05:09)
70. Коломийка гуцульска (04:21)
71. Коломийка кавальєрова (06:07)
72. Коломийка класична (04:18)
73. Коломийка святкова (04:56)
74. Курочка риженька (02:54)
75. Любов (05:45)
76. Молдавська коломийка (05:34)
77. Ой, ріда (02:38)
78. Пташка (05:19)
79. Сільска коломийка (04:59)
80. Теплий дощ (05:18)
81. Стара баба (03:41)
82. Столичний гімн (06:07)
83. Маруся (03:00)
84. Ой, кум та кума (04:07)
85. Серденько (03:41)
86. Тракторист толя (02:50)
87. Чари (03:12)
88. Фірманка (05:12)
89. Чи я тобі не казав (06:05)
90. Я молода (04:01)
91. Чорнобрива (06:35)
92. Як даси кума будеш (03:14)
93. Ти не моя (04:07)
94. Покохала діда (02:56)
95. Три дубки (02:43)
96. Чорнобривці (05:55)
97. Як поїхав молдаван (03:24)
98. Самогон (05:28)
99. Цівок (05:01)
100. Тоска (04:16)
Доп. информация: Сборка Украинских фольклёрных частушек

RelizMAN

Post 05-Oct-2019 22:45

[Quote]

МЫ СЛАВЯНЕ ! 20. ЧехоСловацкое издание 2. / JSME SLOVANÉ ! 20. ČeskoSlovenská edice 2. / SME SLOVANIA ! 20. ČeskoSlovenská edícia 2.
Жанр: ЧехоСловацкая музыка, Славянская музыка
Страна исполнителя (группы): Славия / Родина-мать / Славянский союз
Год издания: 2019
Аудиокодек: MP3
Тип рипа: tracks
Битрейт аудио: 320 kbps
Продолжительность: 01:56:26
Наличие сканов в содержимом раздачи: да
Треклист:
00. úvod 1. _ Krátky Proces - Perúnov ľud (Slovensko)
00. úvod 2. _ Slovanský folklórny súbor - Slovensko moje, otčina moja (Slovensko)
01. Citron a Tublatanka - Silní a nezlomní (ČeskoSlovensko)
02. Buty - Státní hymna (Morava, Sliezsko)
03. Ondrej Ďurica - Ruskí vojaci (Slovensko)
04. Karel Gott - ČeskoMoravská suita (Česká republika)
05. Miroslav Žbirka, Marika Gombitová, Marie Rottrová - Tri slová (ČeskoSlovensko)
06. Rôzni umelci - Cizí zeď (ČeskoSlovensko)
07. Janka Kozáková - Ja sa mám (Slovensko)
08. Chinaski - Vakuum (Česká republika)
09. Katarína Knechtová - Muoj bože (Slovensko)
10. Michal Malátný a Ivan Tásler - Hoří Hollywood (ČeskoSlovensko)
11. Karel Gott (Česká republika) - Išel Macek (Hej, Macejko) (Slovenská)
12. Lucia Šoralová - Pocta Majakovskému (Slovensko)
13. Iconito a Zlaté Husle - Slovenské Devy (Slovensko)
14. Ondrej Ďurica a Bruno - Odysea (ČeskoSlovensko)
15. Peter Dvorský - Pieseň o rodnej zemi (Slovensko)
16. Chinaski a Imt smile - Osud (ČeskoSlovensko)
17. Desmod - V dolinách (Slovensko)
18. Kollárovci - Na Kráľovej holi (Slovensko)
19. Victorious, Ricco, Claudia a Kali - Slovák (Sloven) som! (Slovensko)
20. Sima Martausová  - Normálny život (Slovensko)
21. Veronika Rabadová - Husičky (Slovensko)
22. Horkýže Slíže - Nazdar !!! (Slovensko)
23. Michal Dočolomanský a deti - Zima na saniach (Slovensko)
24. Miloš Hladký - Slovenská (Slovensko)
25. Kristián Dufinec a Iconito - Chcem zmenu (Vystúpme z tieňa) (Slovensko)
26. Sloveni - Nad Tatrou sa blýska na lepšie časy (Slovensko)
27. Chiki Liki Tu-a - Láska moja de si (Slovensko)
28. Darinka Rolincová - Cesta do rozprávky (Slovensko)
29. Fermata - Spomienky na Veľkú Tartáriu (Slovensko)
30. Darinka Rolincová - Anjelik môj (Slovensko)
31. Juraj Podmanický - Sloboda (Slovensko)
32. Ars Antiqua - Dobrú noc má milá, dobrú noc (Slovenská)
33. záver_ František List - Slavimo slavno Slaveni! (Slovensko)

Audioinfo:

скрытый текст

Полное имя : Jsme Slované ! ČeskosLOVEnská edice 2. 2019 Mp3\00. úvod 1. _ Krátky Proces - Perúnov ľud (Slovensko).mp3
Формат : MPEG Audio
Размер файла : 3,25 MiB
Продолжительность : 1 min 25 sek.
Режим общего битрейта : Konštantný dátový tok
Общий поток : 320 kb/s
Трек : Perúnov ľud
Исполнитель : Krátky Proces
Дата записи : 2019
Библиотека кодирования : LAME3.82
Audio
Формат : MPEG Audio
Версия формата : Version 1
Профиль формата : Layer 3
Продолжительность : 1 min 25 sek.
Вид битрейта : Konštantný dátový tok
Битрейт : 320 kb/s
Каналы : 2 kanály
Частота : 44,1 kHz
Частота кадров : 38,281 snímok/sek. (1152 SPF)
Размер потока : 3,25 MiB (100%)
Библиотека кодирования : LAME3.82
Hlavné parametre
Полное имя : Jsme Slované ! ČeskosLOVEnská edice 2. 2019 Mp3\00. úvod 2. _ Slovanský folklórny súbor - Slovensko moje, otčina moja (Slovensko).mp3
Формат : MPEG Audio
Размер файла : 1,70 MiB
Продолжительность : 44 sek. 512 ms
Режим общего битрейта : Konštantný dátový tok
Общий поток : 320 kb/s
Трек : Slovensko moje, otčina moja
Исполнитель : Slovanský folklórny súbor
Дата записи : 2019
Библиотека кодирования : LAME3.82
Audio
Формат : MPEG Audio
Версия формата : Version 1
Профиль формата : Layer 3
Продолжительность : 44 sek. 512 ms
Вид битрейта : Konštantný dátový tok
Битрейт : 320 kb/s
Каналы : 2 kanály
Частота : 44,1 kHz
Частота кадров : 38,281 snímok/sek. (1152 SPF)
Размер потока : 1,70 MiB (100%)
Библиотека кодирования : LAME3.82
Hlavné parametre
Полное имя : Jsme Slované ! ČeskosLOVEnská edice 2. 2019 Mp3\01. Citron a Tublatanka - Silní a nezlomní (ČeskoSlovensko).mp3
Формат : MPEG Audio
Размер файла : 10,6 MiB
Продолжительность : 4 min 37 sek.
Режим общего битрейта : Konštantný dátový tok
Общий поток : 320 kb/s
Трек : Silní a nezlomní
Исполнитель : Citron a Tublatanka
Дата записи : 2019
Библиотека кодирования : LAME3.99r
Audio
Формат : MPEG Audio
Версия формата : Version 1
Профиль формата : Layer 3
Настройки формата : Joint stereo
Продолжительность : 4 min 37 sek.
Вид битрейта : Konštantný dátový tok
Битрейт : 320 kb/s
Каналы : 2 kanály
Частота : 44,1 kHz
Частота кадров : 38,281 snímok/sek. (1152 SPF)
Размер потока : 10,6 MiB (100%)
Библиотека кодирования : LAME3.99r
Настройки программы : -m j -V 4 -q 3 -lowpass 20.5
Hlavné parametre
Полное имя : Jsme Slované ! ČeskosLOVEnská edice 2. 2019 Mp3\02. Buty - Státní hymna (Morava, Sliezsko).mp3
Формат : MPEG Audio
Размер файла : 3,75 MiB
Продолжительность : 1 min 38 sek.
Режим общего битрейта : Konštantný dátový tok
Общий поток : 320 kb/s
Трек : Státní hymna
Исполнитель : Buty
Дата записи : 2019
Библиотека кодирования : LAME3.82
Audio
Формат : MPEG Audio
Версия формата : Version 1
Профиль формата : Layer 3
Продолжительность : 1 min 38 sek.
Вид битрейта : Konštantný dátový tok
Битрейт : 320 kb/s
Каналы : 2 kanály
Частота : 44,1 kHz
Частота кадров : 38,281 snímok/sek. (1152 SPF)
Размер потока : 3,75 MiB (100%)
Библиотека кодирования : LAME3.82
Hlavné parametre
Полное имя : Jsme Slované ! ČeskosLOVEnská edice 2. 2019 Mp3\03. Ondrej Ďurica - Ruskí vojaci (Slovensko).mp3
Формат : MPEG Audio
Размер файла : 7,14 MiB
Продолжительность : 3 min 7 sek.
Режим общего битрейта : Konštantný dátový tok
Общий поток : 320 kb/s
Трек : Ruskí vojaci
Исполнитель : Ondrej Ďurica
Дата записи : 2019
Библиотека кодирования : LAME3.82
Audio
Формат : MPEG Audio
Версия формата : Version 1
Профиль формата : Layer 3
Продолжительность : 3 min 7 sek.
Вид битрейта : Konštantný dátový tok
Битрейт : 320 kb/s
Каналы : 2 kanály
Частота : 44,1 kHz
Частота кадров : 38,281 snímok/sek. (1152 SPF)
Размер потока : 7,14 MiB (100%)
Библиотека кодирования : LAME3.82
Hlavné parametre
Полное имя : Jsme Slované ! ČeskosLOVEnská edice 2. 2019 Mp3\04. Karel Gott - ČeskoMoravská suita (Česká republika).mp3
Формат : MPEG Audio
Размер файла : 10,1 MiB
Продолжительность : 4 min 24 sek.
Режим общего битрейта : Konštantný dátový tok
Общий поток : 320 kb/s
Трек : ČeskoMoravská suita
Исполнитель : Karel Gott
Дата записи : 2019
Библиотека кодирования : LAME3.82UUUUUU< R³Ò
Audio
Формат : MPEG Audio
Версия формата : Version 1
Профиль формата : Layer 3
Продолжительность : 4 min 24 sek.
Вид битрейта : Konštantný dátový tok
Битрейт : 320 kb/s
Каналы : 2 kanály
Частота : 44,1 kHz
Частота кадров : 38,281 snímok/sek. (1152 SPF)
Размер потока : 10,1 MiB (100%)
Библиотека кодирования : LAME3.82UUUUUU< R³Ò
Hlavné parametre
Полное имя : Jsme Slované ! ČeskosLOVEnská edice 2. 2019 Mp3\05. Miroslav Žbirka, Marika Gombitová, Marie Rottrová - Tri slová (ČeskoSlovensko).mp3
Формат : MPEG Audio
Размер файла : 7,02 MiB
Продолжительность : 3 min 4 sek.
Режим общего битрейта : Konštantný dátový tok
Общий поток : 320 kb/s
Трек : Tri slová
Исполнитель : Miroslav Žbirka, Marika Gombitová, Marie Rottrová
Дата записи : 2019
Библиотека кодирования : LAMEUP
Audio
Формат : MPEG Audio
Версия формата : Version 1
Профиль формата : Layer 3
Продолжительность : 3 min 4 sek.
Вид битрейта : Konštantný dátový tok
Битрейт : 320 kb/s
Каналы : 2 kanály
Частота : 44,1 kHz
Частота кадров : 38,281 snímok/sek. (1152 SPF)
Размер потока : 7,02 MiB (100%)
Библиотека кодирования : LAMEUP
Hlavné parametre
Полное имя : Jsme Slované ! ČeskosLOVEnská edice 2. 2019 Mp3\06. Rôzni umelci - Cizí zeď (ČeskoSlovensko).mp3
Формат : MPEG Audio
Размер файла : 6,80 MiB
Продолжительность : 2 min 58 sek.
Режим общего битрейта : Konštantný dátový tok
Общий поток : 320 kb/s
Трек : Cizí zeď
Исполнитель : Rôzni umelci
Дата записи : 2019
Библиотека кодирования : LAME3.82
Audio
Формат : MPEG Audio
Версия формата : Version 1
Профиль формата : Layer 3
Продолжительность : 2 min 58 sek.
Вид битрейта : Konštantný dátový tok
Битрейт : 320 kb/s
Каналы : 2 kanály
Частота : 48,0 kHz
Частота кадров : 41,667 snímok/sek. (1152 SPF)
Размер потока : 6,80 MiB (100%)
Библиотека кодирования : LAME3.82
Hlavné parametre
Полное имя : Jsme Slované ! ČeskosLOVEnská edice 2. 2019 Mp3\07. Janka Kozáková - Ja sa mám (Slovensko).mp3
Формат : MPEG Audio
Размер файла : 6,37 MiB
Продолжительность : 2 min 46 sek.
Режим общего битрейта : Konštantný dátový tok
Общий поток : 320 kb/s
Трек : Ja sa mám
Исполнитель : Janka Kozáková
Дата записи : 2019
Библиотека кодирования : LAME3.82
BPM : 108
Audio
Формат : MPEG Audio
Версия формата : Version 1
Профиль формата : Layer 3
Продолжительность : 2 min 46 sek.
Вид битрейта : Konštantný dátový tok
Битрейт : 320 kb/s
Каналы : 2 kanály
Частота : 44,1 kHz
Частота кадров : 38,281 snímok/sek. (1152 SPF)
Размер потока : 6,37 MiB (100%)
Библиотека кодирования : LAME3.82
Hlavné parametre
Полное имя : Jsme Slované ! ČeskosLOVEnská edice 2. 2019 Mp3\08. Chinaski - Vakuum (Česká republika).mp3
Формат : MPEG Audio
Размер файла : 9,39 MiB
Продолжительность : 4 min 6 sek.
Режим общего битрейта : Konštantný dátový tok
Общий поток : 320 kb/s
Трек : Vakuum
Исполнитель : Chinaski
Дата записи : 2019
Библиотека кодирования : LAME3.82
Audio
Формат : MPEG Audio
Версия формата : Version 1
Профиль формата : Layer 3
Продолжительность : 4 min 6 sek.
Вид битрейта : Konštantný dátový tok
Битрейт : 320 kb/s
Каналы : 2 kanály
Частота : 44,1 kHz
Частота кадров : 38,281 snímok/sek. (1152 SPF)
Размер потока : 9,39 MiB (100%)
Библиотека кодирования : LAME3.82
Hlavné parametre
Полное имя : Jsme Slované ! ČeskosLOVEnská edice 2. 2019 Mp3\09. Katarína Knechtová - Muoj bože (Slovensko).mp3
Формат : MPEG Audio
Размер файла : 8,71 MiB
Продолжительность : 3 min 48 sek.
Режим общего битрейта : Konštantný dátový tok
Общий поток : 320 kb/s
Трек : Muoj bože
Исполнитель : Katarína Knechtová
Дата записи : 2019
Библиотека кодирования : LAME3.82
Audio
Формат : MPEG Audio
Версия формата : Version 1
Профиль формата : Layer 3
Продолжительность : 3 min 48 sek.
Вид битрейта : Konštantný dátový tok
Битрейт : 320 kb/s
Каналы : 2 kanály
Частота : 44,1 kHz
Частота кадров : 38,281 snímok/sek. (1152 SPF)
Размер потока : 8,71 MiB (100%)
Библиотека кодирования : LAME3.82
Hlavné parametre
Полное имя : Jsme Slované ! ČeskosLOVEnská edice 2. 2019 Mp3\10. Michal Malátný a Ivan Tásler - Hoří Hollywood (ČeskoSlovensko).mp3
Формат : MPEG Audio
Размер файла : 9,42 MiB
Продолжительность : 4 min 7 sek.
Режим общего битрейта : Konštantný dátový tok
Общий поток : 320 kb/s
Трек : Hoří Hollywood
Исполнитель : Michal Malátný a Ivan Tásler
Дата записи : 2019
Библиотека кодирования : LAME3.82ªªªªªªª2§ÐÂÆ
Audio
Формат : MPEG Audio
Версия формата : Version 1
Профиль формата : Layer 3
Продолжительность : 4 min 7 sek.
Вид битрейта : Konštantný dátový tok
Битрейт : 320 kb/s
Каналы : 2 kanály
Частота : 44,1 kHz
Частота кадров : 38,281 snímok/sek. (1152 SPF)
Размер потока : 9,42 MiB (100%)
Библиотека кодирования : LAME3.82ªªªªªªª2§ÐÂÆ
Hlavné parametre
Полное имя : Jsme Slované ! ČeskosLOVEnská edice 2. 2019 Mp3\11. Karel Gott (Česká republika) - Išel Macek (Hej, Macejko) (Slovenská).mp3
Формат : MPEG Audio
Размер файла : 4,91 MiB
Продолжительность : 2 min 8 sek.
Режим общего битрейта : Konštantný dátový tok
Общий поток : 320 kb/s
Трек : Išel Macek (Hej, Macejko)
Исполнитель : Karel Gott
Дата записи : 2019
Библиотека кодирования : LAME3.82
Audio
Формат : MPEG Audio
Версия формата : Version 1
Профиль формата : Layer 3
Продолжительность : 2 min 8 sek.
Вид битрейта : Konštantný dátový tok
Битрейт : 320 kb/s
Каналы : 2 kanály
Частота : 44,1 kHz
Частота кадров : 38,281 snímok/sek. (1152 SPF)
Размер потока : 4,91 MiB (100%)
Библиотека кодирования : LAME3.82
Hlavné parametre
Полное имя : Jsme Slované ! ČeskosLOVEnská edice 2. 2019 Mp3\12. Lucia Šoralová - Pocta Majakovskému (Slovensko).mp3
Формат : MPEG Audio
Размер файла : 11,6 MiB
Продолжительность : 5 min 3 sek.
Режим общего битрейта : Konštantný dátový tok
Общий поток : 320 kb/s
Трек : Pocta Majakovskému
Исполнитель : Lucia Šoralová
Дата записи : 2019
Библиотека кодирования : LAME3.82
Audio
Формат : MPEG Audio
Версия формата : Version 1
Профиль формата : Layer 3
Продолжительность : 5 min 3 sek.
Вид битрейта : Konštantný dátový tok
Битрейт : 320 kb/s
Каналы : 2 kanály
Частота : 44,1 kHz
Частота кадров : 38,281 snímok/sek. (1152 SPF)
Размер потока : 11,6 MiB (100%)
Библиотека кодирования : LAME3.82
Hlavné parametre
Полное имя : Jsme Slované ! ČeskosLOVEnská edice 2. 2019 Mp3\13. Iconito a Zlaté Husle - Slovenské Devy (Slovensko).mp3
Формат : MPEG Audio
Размер файла : 7,80 MiB
Продолжительность : 3 min 24 sek.
Режим общего битрейта : Konštantný dátový tok
Общий поток : 320 kb/s
Трек : Slovenské Devy
Исполнитель : Iconito a Zlaté Husle
Дата записи : 2019
Библиотека кодирования : LAME3.82
Audio
Формат : MPEG Audio
Версия формата : Version 1
Профиль формата : Layer 3
Продолжительность : 3 min 24 sek.
Вид битрейта : Konštantný dátový tok
Битрейт : 320 kb/s
Каналы : 2 kanály
Частота : 44,1 kHz
Частота кадров : 38,281 snímok/sek. (1152 SPF)
Размер потока : 7,80 MiB (100%)
Библиотека кодирования : LAME3.82
Hlavné parametre
Полное имя : Jsme Slované ! ČeskosLOVEnská edice 2. 2019 Mp3\14. Ondrej Ďurica a Bruno - Odysea (ČeskoSlovensko).mp3
Формат : MPEG Audio
Размер файла : 11,0 MiB
Продолжительность : 4 min 49 sek.
Режим общего битрейта : Konštantný dátový tok
Общий поток : 320 kb/s
Трек : Odysea
Исполнитель : Ondrej Ďurica a Bruno
Дата записи : 2019
Библиотека кодирования : LAME3.99.5
Audio
Формат : MPEG Audio
Версия формата : Version 1
Профиль формата : Layer 3
Настройки формата : Joint stereo / MS Stereo
Продолжительность : 4 min 49 sek.
Вид битрейта : Konštantný dátový tok
Битрейт : 320 kb/s
Каналы : 2 kanály
Частота : 48,0 kHz
Частота кадров : 41,667 snímok/sek. (1152 SPF)
Размер потока : 11,0 MiB (100%)
Библиотека кодирования : LAME3.99.5
Hlavné parametre
Полное имя : Jsme Slované ! ČeskosLOVEnská edice 2. 2019 Mp3\15. Peter Dvorský - Pieseň o rodnej zemi (Slovensko).mp3
Формат : MPEG Audio
Размер файла : 7,62 MiB
Продолжительность : 3 min 19 sek.
Режим общего битрейта : Konštantný dátový tok
Общий поток : 320 kb/s
Трек : Pieseň o rodnej zemi (spev Peter Dvorský)
Исполнитель : Gejza Dusík
Дата записи : 2019
Библиотека кодирования : LAME3.82
Audio
Формат : MPEG Audio
Версия формата : Version 1
Профиль формата : Layer 3
Продолжительность : 3 min 19 sek.
Вид битрейта : Konštantný dátový tok
Битрейт : 320 kb/s
Каналы : 2 kanály
Частота : 44,1 kHz
Частота кадров : 38,281 snímok/sek. (1152 SPF)
Размер потока : 7,62 MiB (100%)
Библиотека кодирования : LAME3.82
Hlavné parametre
Полное имя : Jsme Slované ! ČeskosLOVEnská edice 2. 2019 Mp3\16. Chinaski a Imt smile - Osud (ČeskoSlovensko).mp3
Формат : MPEG Audio
Размер файла : 9,95 MiB
Продолжительность : 4 min 20 sek.
Режим общего битрейта : Konštantný dátový tok
Общий поток : 320 kb/s
Трек : Osud
Исполнитель : Chinaski a Imt smile
Кодирование произвёл : Switch Free Home Version © NCH Software
Дата записи : 1001
Библиотека кодирования : LAME3.82
Audio
Формат : MPEG Audio
Версия формата : Version 1
Профиль формата : Layer 3
Продолжительность : 4 min 20 sek.
Вид битрейта : Konštantný dátový tok
Битрейт : 320 kb/s
Каналы : 2 kanály
Частота : 44,1 kHz
Частота кадров : 38,281 snímok/sek. (1152 SPF)
Размер потока : 9,95 MiB (100%)
Библиотека кодирования : LAME3.82
Hlavné parametre
Полное имя : Jsme Slované ! ČeskosLOVEnská edice 2. 2019 Mp3\17. Desmod - V dolinách (Slovensko).mp3
Формат : MPEG Audio
Размер файла : 7,69 MiB
Продолжительность : 3 min 21 sek.
Режим общего битрейта : Konštantný dátový tok
Общий поток : 320 kb/s
Трек : V dolinách
Исполнитель : Desmod
Дата записи : 2019
Библиотека кодирования : LAME3.82ªªªªªªªªpD8
Audio
Формат : MPEG Audio
Версия формата : Version 1
Профиль формата : Layer 3
Продолжительность : 3 min 21 sek.
Вид битрейта : Konštantný dátový tok
Битрейт : 320 kb/s
Каналы : 2 kanály
Частота : 44,1 kHz
Частота кадров : 38,281 snímok/sek. (1152 SPF)
Размер потока : 7,69 MiB (100%)
Библиотека кодирования : LAME3.82ªªªªªªªªpD8
Hlavné parametre
Полное имя : Jsme Slované ! ČeskosLOVEnská edice 2. 2019 Mp3\18. Kollárovci - Na Kráľovej holi (Slovensko).mp3
Формат : MPEG Audio
Размер файла : 8,54 MiB
Продолжительность : 3 min 43 sek.
Режим общего битрейта : Konštantný dátový tok
Общий поток : 320 kb/s
Трек : Na Kráľovej holi
Исполнитель : Kollárovci
Дата записи : 2019
Библиотека кодирования : LAME3.82
BPM : 168
Audio
Формат : MPEG Audio
Версия формата : Version 1
Профиль формата : Layer 3
Продолжительность : 3 min 43 sek.
Вид битрейта : Konštantný dátový tok
Битрейт : 320 kb/s
Каналы : 2 kanály
Частота : 44,1 kHz
Частота кадров : 38,281 snímok/sek. (1152 SPF)
Размер потока : 8,54 MiB (100%)
Библиотека кодирования : LAME3.82
Hlavné parametre
Полное имя : Jsme Slované ! ČeskosLOVEnská edice 2. 2019 Mp3\19. Victorious, Ricco, Claudia a Kali - Slovák (Sloven) som! (Slovensko).mp3
Формат : MPEG Audio
Размер файла : 9,62 MiB
Продолжительность : 4 min 12 sek.
Режим общего битрейта : Konštantný dátový tok
Общий поток : 320 kb/s
Трек : Slovák (Sloven) som!
Исполнитель : Victorious, Ricco, Claudia a Kali
Дата записи : 2019
Библиотека кодирования : LAME3.82
Audio
Формат : MPEG Audio
Версия формата : Version 1
Профиль формата : Layer 3
Продолжительность : 4 min 12 sek.
Вид битрейта : Konštantný dátový tok
Битрейт : 320 kb/s
Каналы : 2 kanály
Частота : 44,1 kHz
Частота кадров : 38,281 snímok/sek. (1152 SPF)
Размер потока : 9,62 MiB (100%)
Библиотека кодирования : LAME3.82
Hlavné parametre
Полное имя : Jsme Slované ! ČeskosLOVEnská edice 2. 2019 Mp3\20. Sima Martausová  - Normálny život (Slovensko).mp3
Формат : MPEG Audio
Размер файла : 6,23 MiB
Продолжительность : 2 min 43 sek.
Режим общего битрейта : Konštantný dátový tok
Общий поток : 320 kb/s
Трек : Normálny život
Исполнитель : Sima Martausová
Дата записи : 2019
Библиотека кодирования : LAME3.82
Audio
Формат : MPEG Audio
Версия формата : Version 1
Профиль формата : Layer 3
Продолжительность : 2 min 43 sek.
Вид битрейта : Konštantný dátový tok
Битрейт : 320 kb/s
Каналы : 2 kanály
Частота : 44,1 kHz
Частота кадров : 38,281 snímok/sek. (1152 SPF)
Размер потока : 6,23 MiB (100%)
Библиотека кодирования : LAME3.82
Hlavné parametre
Полное имя : Jsme Slované ! ČeskosLOVEnská edice 2. 2019 Mp3\21. Veronika Rabadová - Husičky (Slovensko).mp3
Формат : MPEG Audio
Размер файла : 7,96 MiB
Продолжительность : 3 min 28 sek.
Режим общего битрейта : Konštantný dátový tok
Общий поток : 320 kb/s
Трек : Husičky
Исполнитель : Veronika Rabadová
Дата записи : 2019
Библиотека кодирования : LAME3.82ªªªªªªªªªªª1
Audio
Формат : MPEG Audio
Версия формата : Version 1
Профиль формата : Layer 3
Продолжительность : 3 min 28 sek.
Вид битрейта : Konštantný dátový tok
Битрейт : 320 kb/s
Каналы : 2 kanály
Частота : 44,1 kHz
Частота кадров : 38,281 snímok/sek. (1152 SPF)
Размер потока : 7,95 MiB (100%)
Библиотека кодирования : LAME3.82ªªªªªªªªªªª1
Hlavné parametre
Полное имя : Jsme Slované ! ČeskosLOVEnská edice 2. 2019 Mp3\22. Horkýže Slíže - Nazdar !!! (Slovensko).mp3
Формат : MPEG Audio
Размер файла : 6,55 MiB
Продолжительность : 2 min 51 sek.
Режим общего битрейта : Konštantný dátový tok
Общий поток : 320 kb/s
Трек : Nazdar!!!
Исполнитель : Horkýže Slíže
Дата записи : 2019
Библиотека кодирования : LAME3.82
Audio
Формат : MPEG Audio
Версия формата : Version 1
Профиль формата : Layer 3
Продолжительность : 2 min 51 sek.
Вид битрейта : Konštantný dátový tok
Битрейт : 320 kb/s
Каналы : 2 kanály
Частота : 44,1 kHz
Частота кадров : 38,281 snímok/sek. (1152 SPF)
Размер потока : 6,55 MiB (100%)
Библиотека кодирования : LAME3.82
Hlavné parametre
Полное имя : Jsme Slované ! ČeskosLOVEnská edice 2. 2019 Mp3\23. Michal Dočolomanský a deti - Zima na saniach (Slovensko).mp3
Формат : MPEG Audio
Размер файла : 8,22 MiB
Продолжительность : 3 min 35 sek.
Режим общего битрейта : Konštantný dátový tok
Общий поток : 320 kb/s
Трек : Zima na saniach
Исполнитель : Michal Dočolomanský a deti
Дата записи : 2019
Библиотека кодирования : LAME3.82UUUUUUUU€
Audio
Формат : MPEG Audio
Версия формата : Version 1
Профиль формата : Layer 3
Продолжительность : 3 min 35 sek.
Вид битрейта : Konštantný dátový tok
Битрейт : 320 kb/s
Каналы : 2 kanály
Частота : 44,1 kHz
Частота кадров : 38,281 snímok/sek. (1152 SPF)
Размер потока : 8,22 MiB (100%)
Библиотека кодирования : LAME3.82UUUUUUUU€
Hlavné parametre
Полное имя : Jsme Slované ! ČeskosLOVEnská edice 2. 2019 Mp3\24. Miloš Hladký - Slovenská (Slovensko).mp3
Формат : MPEG Audio
Размер файла : 9,94 MiB
Продолжительность : 4 min 20 sek.
Режим общего битрейта : Konštantný dátový tok
Общий поток : 320 kb/s
Трек : Slovenská
Исполнитель : Miloš Hladký
Кодирование произвёл : FairStars Soft
Дата записи : 2019
Библиотека кодирования : LAME3.82
Audio
Формат : MPEG Audio
Версия формата : Version 1
Профиль формата : Layer 3
Продолжительность : 4 min 20 sek.
Вид битрейта : Konštantný dátový tok
Битрейт : 320 kb/s
Каналы : 2 kanály
Частота : 44,1 kHz
Частота кадров : 38,281 snímok/sek. (1152 SPF)
Размер потока : 9,94 MiB (100%)
Библиотека кодирования : LAME3.82
Hlavné parametre
Полное имя : Jsme Slované ! ČeskosLOVEnská edice 2. 2019 Mp3\25. Kristián Dufinec a Iconito - Chcem zmenu (Vystúpme z tieňa) (Slovensko).mp3
Формат : MPEG Audio
Размер файла : 6,97 MiB
Продолжительность : 3 min 2 sek.
Режим общего битрейта : Konštantný dátový tok
Общий поток : 320 kb/s
Трек : Chcem zmenu! (Vystúpme z tieňa)
Исполнитель : Kristián Dufinec a Iconito
Дата записи : 2019
Библиотека кодирования : LAME3.82
Audio
Формат : MPEG Audio
Версия формата : Version 1
Профиль формата : Layer 3
Продолжительность : 3 min 2 sek.
Вид битрейта : Konštantný dátový tok
Битрейт : 320 kb/s
Каналы : 2 kanály
Частота : 44,1 kHz
Частота кадров : 38,281 snímok/sek. (1152 SPF)
Размер потока : 6,97 MiB (100%)
Библиотека кодирования : LAME3.82
Hlavné parametre
Полное имя : Jsme Slované ! ČeskosLOVEnská edice 2. 2019 Mp3\26. Sloveni - Nad Tatrou sa blýska na lepšie časy (Slovensko).mp3
Формат : MPEG Audio
Размер файла : 3,86 MiB
Продолжительность : 1 min 41 sek.
Режим общего битрейта : Konštantný dátový tok
Общий поток : 320 kb/s
Трек : Nad Tatrou sa blýska na lepšie časy
Исполнитель : Sloveni
Дата записи : 2019
Библиотека кодирования : LAME2MÄÍ™>H5)t®7
Audio
Формат : MPEG Audio
Версия формата : Version 1
Профиль формата : Layer 3
Продолжительность : 1 min 41 sek.
Вид битрейта : Konštantný dátový tok
Битрейт : 320 kb/s
Каналы : 2 kanály
Частота : 44,1 kHz
Частота кадров : 38,281 snímok/sek. (1152 SPF)
Размер потока : 3,86 MiB (100%)
Библиотека кодирования : LAME2MÄÍ™>H5)t®7
Hlavné parametre
Полное имя : Jsme Slované ! ČeskosLOVEnská edice 2. 2019 Mp3\27. Chiki Liki Tu-a - Láska moja de si (Slovensko).mp3
Формат : MPEG Audio
Размер файла : 5,62 MiB
Продолжительность : 2 min 27 sek.
Режим общего битрейта : Konštantný dátový tok
Общий поток : 320 kb/s
Трек : Láska moja de si
Исполнитель : Chiki Liki Tu-a
Дата записи : 2019
Библиотека кодирования : LAME3.82
Audio
Формат : MPEG Audio
Версия формата : Version 1
Профиль формата : Layer 3
Продолжительность : 2 min 27 sek.
Вид битрейта : Konštantný dátový tok
Битрейт : 320 kb/s
Каналы : 2 kanály
Частота : 44,1 kHz
Частота кадров : 38,281 snímok/sek. (1152 SPF)
Размер потока : 5,62 MiB (100%)
Библиотека кодирования : LAME3.82
Hlavné parametre
Полное имя : Jsme Slované ! ČeskosLOVEnská edice 2. 2019 Mp3\28. Darinka Rolincová - Cesta do rozprávky (Slovensko).mp3
Формат : MPEG Audio
Размер файла : 9,11 MiB
Продолжительность : 3 min 58 sek.
Режим общего битрейта : Konštantný dátový tok
Общий поток : 320 kb/s
Трек : Cesta do rozprávky
Исполнитель : Darinka Rolincová
Дата записи : 2019
Библиотека кодирования : LAME3.82
Audio
Формат : MPEG Audio
Версия формата : Version 1
Профиль формата : Layer 3
Продолжительность : 3 min 58 sek.
Вид битрейта : Konštantný dátový tok
Битрейт : 320 kb/s
Каналы : 2 kanály
Частота : 44,1 kHz
Частота кадров : 38,281 snímok/sek. (1152 SPF)
Размер потока : 9,11 MiB (100%)
Библиотека кодирования : LAME3.82
Hlavné parametre
Полное имя : Jsme Slované ! ČeskosLOVEnská edice 2. 2019 Mp3\29. Fermata - Spomienky na Veľkú Tartáriu (Slovensko).mp3
Формат : MPEG Audio
Размер файла : 11,7 MiB
Продолжительность : 5 min 8 sek.
Режим общего битрейта : Konštantný dátový tok
Общий поток : 320 kb/s
Трек : Spomienky na Veľkú Tartáriu
Исполнитель : Fermata
Дата записи : 2019
Библиотека кодирования : LAME3.82ªXC4–N9ìdç
Audio
Формат : MPEG Audio
Версия формата : Version 1
Профиль формата : Layer 3
Продолжительность : 5 min 8 sek.
Вид битрейта : Konštantný dátový tok
Битрейт : 320 kb/s
Каналы : 2 kanály
Частота : 44,1 kHz
Частота кадров : 38,281 snímok/sek. (1152 SPF)
Размер потока : 11,7 MiB (100%)
Библиотека кодирования : LAME3.82ªXC4–N9ìdç
Hlavné parametre
Полное имя : Jsme Slované ! ČeskosLOVEnská edice 2. 2019 Mp3\30. Darinka Rolincová - Anjelik môj (Slovensko).mp3
Формат : MPEG Audio
Размер файла : 8,34 MiB
Продолжительность : 3 min 38 sek.
Режим общего битрейта : Konštantný dátový tok
Общий поток : 320 kb/s
Трек : Anjelik môj
Исполнитель : Darinka Rolincová
Дата записи : 2019
Библиотека кодирования : LAME3.82
Audio
Формат : MPEG Audio
Версия формата : Version 1
Профиль формата : Layer 3
Продолжительность : 3 min 38 sek.
Вид битрейта : Konštantný dátový tok
Битрейт : 320 kb/s
Каналы : 2 kanály
Частота : 44,1 kHz
Частота кадров : 38,281 snímok/sek. (1152 SPF)
Размер потока : 8,34 MiB (100%)
Библиотека кодирования : LAME3.82
Hlavné parametre
Полное имя : Jsme Slované ! ČeskosLOVEnská edice 2. 2019 Mp3\31. Juraj Podmanický - Sloboda (Slovensko).mp3
Формат : MPEG Audio
Размер файла : 10,4 MiB
Продолжительность : 4 min 32 sek.
Режим общего битрейта : Konštantný dátový tok
Общий поток : 320 kb/s
Трек : Sloboda
Исполнитель : Juraj Podmanický
Дата записи : 2019
Библиотека кодирования : LAMEUUU+ŽKDAÅÐÕø•Ã×
BPM : 145
Audio
Формат : MPEG Audio
Версия формата : Version 1
Профиль формата : Layer 3
Продолжительность : 4 min 32 sek.
Вид битрейта : Konštantný dátový tok
Битрейт : 320 kb/s
Каналы : 2 kanály
Частота : 44,1 kHz
Частота кадров : 38,281 snímok/sek. (1152 SPF)
Размер потока : 10,4 MiB (100%)
Библиотека кодирования : LAMEUUU+ŽKDAÅÐÕø•Ã×
Hlavné parametre
Полное имя : Jsme Slované ! ČeskosLOVEnská edice 2. 2019 Mp3\32. Ars Antiqua - Dobrú noc má milá, dobrú noc (Slovenská).mp3
Формат : MPEG Audio
Размер файла : 4,64 MiB
Продолжительность : 2 min 1 sek.
Режим общего битрейта : Konštantný dátový tok
Общий поток : 320 kb/s
Трек : Dobrú noc má milá, dobrú noc
Исполнитель : Ars Antiqua
Дата записи : 2019
Библиотека кодирования : LAME3.82UUUUUUUUUUU3
Audio
Формат : MPEG Audio
Версия формата : Version 1
Профиль формата : Layer 3
Продолжительность : 2 min 1 sek.
Вид битрейта : Konštantný dátový tok
Битрейт : 320 kb/s
Каналы : 2 kanály
Частота : 44,1 kHz
Частота кадров : 38,281 snímok/sek. (1152 SPF)
Размер потока : 4,64 MiB (100%)
Библиотека кодирования : LAME3.82UUUUUUUUUUU3
Hlavné parametre
Полное имя : Jsme Slované ! ČeskosLOVEnská edice 2. 2019 Mp3\33. záver_ František List - Slavimo slavno Slaveni! (Slovensko).mp3
Формат : MPEG Audio
Размер файла : 3,96 MiB
Продолжительность : 1 min 43 sek.
Режим общего битрейта : Konštantný dátový tok
Общий поток : 320 kb/s
Трек : Slavimo slavno Slaveni!
Исполнитель : František List
Дата записи : 2019
Библиотека кодирования : LAME3.82ªªªóä0S>
Audio
Формат : MPEG Audio
Версия формата : Version 1
Профиль формата : Layer 3
Продолжительность : 1 min 43 sek.
Вид битрейта : Konštantný dátový tok
Битрейт : 320 kb/s
Каналы : 2 kanály
Частота : 44,1 kHz
Частота кадров : 38,281 snímok/sek. (1152 SPF)
Размер потока : 3,96 MiB (100%)
Библиотека кодирования : LAME3.82ªªªóä0S>
Hlavné parametre
Полное имя : Jsme Slované ! ČeskosLOVEnská edice 2. 2019 Mp3\Jsme Slované ! ČeskosLOVEnská edice 2. 2019.m3u
Размер файла : 2,13 kiB
Hlavné parametre
Полное имя : Jsme Slované ! ČeskosLOVEnská edice 2. 2019 Mp3\Jsme Slované ! ČeskosLOVEnská edice 2.jpg
Формат : JPEG
Размер файла : 1,74 MiB
Obrázok
Формат : JPEG
Ширина : 1 762 pixelov
Высота : 1 080 pixelov
Цветовое пространство : YUV
Субдискретизация насыщенности : 4:4:4
Битовая глубина : 8 bitov
Размер потока : 1,74 MiB (100%)
Желаем приятного прослушивания

RelizMAN

Post 29-Sep-2019 18:25

[Quote]

Rita Abatzi / Recordings 1931 - 1950 (Singers Of Greek Folk Song In 78RPM)
Жанр: Rebetiko
Страна исполнителя (группы): Greece
Год издания: 1996 - 2006
Аудиокодек: MP3
Тип рипа: tracks
Битрейт аудио: 192 kbps
Продолжительность: 04:05:05
Наличие сканов в содержимом раздачи: нет

CD1 Recordings 1931 - 1937

01. Rovas Departed (O Rovas Exekinise)
02. Under The Arcadian Plane (Stis Arkadhias Ton Platano)
03. In Kalamata's Water (Stis Kalamatas To Nero)
04. Bad Neighbor (Mori Kakia Ghitonisa)
05. The Abducted Vasiliki (Klepsan Ti Vasiliki)
06. Where Are Your Rings (Ah Pou 'N' Ta Dhahtilidhia Sou)
07. Turtle Dove (Trighona)
08. A Little Rebel (Ena Mikro Kleftopoulo)
09. I'll Let My Hair And Beard To Grow (Tha ' Fiso Ghenia Ke Malia)
10. Samarina (I Samarina)
11. My Skylark (Ghaliandhra Mou)
12. Uphill, In Vlach Lodgings (Pano Se Vlahika Konakia)
13. Ballos Of Bournova (Balos Bournovalios)
14. The Noble Son Is Getting Married (Arhontoyios Pantrevete)
15. My Children Why Are You Dirty (Pedhia M' Yati 'St' Analagha)
16. The Sickman (O Arostos)
17. Livadia (Livadhia)
18. The Nightingale Order To Me (Mou Parigile T' Aidhoni)
19. Woman Dressed In Red (Kokkinoferemeni)
20. Peasant Girl (Horiatopoula)

CD2 Recordings 1932 - 1950

01. O Xemangas (The Ex Mangas)
02. O Asikis (The Strapping Man)
03. Xanthi Ke Mavromata (Blonde Jewish Girl)
04. Xanthi Evreopoula (Blonde Jewish Girl)
05. Dervisis Ke Rita (Dervish And Rita)
06. Neos Konialis
07. Naziara Mou (My Prudish Girl)
08. Mystiko Na To His Prepi (You Must Keep It Secret)
09. Mesa Sto Pasalimani (In Pashalimani)
10. Karip Hetaz Manes (1935)
11. Kakourgha Aponi (Cruel And Heartless Woman)
12. I Orphani (The Orphan Girl)
13. I Nitsa (Nitsa)
14. I Koula (Koula)
15. I Armenitsa (The Little Armenian Girl)
16. Zoula I Mariori (Mariori, In Secret)
17. Efige I Aghapi Mou (My Love Departed)
18. O Psilos (The Flea)

CD3 Recordings 1933 - 1937

01. Hira Ke Mangas (Widow And Mangas)
02. Ferte Preza Na Prezaro (Bring Me Dope)
03. Feretze Foro (I Wear Veil)
04. Tserkes (1933)
05. To Flytzani Tou Yanni (Yannis' Cup)
06. To Pasoumi (The Slipper)
07. Magiko (1937)
08. To Ispraktoraki (The Little Conductor)
09. To Vlepo Tha Pethano (I'll See It, I'll Die)
10. Ta Hanoumakia (The Little Girls)
11. Ta Pedia Tis Agoras (Market's Children)
12. Sta Katsara Sou Valthika (In Your Curly Hair)
13. San Ise Mangas Ke Dais (If You Are Tearless And Mangas)
14. Prepi Na S' Afiso (I Must Leave You)
15. Pismatariko (Stubborn Girl)
16. Pane Ya To Praso (They're Going On The Job)
17. Nosokoma Mou Mikroula (My Little Nurse)
18. O Vangelis Tis Mamis (Midwife's Vangelis)

CD4 Recordings 1933 - 1939

01. The Gardener (O Perivolaris)
02. Tell Me You Pain (Pes Mou Pios Ine O Ponos Sou)
03. I Made Up My Mind (Apofasisa Pouli Mou)
04. Tonight Don't Sleep (Apopse Na Min Kimithis)
05. The Boatman (Varkaris)
06. You Don't Care About Me (Ya Mena Dhe Se Meli)
07. For Your Love (Ya Tin Aghapi Sou)
08. Neva Sabah Manes (Neva Sabah Manes - Prepi Na Skeptete Kanis)
09. Kouklaki
10. The Waitress (Garsona)
11. I Don't Love You (Dhe S Aghapo)
12. Two Desires In My Heart (Dhio Merakia Stin Kardhia Mou)
13. You Are A Tricky Girl (Ise Pontos)
14. Come As You Are (Ela Opos Ise)
15. You Are Mad Girl (Esi Se Trelokoritso)
16. Nun (Kaloghria)
17. With Swamns And Drums (Me Zournadhes Ke Daoulia)
18. The Grambler (O Mourmouris)
19. Aman Annitsa (1933)

RelizMAN

Post 29-Sep-2019 18:25

[Quote]

Sasha Polinoff / Russian Cabaret
Жанр: Folk, World, & Country
Страна исполнителя (группы): USA
Год издания: 1969
Аудиокодек: MP3
Тип рипа: tracks
Битрейт аудио: 320 kbps
Продолжительность: 33:52
Наличие сканов в содержимом раздачи: да
Треклист:
A1 Karapet (Russian Two-Step)
A2 Love Has Passed (Lyubov Proshla)
A3 Farewell, Gypsy Camp (Proschcahi Moy Tabor)
A4 Kazbek
A5 Stenka Razin
A6 In The Forest At The Front (V Lyesu Proftontovom)
B1 Medley Of Old Russian Songs
B2 Red Bricks
B3 Two Russian Tangos
B4 Days of Our Lives
B5 Let There Always Be Sunshine

RelizMAN

Post 27-Sep-2019 14:15

[Quote]

Casatschok / Musik die sich jeder leisten kann
Жанр: folk
Страна исполнителя (группы): GDR
Год издания: 1968
Аудиокодек: MP3
Тип рипа: tracks
Битрейт аудио: 320 kbps
Продолжительность: 29:37
Наличие сканов в содержимом раздачи: да
Треклист:
01. Casatschok
02. Karobuschka-Casatschok
03. Szeni-Casatschok
04. Metjeliza-Casatschok
05. Fideler-Casatschok
06. Luna-Casatschok
07. Kalinka-Casatschok
08. Gitarren-Casatschok
09. Der Enterich im Kasten-Casatschok
10. Gopak-Casatschok
11. Maibock-Casatschok
12. Schwarze-Augen-Casatschok

RelizMAN

Post 24-Sep-2019 20:15

[Quote]

AKBAND «Zwierciadlo»
Страна: Россия
Жанр: Folk, Народная песня
Год выпуска: 2003
Формат: MP3
Битрейт аудио: 256 kbps-01. Remedium / Wsiasc do pociagu... / (Seweryn Krajewski, Magda Czapinska )
02. Ojda-ojda (Goran Bregowic & Krzysztof Krawczyk)
03. Скучно, матушка (Русская Народная Песня)
04. Нэсе Галя воду (Украинская Народная песня)
05. С Богом, милый мой! (Андрей Шепелев)
06. Slady na piasku (Goran Bregowic & Krzysztof Krawczyk)
07. Hej, sokoy! (Polska Piosenka Ludowa)
08.Ой, Дiвчино... (Украинская Народная песня)
09. Ой ты, Порушка-Пораня (Русская Народная Песня)
10. Nie opuszczaj mnie (Jacques Brel, tumaczenie Wojciech Mynarski)
11. Черный ворон (Русская Народная Песня)
12. Pije Kuba do Jakuba (Polska Piosenka Ludowa)
Доп. информация: Петербургская группа, исполняющая песни на русском, украинском и польском языках.

RelizMAN

Post 24-Sep-2019 09:25

[Quote]

Orchestra Electrecord / 5 альбомов
Жанр: Jazz, Rock, Twist, Swing, Tango, Easy Listening, Latin Jazz
Страна исполнителя (группы): Romania
Год издания: 1970
Аудиокодек: MP3
Тип рипа: tracks
Битрейт аудио: 192-320 kbps
Продолжительность: 3:24:24
Наличие сканов в содержимом раздачи: да
Треклист:

1966 – Muzică De Dans - 10&#58;37

01. What'd I Say (twist)
Ray Charles
02. Copley Square (swing)
Marshal Brown
03. I Got Stung (twist)
Schroder - Hill
04. Melodie De Dans (rock-twist)
Perez Prado

197X ‎– Electrecord - 38&#58;06

A1 Ne Chiamă Ritmul Să Dansăm
Vocals – Gică Petrescu
A2 Seri De Vis
Vocals – Luminița Cosmin
A3 Gondolier
Vocals – Constantin Drăghici
A4 Vieni Vicino A Me
Vocals – Margareta Pîslaru
A5 Amintiri Dragi Din Moscova
Vocals – Gică Petrescu
A6 Abuelito Blanco
Vocals – Helia Casanovas
A7 Adorabile
Vocals – Roxana Matei
B1 Souvenirs
Vocals – Cvartetul „Allegro“, Leia Ivanova*
B2 Gelosia
Vocals – Const. Drăghici
B3 Bunicuța
Music By – L. Podest
Vocals – Margareta Pîslaru
B4 De-ai Ști Cît Te Iubesc
Vocals – Nicolae Nițescu
B5 Basta Con La Luna
Vocals – Gigi Marga
B6 Vînătorul
Vocals – E. Deda, Trio Grigoriu
B7 Tu Mi Piaci
Vocals – Roxana Matei

197X - Famous Romanian Tangos - 39&#58;03

A1 Tangoul De Demult
A2 Vrei Să Ne-ntîlnim Sîmbătă Seara?
A3 Ilona
A4 Iubesc Femeia
A5 Nu Mă Mai Despart De Tine
A6 Sub Balcon Eu Ți-am Cîntat O Serenadă
B7 Nu-ți Pare Rău Cînd Vezi Că Plîng?
B8 Cînd Felinarele Se-aprind
B9 Cel Din Urmă Tango
B10 Violete Pentru Fete
B11 Primul Nostru Tango
B12 Să Nu Uităm Trandafirii[
/spoiler]

197X - Meridiane Melodii 1 - 39&#58;28

A1 - Claude François – Il Fait Beau, Il Fait Bon
or (the same year)
The Fortunes – Freedom Come, Freedom Go
A2 - Middle Of The Road - Soley, Soley
A3 - Frank Schöbel – Wie Ein Stern
A4 - Loredana Taccani - Gelsomino
A5 - Oliver - Good Morning Starshine
A6 - Middle Of The Road – Tweedle Dee Tweedle Dum
A7 - Serge Prisset - Kao Kao
B8 - Vicky Leandros - Mi Lipase (Μη λυπάσαι)
B9 - Tony Christie – (Is This The Way To) Amarillo
B10 - The Pop Tops - Road To Freedom
B11 - The Soulful Dynamics – Mademoiselle Ninette
B12 - Middle Of The Road - Sacramento
B13 - Peret – Borriquito
B14 - Gilbert Bécaud – Ma Souris Danse

1999 - Famous Tangos - 1&#58;17&#58;09, 192 kbps

1 Adios Muchachos
2 Le Violetera
3 Olé Guapa
4 A Media Luz
5 El Choclo
6 Mama Yo Quero Un Novio
7 Adios Pampa Mia
8 Confession
9 La Periferia
10 Buenas Noches Mi Amor
11 Garufa
12 Illusion
13 Hernando´s Hide Away
14 Caminito
15 Tango
16 Blue Tango
17 Tango Subtil
18 Plegaria
19 Guapita
20 Jalousie
21 Invidia
22 La Cumparsita
23 Zaraza
24 Chitara Romana
25 Avant De Mourir

RelizMAN

Post 23-Sep-2019 20:25

[Quote]

Orchestra De Muzica Populara ‹Electrecord›, Dirijor: Radu Simion ‎ / Orchestra De Muzica Populara Electrecord
Жанр: Folk, World, & Country
Страна исполнителя (группы): Romania
Год издания: 1971
Аудиокодек: MP3
Тип рипа: tracks
Битрейт аудио: 192 kbps
Продолжительность: 45:22
Наличие сканов в содержимом раздачи: да
Треклист:
A1 Suită Oltenească - Muntenească
A2 Ca Din Bătrîni
Soloist, Kaval [Caval] – Ion Lăceanu
A3 Au Plecat Olteni La Coasă
Soloist, Wind [Solz De Pește] – Ion Lăceanu
A4 Ca La Cernavodă
Soloist, Wind [Pai] – Ion Lăceanu
A5 Cîntecul Mirsei, Jocul Mirsei Și Floricica
A6 Suită Molddovanească
Soloist, Violin [Vioară] – Ion Drăgoi
B1 Suită Transilvăneană
B2 Munte, Munte, Brad Frumos Și Călușarii
Soloist, Panpipes [Nai] – Radu Simion
B3 Cîntec De Dragoste Din Obedeni Și Sîrbă De La Roșiori
Soloist, Violin [Vioară] – Nicolae Naidin Obedeanu
B4 Brîul De La Domnești
Soloist, Accordion [Acordeon] – Petre Mihalcea
B5 Bălănuș, Bălane Cîntec De Dragoste Și Sîrbă
Soloist, Cimbalom [Țambal] – Nicolae Feraru
B6 Hora Mirisei, Fecioresc Și De Sărit
Soloist, Tárogató [Taragot] – Dumitru Fărcaș

Состав

Conductor [Dirijor] – Radu Simion
Engineer [Maestru De Sunet] – Vasile Sibana
Liner Notes – Tiberiu Alexandru
Orchestra – Orchestra De Muzică Populară „Electrecord“*
Producer [Redactor] – Ștefan Bonea

RelizMAN

Post 23-Sep-2019 18:15

[Quote]

Anuschka
Жанр: Pop, Classical, Folk, World, & Country
Страна исполнителя (группы): Germany
Год издания: 197X
Аудиокодек: MP3
Тип рипа: tracks
Битрейт аудио: 320 kbps
Продолжительность: 41:45
Наличие сканов в содержимом раздачи: да
Треклист:
Seite 1
01 Udo Jurgens - Anuschka
02 Petra Pascal - Die Alte Weide
03 Das Russische Balalaika Orchester - Kutscher, Treib' Die Pferde Nicht
04 Udo Jurgens - Do Swidanja
05 Ralph Dokin - Zigeuner-Casatschok
06 Hermann Prey - Heissa Troika (Zigeuner-Romanze)
07 Dunja Rajter - Tum Balalaika
Seite 2
08 Ivan Rebrof - Wolga, Aus Deinen Fluten
09 Karin Huebner - Lisa
10 Orchester Josef Niessen - Natascha (Valse Russe) (Instrumental)
11 Rex Gildo - Schones Madchen
12 Tatjana Iwanow - Warum Denn Weinen
13 Ilan Und Ilanit - Gogly-Gogly
14 Ivan Rebroff - Schenk Dein Herz Nur Mir, Katharina
Доп. информация: Релиз не разделён на треки

RelizMAN

Post 22-Sep-2019 19:30

[Quote]

Orchester Iwanow und Orchester Boris Jojic / Mister Moskau's Sound
Жанр: Folk
Страна исполнителя (группы): Germany
Год издания: 1962
Аудиокодек: MP3
Тип рипа: tracks
Битрейт аудио: 320 kbps
Продолжительность: 35:37
Наличие сканов в содержимом раздачи: да
Треклист:
1 Cossacks ride
2 Anja
3 Taiga Melody
4 Petrowa
5 Schlosse-serenade
6 Don melody
7 Adieu cherie
8 Datscha
9 Dreamland
10 Schwarze madonna
11 Grauer himmel
12 Wie deinу liebe
13 Song of petruschka
14 Show is comming down
 

Current time is: 08-Dec 13:35

All times are UTC + 3