Search found 500 matches

Author Message

RelizMAN

Post Yesterday 10:05

[Quote]

Информация о фильме
Название: Оперение
Год выхода: 2019
Жанр: Документальный
Режиссер: Илья Зернов
В ролях: Константин Хабенский, Светлана Письмиченко, Вячеслав Чуистов, Гузель Абушахманова
О фильме:
На протяжении 9 лет в разных городах России проходит фестиваль «Оперение» студий творческого развития под руководством Константина Хабенского. Мастера игры и сцены помогают детям и подросткам реализовывать и освобождать свой скрытый творческий потенциал, общаясь и работая в креативных лабораториях. Фильм расскажет историю движения «Оперение» и слегка приоткроет кулисы фестиваля.

Страна: Россия
Студия: Продюсерская компания Алексадра Литвинова
Продолжительность: 01:00:04
Язык: Русский
Файл
Кодек: MPEG-4 AVC
Качество: WEB-DL 1080p
Видео: MPEG-4 AVC, ~ 5000 Кбит/с, 1920x1080
Звук: AC3, 2 ch, 192 Кбит/с
Релиз от:
Реклама, любого вида, отсутствует.

Скриншоты

RelizMAN

Post 14-Jan-2020 19:05

[Quote]

Информация о фильме
Название Гранд Тур
Оригинальное название The Grand Tour
Год выхода 2020
Жанр Шоу
В ролях Джеймс Мэй
О фильме
Джеймс Мэй отправляется в удивительное путешествие по Японии – от студеного севера до упоительно теплого юга. Он увидит достопримечательности, познакомится с местными жителями и будет есть лапшу, пытаясь по-настоящему понять Страну восходящего солнца.
Страна США
Продолжительность 00:48:00
Перевод Любительский (многоголосый, закадровый) Jetvis Studio
Файл
Кодек: H.264
Качество: WEBRip 1080p
Видео: 1920x1080, 8000 kbps, 25.000 fps
Аудио#1: AC3, 192 kbps, 48 KHz, 2ch (RU)
Аудио#2: AC3, 192 kbps, 48 KHz, 2ch (ENG)
Присутствует реклама

Скриншоты

Vi$itReal

Post 12-Jan-2020 20:50

[Quote]

Информация о фильме
Название: Необыкновенный Огонёк
Год выпуска: 2020
Жанр: Концерт
В ролях: Сосо Павлиашвили, Елена Ваенга, Тамара Гвердцители, Стас Михайлов, Жасмин, Алина Джанабаева, Александр Панайотов, Ани Лорак, Стас Пьеха, Наталья Подольская, Надежда Кадышева, Дима Билан, Николай Басков, Таисия Повалий, Дмитрий Маликов, Олег Газманов, Игорь Николаев, Лев Лещенко, Алсу
Ведущий: Тимур Родригез и Анастасия Макеева
О фильме: «"Голубой Огонек" многие годы является неотъемлемым атрибутом празднования Нового года. Но авторы авантюрного и не похожего на все остальные новогоднего шоу "Необыкновенный Огонек" решительно ломают стереотипы! Теперь оба "Огонька" мирно сосуществуют на телеканале "Россия". Посмотрите оба! Шоу "Необыкновенный Огонек–2020" обещает быть ярким и насыщенным. В этот вечер кумиры публики предстанут перед своими поклонниками в самых неожиданных амплуа. Несмотря на то, что полный список музыкальных номеров и участников держится в секрете, с уверенностью можно сказать одно: подобного вы не увидите больше нигде!
Выпущено: Россия
Продолжительность: 01:25:00
Перевод: Не требуется
Файл
Качество: WEBRip 720p
Видео: МРЕG-4 AVC, 2242 Кбит/с, 1280x720
Аудио: AC3, 2 ch, 192 Кбит/с

Скриншоты


Релиз от:

RelizMAN

Post 12-Jan-2020 19:35

[Quote]

Год выпуска: 2020
Жанр: Мюзикл, ледовое шоу
Выпущено: Россия, Первый канал
О фильме: В ледовом шоу «Спящая красавица. Легенда двух королевств» Татьяна Навка приготовила для зрителей все самое лучшее: сложнейшие акробатические номера — сальто и вращения на тросах на высоте нескольких десятков метров, проекции на льду, яркое фаер-шоу, потрясающие декорации-трансформеры и даже настоящую молнию в качестве спецэффекта. Но самое ценное в «Спящей красавице» — это участие в шоу сильнейшей фигуристки планеты, обладательницы всех титулов в фигурном катании Алины Загитовой. «Алина Загитова — наш главный новогодний подарок всем зрителям. Каждый ее выход — завораживающая феерия. Наше шоу — эксклюзивная возможность насладиться выступлением Алины Загитовой и увидеть ее в абсолютно новом, сказочном образе», — отметила Татьяна Навка. Также в ледовом спектакле задействованы пятикратный чемпион США и двукратный победитель чемпионата Четырех континентов в танцах на льду Петр Чернышев, многократные чемпионы Европы и мира Маргарита Дробязко и Повилас Ванагас. «Спящая красавица» стала дебютом для самой юной участницы шоу Надежды Песковой. Одиночнице Загитовой пришлось встать в пару с семикратным чемпионом Италии Ондржеем Готареком. Алина признавалась, что самым сложным в работе над мюзиклом для нее были вовсе не прыжки, а парные поддержки. Ведущие музыкальные партии исполняют звезды российской эстрады: Ани Лорак, Александр Панайотов, Филипп Киркоров, Екатерина Варнава, Гарик Харламов. За Злого Духа поет Григорий Лепс.
Качество: HDTV (1080i)
Видео: MPEG-TS AVC, 10,9 Мбит/с, 1920x1080, 25 кадр/с
Аудио: Русский (AC3, 2 ch, 384 Кбит/с), (MP2, 2 ch, 192 Кбит/с)
Продолжительность: 01:35:05
Перевод: Не требуется
Субтитры: нет

Скриншоты


MediaInfo

Общее
Идентификатор : 1 (0x1)
Полное имя : D:ЗаписьSpjashhaja krasavica.Mjuzikl.HDTV(1080i).GeneralFilm.ts
Формат : MPEG-TS
Размер файла : 8,00 Гбайт
Продолжительность : 1 ч. 35 м.
Режим общего битрейта : Переменный
Общий поток : 12,0 Мбит/сек
Видео
Идентификатор : 1904 (0x770)
Идентификатор меню : 80 (0x50)
Формат : AVC
Формат/Информация : Advanced Video Codec
Профиль формата : [email protected]
Параметр CABAC формата : Да
Параметр ReFrames формата : 3 кадра
Идентификатор кодека : 27
Продолжительность : 1 ч. 35 м.
Битрейт : 10,9 Мбит/сек
Ширина : 1920 пикселей
Высота : 1080 пикселей
Соотношение сторон : 16:9
Частота кадров : 25,000 кадров/сек
Стандарт вещания : Component
Цветовое пространство : YUV
Субдискретизация насыщенности : 4:2:0
Битовая глубина : 8 бит
Тип развёртки : Чересстрочная
Порядок развёртки : Верхнее поле первое
Бит/(Пиксели*Кадры) : 0.210
Размер потока : 7,22 Гбайт (90%)
Основные цвета : BT.709
Характеристики трансфера : BT.709
Коэффициенты матрицы : BT.709
Аудио #1
Идентификатор : 2904 (0xB58)
Идентификатор меню : 80 (0x50)
Формат : AC-3
Формат/Информация : Audio Coding 3
Расширение режима : CM (complete main)
Параметр Endianness формата : Big
Идентификатор кодека : 6
Продолжительность : 1 ч. 35 м.
Вид битрейта : Постоянный
Битрейт : 384 Кбит/сек
Каналы : 6 каналов
Расположение каналов : Front: L C R, Side: L R, LFE
Частота : 48,0 КГц
Битовая глубина : 16 бит
Метод сжатия : С потерями
Задержка видео : -120 мс.
Размер потока : 261 Мбайт (3%)
Язык : Russian
Аудио #2
Идентификатор : 2905 (0xB59)
Идентификатор меню : 80 (0x50)
Формат : MPEG Audio
Версия формата : Version 1
Профиль формата : Layer 2
Идентификатор кодека : 3
Продолжительность : 1 ч. 35 м.
Вид битрейта : Постоянный
Битрейт : 192 Кбит/сек
Каналы : 2 канала
Частота : 48,0 КГц
Метод сжатия : С потерями
Задержка видео : -120 мс.
Размер потока : 131 Мбайт (2%)
Язык : Russian

Релиз:

Vi$itReal

Post 10-Jan-2020 15:20

[Quote]

Информация о фильме
Название Топ Гир
Оригинальное название Top Gear
Год выхода 2019
Жанр Автошоу
В ролях Крис Харрис, Пэдди МакГиннесс, Фредди Флинтофф
О фильме
Новый сезон с новыми ведущими после ухода знаменитой троицы. Top Gear (англ. Top Gear) — популярная английская телепередача, посвящённая автомобилям. Первые выпуски передачи появились в 1977 году. Эта передача была просто пересказ журнала, в течение долгого времени формат передачи не менялся. Но в 2002 году, произошел перезапуск цикла, и вместо сухого пересказа, появился современный «Top Gear», с юмором, приколами, и фирменными тестами. Аудитория программ в странах официальной трансляции составляет около 350 миллионов человек.
Страна UK
Продолжительность ~01:10:00
Перевод Любительский (многоголосый закадровый) - Jetvis Studio
Присутствует реклама

Файл
Кодек H.264
Качество HDTV 720p
Видео 1280x720, 2900 kbps, 25.000 fps
Звук AC3, 192 kbps, 48 KHz, 2ch (RU)
Звук AC3, 192 kbps, 48 KHz, 2ch (ENG)

Скриншоты

Релиз от Jetvis Studio

RelizMAN

Post 09-Jan-2020 13:20

[Quote]

Информация о фильме
Название: Дискотека 80-х 2019 год.
Год выхода: 2019
Жанр: Disco
Режиссер: 1 канал
В ролях: Thomas Anders, Bad Boys Blue, C.C. Catch, Sandra и т.д.
О фильме:
Главное музыкальное событие года - Дискотека 80-х от Авторадио! С каждым годом фестиваль Авторадио становится все более масштабным. Сегодня Дискотека 80-х - не просто праздник поколения, возвращающий зрителей во времена их юности, а современное, неординарное и динамичное супершоу, привлекающее зрителей самых разных возрастов. Мы имели возможность увидеть это фантастическое, захватывающее шоу, в котором гармонично сочетаются великолепные мелодии 80-х, красочные костюмы участников, ультрасовременная сценография, эффектные постановки и оригинальные творческие идеи.
Доп. информация: Запись с 1HD канала по времени +4 часа, на картинке отсутствует логотип часов по сравнению с эфиром по МСК, звук в двух дорожках.
Треклист:

01. Thomas Anders - «You`re My Heart You`re My Soul»
02. Thomas Anders - «Brother Louie»
03. Thomas Anders - «Cheri Cheri Lady»
04. Руки Вверх - «Он тебя целует»
05. Руки Вверх - «18 мне уже»
06. Bad Boys Blue - «Pretty Young Girl»
07. Bad Boys Blue - «You’re a Woman»
08. Владимир Маркин - «Я готов целовать песок»
09. Pupo - «Gelato Al Cioccolato»
10. Pupo - «Un Amore Grande»
11. «Здравствуй, песня» - «Синий иней»
12. Вячеслав Добрынин - «Попурри»
13. «Londonbeat» - «You Bring On The Sun»
14. «Londonbeat» - «I’ve Been Thinking About You»
15. Евгений Маргулис - «Старые песни»
16. Евгений Маргулис - «Мой друг лучше всех играет блюз»
17. Андрей Державин / «Сталкер» - «Песня про брата»
18. Андрей Державин / «Сталкер» - «Не плачь, Алиса»
19. Sandra - «Maria Magdalena»
20. Sandra - «In The Heat Of The Night»
21. Дюна - «Привет с большого бодуна»
22. Дюна - «Страна лимония»
23. «Альянс» - «На заре»
24. «Alphaville» - «Forever Young»
25. «Alphaville» - «Big in Japan»
26. Сергей Минаев - «Карнавал»
27. Олег Газманов / «Эскадрон» - «Есаул»
28. Олег Газманов / «Эскадрон» - «Путана»
29. C.C. Catch - «I Can Lose My Heart Tonight»
30. C.C. Catch - «Heaven and Hell»
31. Лев Лещенко - «Прощай»

Страна: Россия
Продолжительность: 01:58:36
Файл
Кодек: AVC/H.264
Качество: HDTV 1080i
Видео: AVC/H.264, 1920x1080 (16:9); 25.000 fps; 9 798 kb/s
Звук 1: AC3, 384 Кбит/сек, 48000Hz, 6 ch
Звук 2: Mp2, 192 Кбит/сек, 48000Hz, 2 ch
Субтитры: отсутствуют

Скриншоты

Релиз от: Rmk80disco

RelizMAN

Post 09-Jan-2020 05:50

[Quote]

Информация о фильме
Название: Дискотека 80-х 2019 год. (Телеверсия 1 канал).
Год выхода: 2019
Жанр: Disco
Режиссер: 1 канал
В ролях: Thomas Anders, Bad Boys Blue, C.C. Catch, Sandra и т.д.
О фильме:
Главное музыкальное событие года - Дискотека 80-х от Авторадио! С каждым годом фестиваль Авторадио становится все более масштабным. Сегодня Дискотека 80-х - не просто праздник поколения, возвращающий зрителей во времена их юности, а современное, неординарное и динамичное супершоу, привлекающее зрителей самых разных возрастов. Мы имели возможность увидеть это фантастическое, захватывающее шоу, в котором гармонично сочетаются великолепные мелодии 80-х, красочные костюмы участников, ультрасовременная сценография, эффектные постановки и оригинальные творческие идеи.
Треклист:

01. Thomas Anders - «You`re My Heart You`re My Soul»
02. Thomas Anders - «Brother Louie»
03. Thomas Anders - «Cheri Cheri Lady»
04. Руки Вверх - «Он тебя целует»
05. Руки Вверх - «18 мне уже»
06. Bad Boys Blue - «Pretty Young Girl»
07. Bad Boys Blue - «You’re a Woman»
08. Владимир Маркин - «Я готов целовать песок»
09. Pupo - «Gelato Al Cioccolato»
10. Pupo - «Un Amore Grande»
11. «Здравствуй, песня» - «Синий иней»
12. Вячеслав Добрынин - «Попурри»
13. «Londonbeat» - «You Bring On The Sun»
14. «Londonbeat» - «I’ve Been Thinking About You»
15. Евгений Маргулис - «Старые песни»
16. Евгений Маргулис - «Мой друг лучше всех играет блюз»
17. Андрей Державин / «Сталкер» - «Песня про брата»
18. Андрей Державин / «Сталкер» - «Не плачь, Алиса»
19. Sandra - «Maria Magdalena»
20. Sandra - «In The Heat Of The Night»
21. Дюна - «Привет с большого бодуна»
22. Дюна - «Страна лимония»
23. «Альянс» - «На заре»
24. «Alphaville» - «Forever Young»
25. «Alphaville» - «Big in Japan»
26. Сергей Минаев - «Карнавал»
27. Олег Газманов / «Эскадрон» - «Есаул»
28. Олег Газманов / «Эскадрон» - «Путана»
29. C.C. Catch - «I Can Lose My Heart Tonight»
30. C.C. Catch - «Heaven and Hell»
31. Лев Лещенко - «Прощай»

Страна: Россия
Продолжительность: 01:58:36
Файл
Кодек: AVC/H.264
Качество: HDTV 1080i
Видео: AVC/H.264, 1920x1080, 16:9, 12,7 Мбит/сек, 25 fps
Звук: AC3, 192 Кбит/сек, 48000Hz, 2 ch
Субтитры: отсутствуют

Скриншоты

Релиз от: Rmk80disco

RelizMAN

Post 09-Jan-2020 05:50

[Quote]

Название: Джеймс Мэй: Наш человек в Японии
Оригинальное название: James May: Our Man in Japan
Год выпуска: 2020
Жанр: Документальный
Выпущено: Великобритания
Режиссер: Том Уиттер, Джеймс Мэй, Уилл Доуз
В ролях: Джеймс Мэй, Юджиро Танияма, Масайо Фуджи
О фильме: Джеймс Мэй отправляется в удивительное путешествие по Японии – от студеного севера до упоительно теплого юга. Он увидит достопримечательности, познакомится с местными жителями и будет есть лапшу, пытаясь по-настоящему понять Страну восходящего солнца.

Продолжительность: ~ 00:50:00
Перевод: Профессиональный многоголосый (IdeaFilm)
Файл
Кодек: H.264
Качество: WEB-DLRip 1080p
Видео: MPEG-4 AVC, ~ 7000 Kбит/с, 1920х1080
Аудио: Русский, английский (AC3, 6 ch, 384 Кбит/с)
Внимание, присутствует реклама!

Скриншоты

Релиз от: IdeaFilm

Vi$itReal

Post 09-Jan-2020 04:20

[Quote]

Название: Джеймс Мэй: Наш человек в Японии
Оригинальное название: James May: Our Man in Japan
Год выпуска: 2020
Жанр: Документальный
Выпущено: Великобритания
Режиссер: Том Уиттер, Джеймс Мэй, Уилл Доуз
В ролях: Джеймс Мэй, Юджиро Танияма, Масайо Фуджи
О фильме: Джеймс Мэй отправляется в удивительное путешествие по Японии – от студеного севера до упоительно теплого юга. Он увидит достопримечательности, познакомится с местными жителями и будет есть лапшу, пытаясь по-настоящему понять Страну восходящего солнца.

Продолжительность: ~ 00:50:00
Перевод: Профессиональный многоголосый (IdeaFilm)
Файл
Кодек: H.264
Качество: WEB-DLRip 720p
Видео: MPEG-4 AVC, ~ 4000 Кбит/с, 1280x720
Аудио: Русский, английский (AC3, 6 ch, 384 Кбит/с)
Внимание, присутствует реклама!

Скриншоты

Релиз от: IdeaFilm

RelizMAN

Post 05-Jan-2020 16:20

[Quote]

Информация о фильме
Название Гранд Тур
Оригинальное название The Grand Tour
Год выхода 2020
Жанр Шоу
В ролях Джеймс Мэй
О фильме
Джеймс Мэй отправляется в удивительное путешествие по Японии – от студеного севера до упоительно теплого юга. Он увидит достопримечательности, познакомится с местными жителями и будет есть лапшу, пытаясь по-настоящему понять Страну восходящего солнца.
Страна США
Продолжительность 00:48:00
Перевод Любительский (многоголосый, закадровый) Jetvis Studio
Файл
Кодек: H.264
Качество: WEBRip 1080p
Видео: 1920x1080, 8000 kbps, 25.000 fps
Аудио#1: AC3, 192 kbps, 48 KHz, 2ch (RU)
Аудио#2: AC3, 192 kbps, 48 KHz, 2ch (ENG)
Присутствует реклама

Скриншоты

RelizMAN

Post 01-Jan-2020 11:50

[Quote]

Информация о фильме
Название: 1001 ночь или Территория любви
Год выпуска: 2019
Жанр: Мюзикл
В ролях: Филипп Киркоров, Николай Басков, Дима Билан, Игорь Крутой, Валерия, Лолита, Димаш Кудайберген, Тамара Гвердцители, Кристина Орбакайте, группа «Фабрика», Жасмин, Михаил Шуфутинский, Александр Панайотов, Слава, Зара, Авраам Руссо, Виктория Кохана, Таисия Повалий, Юлия Михальчик, группа «Иванушки International», Александр Малинин, Денис Клявер, Маша Вебер, Рада Рай.
О фильме: В канун 2020 года в эфире телеканала НТВ — премьера новогоднего мюзикла из композиций на стихи Михаила Гуцериева. В музыкальном фильме прозвучат как хиты, так и совершенно новые композиции. Зрителей ждут любимые артисты в ярких образах из восточных сказок: Филипп Киркоров, Николай Басков, Дима Билан, Игорь Крутой, Валерия, Лолита, Димаш Кудайберген, Тамара Гвердцители, Кристина Орбакайте, группа «Фабрика», Жасмин, Михаил Шуфутинский, Александр Панайотов, Слава, Зара, Авраам Руссо, Виктория Кохана, Таисия Повалий, Юлия Михальчик, группа «Иванушки International», Александр Малинин, Денис Клявер, Маша Вебер, Рада Рай. Также в спектакле принимают участие шоумен Антон Лирник и актриса театра и кино Екатерина Климова.
Выпущено: Россия
Студия: НТВ
Продолжительность: 01:50:57
Перевод: Не требуется
Файл
Качество: WEBRip 1080p
Видео: MPEG-4 AVC, ~ 3951 Кбит/с, 1920x1080
Аудио: AC3, 2 ch, 192 Кбит/с

Скриншоты


Релиз от:

Vi$itReal

Post 01-Jan-2020 02:35

[Quote]

Информация о фильме
Название: 1001 ночь или Территория любви
Год выпуска: 2019
Жанр: Мюзикл
В ролях: Филипп Киркоров, Николай Басков, Дима Билан, Игорь Крутой, Валерия, Лолита, Димаш Кудайберген, Тамара Гвердцители, Кристина Орбакайте, группа «Фабрика», Жасмин, Михаил Шуфутинский, Александр Панайотов, Слава, Зара, Авраам Руссо, Виктория Кохана, Таисия Повалий, Юлия Михальчик, группа «Иванушки International», Александр Малинин, Денис Клявер, Маша Вебер, Рада Рай.
О фильме: В канун 2020 года в эфире телеканала НТВ — премьера новогоднего мюзикла из композиций на стихи Михаила Гуцериева. В музыкальном фильме прозвучат как хиты, так и совершенно новые композиции. Зрителей ждут любимые артисты в ярких образах из восточных сказок: Филипп Киркоров, Николай Басков, Дима Билан, Игорь Крутой, Валерия, Лолита, Димаш Кудайберген, Тамара Гвердцители, Кристина Орбакайте, группа «Фабрика», Жасмин, Михаил Шуфутинский, Александр Панайотов, Слава, Зара, Авраам Руссо, Виктория Кохана, Таисия Повалий, Юлия Михальчик, группа «Иванушки International», Александр Малинин, Денис Клявер, Маша Вебер, Рада Рай. Также в спектакле принимают участие шоумен Антон Лирник и актриса театра и кино Екатерина Климова.
Выпущено: Россия
Студия: НТВ
Продолжительность: 01:50:57
Перевод: Не требуется
Файл
Качество: WEBRip 720p
Видео: MPEG-4 AVC, ~ 2203 Кбит/с, 1280x720
Аудио: AC3, 2 ch, 192 Кбит/с

Скриншоты


Релиз от:

Vi$itReal

Post 30-Dec-2019 23:05

[Quote]

Информация о фильме
Название: Короли смеха
Год выпуска: 2019
Жанр: Тв-Шоу, юмор
Ведущие: Николай Басков, Наталья Медведева
О фильме: В программе - лучшие номера прошлого года на сцене только признанные мастера - настоящие короли и королевы юмора: Елена Степаненко, Игорь Маменко, Евгений Петросян, "Новые русские бабки", Юрий Аскаров, Владимир Данилец, Владимир Моисеенко - участников юмористических программ телеканала "Россия".
Выпущено: Россия
Студия: ВГТРК
Продолжительность: 01:50:58
Перевод: Не требуется
Файл
Качество: WEBRip 720p
Видео: MPEG-4 AVC, 2050 Кбит/с, 1280x720
Аудио: AC3, 2 ch, 192 Кбит/с

Скриншоты


Релиз от:

RelizMAN

Post 30-Dec-2019 04:20

[Quote]

Информация
Оригинальное название: Что? Где? Когда?
Год выпуска: 2019
Жанр: Интеллектуальное шоу
Ведущий: Борис Крюк
Описание: Интеллектуальная викторина, наиболее распространённая в русскоязычной среде. Была создана в 1975 г. телеведущим Владимиром Ворошиловым. Игра очень быстро стала настолько популярной, что кроме оригинальной телевизионной версии появилась спортивная версия игры. Сущность игры заключается в противостоянии команды Знатоков (игровой команды из шести человек) команде Телезрителей. Знатоки должны за одну минуту при помощи мозгового штурма найти ответ на вопрос, присланный телезрителем. Как правило, игрокам задаются вопросы, ответить на которые можно с помощью общих знаний и логики. За каждый правильный ответ команда Знатоков получает одно очко, в случае неверного ответа очко начисляется команде Телезрителей. Игра ведётся до шести очков.
Автор релиза: 25Kuzmich

Возможно наличие "всплывающих" надписей

Выпущено: Россия, Продюсерский центр "ИГРА-ТВ"
Продолжительность: 4 x ~ 01:00:00
Язык: Русский
Файл
Формат: TS
Качество: HDTV 1080i
Видео кодек: H.264
Аудио кодек: MP2, AC3
Видео: MPEG-4 AVC, ~ 6038 Кбит/с, 1920x1080
Аудио#1: Русский MP2, 2 ch, 192 Кбит/с
Аудио#2: Русский AC3, 2 ch, 384 Кбит/с

Анонс:

В первой игре – 30 ноября примет участие Сборная команда обладателей приза «Хрустальный атом».
Во второй игре – 8 декабря против телезрителей сыграет команда Балаша Касумова. В составе команды: Магистр игры «Что? Где? Когда?», двукратный обладатель Хрустальной совы Елизавета Овдеенко, трёхкратные обладатели Хрустальной совы – Юлия Лазарева и Дмитрий Авдеенко, двукратный обладатель Хрустальной совы Михаил Скипский, обладатель Хрустальной совы Эльман Талыбов. Капитан команды – обладатель Бриллиантовой и Хрустальной совы, обладатель звания «Лучший капитан Клуба» Балаш Касумов.
В третьей игре – 15 декабря примет участие команда Алеся Мухина. В её составе: Вера Рабкина, Дарья Соловей, Николай Крапиль, Михаил Малкин, Станислав Мереминский. Капитан команды – двукратный обладатель Хрустальной Совы, обладатель звания «Лучший капитан Клуба» Алесь Мухин.
В четвертой игре – 22 декабря против телезрителей выступит команда Ивана Жаркевича. В составе команды: Денис Галиакберов, Михаил Новосёлов, Лев Кертман, Анастасия Рекшинская, Кирилл Чернышев. Капитан команды – Иван Жаркевич.
В Финале года – 29 декабря – против сборной команды телезрителей сыграет та команда, которая покажет лучший результат и станет победителем Зимней серии.

Скриншоты


RelizMAN

Post 29-Dec-2019 15:35

[Quote]

Операция Аргун
Информация о фильме
Год выпуска: 2019
Страна: Россия
Жанр: Документальный, история, военный-Перевод: Не требуется
Продолжительность: 00:45:01-Режиссер: Александр Сладков
Описание:
Итум-Калинский десант (операция также известна под названиями специальная пограничная операция «Аргун», спецоперация «Аргун», пограничный десант в Аргунском ущелье) — совместная пограничная десантная специальная операция пограничных и воздушно-десантных войск России, проведённая в декабре 1999 — феврале 2000 года с целью восстановления российского контроля над чеченским участком российско-грузинской границы и блокирования путей снабжения боевиков со стороны Панкисского ущелья Грузии. В результате операции федеральными войсками была блокирована и взята под контроль автодорога Итум-Кале — Шатили, соединяющая Чечню с Грузией, до специальной операции являвшаяся основным путём пополнения чеченских боевиков наёмниками и материального снабжения бандформирований на территории Чеченской республики.-Качество: HDTV 1080p
Формат: MKV
Видео: MPEG-4 AVC, 1920x1080 (16:9), 7050 kbps, 25 fps, 0,113 bpp
Аудио: AC3 / 2.0 / 48 kHz / 192 kbps /-Релиз от: -

ОтчетМедиаИнфо

General
Unique ID : 242548650937994922464135942592867570610 (0xB6792BC56CE12167ACEE5C3B613793B2)
Complete name : E:Запись с твOperaciya Argun.2019.HDTV 1080p.by.White Smoke.R.G.Generalfilm.mkv
Format : Matroska
Format version : Version 4 / Version 2
File size : 1.94 GiB
Duration : 45 min 0 s
Overall bit rate mode : Constant
Overall bit rate : 6 177 kb/s
Movie name : Operaciya Argun.2019.HDTV 1080p.by.White Smoke.R.G.Generalfilm.mkv
Encoded date : UTC 2019-12-29 07:41:43
Writing application : mkvmerge v6.8.0 ('Theme for Great Cities') 64bit built on Mar 2 2014 21:34:26
Writing library : libebml v1.3.0 + libmatroska v1.4.1
Cover : Yes
Attachments : cover.jpg
Video
ID : 1
Format : AVC
Format/Info : Advanced Video Codec
Format profile : [email protected]
Format settings : CABAC / 3 Ref Frames
Format settings, CABAC : Yes
Format settings, ReFrames : 3 frames
Codec ID : V_MPEG4/ISO/AVC
Duration : 45 min 0 s
Bit rate mode : Constant
Bit rate : 5 862 kb/s
Nominal bit rate : 7 051 kb/s
Width : 1 920 pixels
Height : 1 080 pixels
Display aspect ratio : 16:9
Frame rate mode : Constant
Frame rate : 25.000 FPS
Standard : PAL
Color space : YUV
Chroma subsampling : 4:2:0
Bit depth : 8 bits
Scan type : Progressive
Bits/(Pixel*Frame) : 0.113
Stream size : 1.84 GiB (95%)
Default : Yes
Forced : No
Color range : Limited
Color primaries : BT.709
Transfer characteristics : BT.709
Matrix coefficients : BT.709
Audio
ID : 2
Format : AC-3
Format/Info : Audio Coding 3
Commercial name : Dolby Digital
Codec ID : A_AC3
Duration : 45 min 0 s
Bit rate mode : Constant
Bit rate : 192 kb/s
Channel(s) : 2 channels
Channel layout : L R
Sampling rate : 48.0 kHz
Frame rate : 31.250 FPS (1536 SPF)
Bit depth : 16 bits
Compression mode : Lossy
Stream size : 61.8 MiB (3%)
Service kind : Complete Main
Default : Yes
Forced : No

Скриншоты

 

Current time is: 20-Jan 00:19

All times are UTC + 3