Search found 500 matches

Author Message

RelizMAN

Post Yesterday 03:50

[Quote]

Информация о фильме
Оригинальное название: Следствие вели... с Леонидом Каневским
Год выхода: 2019
Жанр: Документальный, детектив, криминал, расследование, история
Режиссер: Игорь Ромащенко
Ведущий: Леонид Каневский
В выпуске:
1987 год, Свердловск. 19-летний парень становится жертвой собственных друзей. Но правосудие не всегда справедливо, и все трое преступников вскоре выходят на свободу. А несколько лет спустя кто-то убивает одного из оставшихся безнаказанными молодчиков
Страна: Россия, ООО "Версия продакшн"
Продолжительность: 00:40:53
Перевод: Перевод не требуется
Файл
Кодек: MPEG-4 AVC
Качество: WEBRip 1080p
Видео: 1920х1080 (16:9), 25 fps, AVC MPEG-4 (x264), [email protected] ~ 6000 kbps avg, 0.116 bit/pixel
Звук: 48 kHz, AC3, 2 ch, 192 kbps avg

Скриншоты


Релиз от:

RelizMAN

Post 07-Dec-2019 15:20

[Quote]

Информация о фильме
Название: Легенда о кокаиновом острове
Оригинальное название: The Legend of Cocaine Island
Год выхода: 2018
Жанр: документальный, приключения, драма, криминал
Режиссер: Тео Лав
В ролях: Родни Хайден, Джозеф Баттерворф, Бри Брайант, Andy Culpepper, Артур Дин, Грег Энглберг, Мэттью Эзелл, Edward Steven Harris II, Эмили Хайден, Джэми Хайден
О фильме:
На жизнь Родни Хайдена повлиял кризис, его малый бизнес рухнул, а других доходов для содержания семьи он не имеет. Тогда Родни принимает отчаянную идею. Он отправляется на остров на котором по слухам есть кокаин на 2 миллиона долларов.

Страна: США
Студия: Sidestilt
Продолжительность: 01:27:03
Перевод: СУБТИТРЫ
Файл
Кодек: H.264
Качество: WEBRip 1080p
Видео: AVC, 1920x1080 (16:9), 23.976 fps ~ 5110 Kbps
Звук: E-AC3, 48 KHz, 6 ch ~ 640 Kb/s (английский)
Субтитры: русские, английские + еще 24

MI:

Общее
Уникальный идентификатор : 172982679491805666466082764256818232568 (0x822340921A77DE8435B62CEB0D07FCF8)
Полное имя : G:wotThe.Legend.of.Cocaine.Island.2019.1080p.NF.mkv
Формат : Matroska
Версия формата : Version 4 / Version 2
Размер файла : 3,47 Гбайт
Продолжительность : 1 ч. 27 м.
Режим общего битрейта : Переменный
Общий поток : 5712 Кбит/сек
Дата кодирования : UTC 2019-03-29 07:13:55
Программа кодирования : mkvmerge v21.0.0 ('Tardigrades Will Inherit The Earth') 64-bit
Библиотека кодирования : libebml v1.3.5 + libmatroska v1.4.8
DURATION : 01:24:02.288000000
NUMBER_OF_FRAMES : 1251
NUMBER_OF_BYTES : 43290
_STATISTICS_WRITING_APP : mkvmerge v21.0.0 ('Tardigrades Will Inherit The Earth') 64-bit
_STATISTICS_WRITING_DATE_UTC : 2019-03-29 07:13:55
_STATISTICS_TAGS : BPS DURATION NUMBER_OF_FRAMES NUMBER_OF_BYTES
Видео
Идентификатор : 1
Формат : AVC
Формат/Информация : Advanced Video Codec
Профиль формата : [email protected]
Параметр CABAC формата : Да
Параметр ReFrames формата : 3 кадра
Идентификатор кодека : V_MPEG4/ISO/AVC
Продолжительность : 1 ч. 27 м.
Вид битрейта : Переменный
Битрейт : 5110 Кбит/сек
Максимальный битрейт : 7665 Кбит/сек
Ширина : 1920 пикселей
Высота : 1080 пикселей
Соотношение сторон : 16:9
Частота кадров : 23,976 кадра/сек
Цветовое пространство : YUV
Субдискретизация насыщенности : 4:2:0
Битовая глубина : 8 бит
Тип развёртки : Прогрессивная
Бит/(Пиксели*Кадры) : 0.103
Размер потока : 3,02 Гбайт (87%)
Библиотека кодирования : x264 core 148 r2715 7e75228
Настройки программы : cabac=1 / ref=3 / deblock=1:0:0 / analyse=0x1:0x111 / me=umh / subme=10 / psy=1 / psy_rd=1.00:0.00 / mixed_ref=1 / me_range=24 / chroma_me=1 / trellis=2 / 8x8dct=0 / cqm=0 / deadzone=21,11 / fast_pskip=1 / chroma_qp_offset=-2 / threads=8 / lookahead_threads=1 / sliced_threads=0 / nr=0 / decimate=1 / interlaced=0 / bluray_compat=0 / stitchable=1 / constrained_intra=0 / bframes=2 / b_pyramid=0 / b_adapt=2 / b_bias=0 / direct=3 / weightb=1 / open_gop=0 / weightp=2 / keyint=48 / keyint_min=25 / scenecut=0 / intra_refresh=0 / rc_lookahead=48 / rc=2pass / mbtree=1 / bitrate=5110 / ratetol=1.0 / qcomp=0.50 / qpmin=6 / qpmax=51 / qpstep=4 / cplxblur=20.0 / qblur=0.5 / vbv_maxrate=7665 / vbv_bufsize=10220 / nal_hrd=vbr / filler=0 / ip_ratio=1.40 / aq=1:1.00
Default : Да
Forced : Нет
Аудио
Идентификатор : 2
Формат : E-AC-3
Формат/Информация : Audio Coding 3
Идентификатор кодека : A_EAC3
Продолжительность : 1 ч. 27 м.
Вид битрейта : Постоянный
Битрейт : 640 Кбит/сек
Каналы : 6 каналов
Расположение каналов : Front: L C R, Side: L R, LFE
Частота : 48,0 КГц
Метод сжатия : С потерями
Размер потока : 399 Мбайт (11%)
Заголовок : English
Язык : English
Default : Да
Forced : Нет
Текст #1
Идентификатор : 3
Формат : UTF-8
Идентификатор кодека : S_TEXT/UTF8
Идентификатор кодека/Информация : UTF-8 Plain Text
Заголовок : Forced
Язык : English
Default : Да
Forced : Да
Текст #2
Идентификатор : 4
Формат : UTF-8
Идентификатор кодека : S_TEXT/UTF8
Идентификатор кодека/Информация : UTF-8 Plain Text
Язык : English
Default : Нет
Forced : Нет
Текст #3
Идентификатор : 5
Формат : UTF-8
Идентификатор кодека : S_TEXT/UTF8
Идентификатор кодека/Информация : UTF-8 Plain Text
Заголовок : SDH
Язык : English
Default : Нет
Forced : Нет
Текст #4
Идентификатор : 6
Формат : UTF-8
Идентификатор кодека : S_TEXT/UTF8
Идентификатор кодека/Информация : UTF-8 Plain Text
Язык : Arabic
Default : Нет
Forced : Нет
Текст #5
Идентификатор : 7
Формат : UTF-8
Идентификатор кодека : S_TEXT/UTF8
Идентификатор кодека/Информация : UTF-8 Plain Text
Язык : Czech
Default : Нет
Forced : Нет
Текст #6
Идентификатор : 8
Формат : UTF-8
Идентификатор кодека : S_TEXT/UTF8
Идентификатор кодека/Информация : UTF-8 Plain Text
Язык : Danish
Default : Нет
Forced : Нет
Текст #7
Идентификатор : 9
Формат : UTF-8
Идентификатор кодека : S_TEXT/UTF8
Идентификатор кодека/Информация : UTF-8 Plain Text
Язык : German
Default : Нет
Forced : Нет
Текст #8
Идентификатор : 10
Формат : UTF-8
Идентификатор кодека : S_TEXT/UTF8
Идентификатор кодека/Информация : UTF-8 Plain Text
Язык : Greek
Default : Нет
Forced : Нет
Текст #9
Идентификатор : 11
Формат : UTF-8
Идентификатор кодека : S_TEXT/UTF8
Идентификатор кодека/Информация : UTF-8 Plain Text
Язык : Spanish
Default : Нет
Forced : Нет
Текст #10
Идентификатор : 12
Формат : UTF-8
Идентификатор кодека : S_TEXT/UTF8
Идентификатор кодека/Информация : UTF-8 Plain Text
Заголовок : European
Язык : Spanish
Default : Нет
Forced : Нет
Текст #11
Идентификатор : 13
Формат : UTF-8
Идентификатор кодека : S_TEXT/UTF8
Идентификатор кодека/Информация : UTF-8 Plain Text
Язык : Finnish
Default : Нет
Forced : Нет
Текст #12
Идентификатор : 14
Формат : UTF-8
Идентификатор кодека : S_TEXT/UTF8
Идентификатор кодека/Информация : UTF-8 Plain Text
Язык : French
Default : Нет
Forced : Нет
Текст #13
Идентификатор : 15
Формат : UTF-8
Идентификатор кодека : S_TEXT/UTF8
Идентификатор кодека/Информация : UTF-8 Plain Text
Язык : Hebrew
Default : Нет
Forced : Нет
Текст #14
Идентификатор : 16
Формат : UTF-8
Идентификатор кодека : S_TEXT/UTF8
Идентификатор кодека/Информация : UTF-8 Plain Text
Язык : Hungarian
Default : Нет
Forced : Нет
Текст #15
Идентификатор : 17
Формат : UTF-8
Идентификатор кодека : S_TEXT/UTF8
Идентификатор кодека/Информация : UTF-8 Plain Text
Язык : Indonesian
Default : Нет
Forced : Нет
Текст #16
Идентификатор : 18
Формат : UTF-8
Идентификатор кодека : S_TEXT/UTF8
Идентификатор кодека/Информация : UTF-8 Plain Text
Язык : Italian
Default : Нет
Forced : Нет
Текст #17
Идентификатор : 19
Формат : UTF-8
Идентификатор кодека : S_TEXT/UTF8
Идентификатор кодека/Информация : UTF-8 Plain Text
Язык : Japanese
Default : Нет
Forced : Нет
Текст #18
Идентификатор : 20
Формат : UTF-8
Идентификатор кодека : S_TEXT/UTF8
Идентификатор кодека/Информация : UTF-8 Plain Text
Язык : Korean
Default : Нет
Forced : Нет
Текст #19
Идентификатор : 21
Формат : UTF-8
Идентификатор кодека : S_TEXT/UTF8
Идентификатор кодека/Информация : UTF-8 Plain Text
Язык : Norwegian Bokmal
Default : Нет
Forced : Нет
Текст #20
Идентификатор : 22
Формат : UTF-8
Идентификатор кодека : S_TEXT/UTF8
Идентификатор кодека/Информация : UTF-8 Plain Text
Язык : Dutch
Default : Нет
Forced : Нет
Текст #21
Идентификатор : 23
Формат : UTF-8
Идентификатор кодека : S_TEXT/UTF8
Идентификатор кодека/Информация : UTF-8 Plain Text
Язык : Polish
Default : Нет
Forced : Нет
Текст #22
Идентификатор : 24
Формат : UTF-8
Идентификатор кодека : S_TEXT/UTF8
Идентификатор кодека/Информация : UTF-8 Plain Text
Язык : Portuguese
Default : Нет
Forced : Нет
Текст #23
Идентификатор : 25
Формат : UTF-8
Идентификатор кодека : S_TEXT/UTF8
Идентификатор кодека/Информация : UTF-8 Plain Text
Заголовок : Brazilian
Язык : Portuguese
Default : Нет
Forced : Нет
Текст #24
Идентификатор : 26
Формат : UTF-8
Идентификатор кодека : S_TEXT/UTF8
Идентификатор кодека/Информация : UTF-8 Plain Text
Язык : Romanian
Default : Нет
Forced : Нет
Текст #25
Идентификатор : 27
Формат : UTF-8
Идентификатор кодека : S_TEXT/UTF8
Идентификатор кодека/Информация : UTF-8 Plain Text
Язык : Russian
Default : Нет
Forced : Нет
Текст #26
Идентификатор : 28
Формат : UTF-8
Идентификатор кодека : S_TEXT/UTF8
Идентификатор кодека/Информация : UTF-8 Plain Text
Язык : Swedish
Default : Нет
Forced : Нет
Текст #27
Идентификатор : 29
Формат : UTF-8
Идентификатор кодека : S_TEXT/UTF8
Идентификатор кодека/Информация : UTF-8 Plain Text
Язык : Thai
Default : Нет
Forced : Нет
Текст #28
Идентификатор : 30
Формат : UTF-8
Идентификатор кодека : S_TEXT/UTF8
Идентификатор кодека/Информация : UTF-8 Plain Text
Язык : Turkish
Default : Нет
Forced : Нет
Текст #29
Идентификатор : 31
Формат : UTF-8
Идентификатор кодека : S_TEXT/UTF8
Идентификатор кодека/Информация : UTF-8 Plain Text
Язык : Vietnamese
Default : Нет
Forced : Нет
Текст #30
Идентификатор : 32
Формат : UTF-8
Идентификатор кодека : S_TEXT/UTF8
Идентификатор кодека/Информация : UTF-8 Plain Text
Заголовок : Simplified
Язык : Chinese
Default : Нет
Forced : Нет
Текст #31
Идентификатор : 33
Формат : UTF-8
Идентификатор кодека : S_TEXT/UTF8
Идентификатор кодека/Информация : UTF-8 Plain Text
Заголовок : Traditional
Язык : Chinese
Default : Нет
Forced : Нет

Скриншоты

Vi$itReal

Post 24-Nov-2019 16:20

[Quote]

Информация о фильме
Название: Гоголь. Фильм о фильме
Год выхода: 2018
Жанр: детектив, приключения, триллер, документальный
Режиссер: Егор Баранов
В ролях: Александр Петров, Олег Меньшиков, Евгений Стычкин, Таисия Вилкова, Юлия Франц, Ян Цапник, Евгений Сытый, Сергей Бадюк, Артём Ткаченко, Марта Тимофеева, Павел Деревянко
О фильме: Создатели нашумевшей кинотрилогии о мистических приключениях молодого Николая Васильевича Гоголя рассказывают о судьбе проекта: от смелой задумки Александра Цекало и кастинга до съемок заключительной части «Гоголь. Страшная месть» и промо-кампании. Режиссер, оператор, художник, постановщик трюков, знаменитые актеры и другие члены съемочной группы поведали о своей работе и самых интересных моментах, оставшихся за кадром. Фильм о фильме предназначен не только для почитателей трилогии, но и для будущих зрителей: участники проекта откровенны в своих интервью, лишь пока речь не заходит о серьезных спойлерах. Как автор идеи и продюсер Александр Цекало решился на хулиганский проект по мотивам русской классики? Почему Александр Петров и Олег Меньшиков согласились исполнить самые необычные роли в своей карьере? Каким образом режиссер Егор Баранов выстраивал работу со звездным актерским дуэтом?
Страна: Россия
Продолжительность: 00:46:03
Перевод: не требуется
Файл
Качество: WEBRip 720p
Формат: MKV
Видео: 1280x720, AVC, 25 fps, ~2569 kbps
Аудио: AAC, 48.0 kHz, 2 ch, 192 kbps

MediaInfo

General
Unique ID : 179065011919343585941958242987026107858 (0x86B6AAB65671D449BFB98445C7674DD2)
Complete name : D:Гоголь. Фильм о фильме.mkv
Format : Matroska
Format version : Version 4
File size : 907 MiB
Duration : 46 min 3 s
Overall bit rate : 2 752 kb/s
Encoded date : UTC 2019-11-19 06:12:11
Writing application : mkvmerge v8.3.0 ('Over the Horizon') 32bit
Writing library : libebml v1.3.1 + libmatroska v1.4.2
Video
ID : 1
Format : AVC
Format/Info : Advanced Video Codec
Format profile : [email protected]
Format settings : CABAC / 4 Ref Frames
Format settings, CABAC : Yes
Format settings, Reference : 4 frames
Codec ID : V_MPEG4/ISO/AVC
Duration : 46 min 3 s
Bit rate : 2 569 kb/s
Width : 1 280 pixels
Height : 720 pixels
Display aspect ratio : 16:9
Frame rate mode : Constant
Frame rate : 25.000 FPS
Color space : YUV
Chroma subsampling : 4:2:0
Bit depth : 8 bits
Scan type : Progressive
Bits/(Pixel*Frame) : 0.112
Stream size : 843 MiB (93%)
Writing library : x264 core 142
Encoding settings : cabac=1 / ref=3 / deblock=1:0:0 / analyse=0x3:0x113 / me=hex / subme=7 / psy=1 / psy_rd=1.00:0.00 / mixed_ref=1 / me_range=16 / chroma_me=1 / trellis=1 / 8x8dct=1 / cqm=0 / deadzone=21,11 / fast_pskip=1 / chroma_qp_offset=-2 / threads=36 / lookahead_threads=5 / sliced_threads=0 / nr=0 / decimate=1 / interlaced=0 / bluray_compat=0 / constrained_intra=0 / bframes=6 / b_pyramid=2 / b_adapt=1 / b_bias=0 / direct=1 / weightb=1 / open_gop=0 / weightp=2 / keyint=50 / keyint_min=26 / scenecut=0 / intra_refresh=0 / rc_lookahead=40 / rc=2pass / mbtree=1 / bitrate=2569 / ratetol=1.0 / qcomp=0.60 / qpmin=0 / qpmax=69 / qpstep=4 / cplxblur=20.0 / qblur=0.5 / vbv_maxrate=3854 / vbv_bufsize=10279 / nal_hrd=none / filler=0 / ip_ratio=1.40 / aq=1:1.00
Default : Yes
Forced : No
Audio
ID : 2
Format : AAC LC
Format/Info : Advanced Audio Codec Low Complexity
Codec ID : A_AAC-2
Duration : 46 min 3 s
Bit rate : 192 kb/s
Channel(s) : 2 channels
Channel layout : L R
Sampling rate : 48.0 kHz
Frame rate : 46.875 FPS (1024 SPF)
Compression mode : Lossy
Stream size : 63.3 MiB (7%)
Language : Russian
Default : Yes
Forced : No

Скриншоты

Vi$itReal

Post 20-Nov-2019 08:05

[Quote]

Информация о фильме
Название: Мир по Голдблюму
Оригинальное название: The World According to Jeff Goldblum
Год выпуска: 2019
Жанр: Документальный
Выпущено: США, Disney+, National Geographic, Nutopia
Режиссер: Ник Стэйси
В ролях: Джефф Голдблюм
О фильме:
Актер и музыкант Джефф Голдблюм познает мир своих любимых вещей и не забывает увлеченно о них рассказывать.

Файл
Качество: WEB-DL (720p)
Видео: MPEG-4 AVC, 4241 Rбит/с, 1280x720
Аудио:
Русский (E-AC3, 6 ch, 384 Кбит/с)
Английский (E-AC3, 6 ch, 256 Кбит/с)
Продолжительность: 1 x ~ 00:29:28
Перевод: Любительский двухголосый [Mallorn Studio]
Субтитры: Русские, английские (софтсаб)

Скриншоты

Релиз группа: Plague Studios
Озвучка: Mallorn Studio
Без рекламы!

RelizMAN

Post 20-Nov-2019 07:50

[Quote]

Информация о фильме
Название: Мир по Голдблюму
Оригинальное название: The World According to Jeff Goldblum
Год выпуска: 2019
Жанр: Документальный
Выпущено: США, Disney+, National Geographic, Nutopia
Режиссер: Ник Стэйси
В ролях: Джефф Голдблюм
О фильме:
Актер и музыкант Джефф Голдблюм познает мир своих любимых вещей и не забывает увлеченно о них рассказывать.

Файл
Качество: WEB-DL (1080p)
Видео: MPEG-4 AVC, 11 Мбит/с, 1920x1080
Аудио:
Русский (E-AC3, 6 ch, 384 Кбит/с)
Английский (E-AC3, 6 ch, 256 Кбит/с)
Размер: 2.40 ГБ
Продолжительность: 1 x ~ 00:29:28
Перевод: Любительский двухголосый [Mallorn Studio]
Субтитры: Русские, английские (софтсаб)

Скриншоты

Релиз группа: Plague Studios
Озвучка: Mallorn Studio
[img]/s/t/smilies/excl.gif[/img] Без рекламы!

RelizMAN

Post 18-Nov-2019 00:20

[Quote]

Информация о фильме
Оригинальное название: Следствие вели... с Леонидом Каневским
Год выхода: 2019
Жанр: Документальный, детектив, криминал, расследование, история
Режиссер: Игорь Ромащенко
Ведущий: Леонид Каневский
В выпуске:
В 1991 году в Сыктывкаре начал орудовать серийный маньяк, который остался одним из самых загадочных преступников СССР. Долгое время правоохранительные органы не могли выйти на след злоумышленника, ведь он не оставлял совершенно никаких улик.
Помощь в поимке преступника следователям оказал самый известный клоун страны.
Страна: Россия, ООО "Версия продакшн"
Продолжительность: 00:40:51
Перевод: Перевод не требуется
Файл
Кодек: MPEG-4 AVC
Качество: WEBRip 1080p
Видео: 1920х1080 (16:9), 25 fps, AVC MPEG-4 (x264), [email protected] ~ 6000 kbps avg, 0.116 bit/pixel
Звук: 48 kHz, AC3, 2 ch, 192 kbps avg

Скриншоты


Релиз от:

RelizMAN

Post 16-Nov-2019 15:20

[Quote]

Информация о фильме
Название: Прерванное путешествие
Оригинальное название: Journey Interrupted
Год выхода: 2016
Жанр: документальный, семейный, христианский
Режиссер: Анна и Браян Савински
В ролях: Даниэлла Харрисон, Майкл Кардучи, Рон Вусли, Уейн Блекли, Анна
О фильме:
В больших дебатах, которые бушуют по вопросам сексуальной идентичности, есть голоса, которые, кажется, никогда не слышат и важные истории, которые никогда не рассказывают. В «Прерванном путешествии» у вас наконец-то появится шанс услышать несколько таких голосов и вы найдете рецепт надежды в том, что Бог не оставил вас. Этот важный фильм отрезвляюще откровенен, глубоко искренен. Он может оказаться первым шагом, который вы сделаете к гораздо лучшему завтра.
Мы все пребываем в путешествии. Куда оно ведёт? Бывало ли так, что вы двигались в одном направлении, а потом неожиданно останавливались? Вот что случилось с каждым, из движения ‘Coming Out’.

Официальный сайт
Страна: США
Продолжительность: 01:00:51
Перевод: любительский (двухголосый закадровый)
Файл
Кодек: h.264
Качество: WEBRip 1080p
Видео: 1920x1080, 4 MBit/sec, 23.976 fps
Звук: AAC, 192 KBit/sec, 48 KHz, Stereo

Скриншоты

Релиз от: 1-й Креационистский Киевский Астроклуб

RelizMAN

Post 10-Nov-2019 22:20

[Quote]

Информация о фильме
Оригинальное название: Следствие вели... с Леонидом Каневским
Год выхода: 2019
Жанр: Документальный, детектив, криминал, расследование, история
Режиссер: Борис Фёдоров
Ведущий: Леонид Каневский
В выпуске:
1988 год, Пензенская область. В небольшом селе происходят жестокие нападения. От рук преступника погибают бабушка и внучка, затем пенсионер. Позже выяснится: жители села догадывались, кто стоит за этими страшными расправами. Но боялись. И не преступника, а его мать.
Страна: Россия, ООО "Версия продакшн"
Продолжительность: 00:40:42
Перевод: Перевод не требуется
Файл
Кодек: MPEG-4 AVC
Качество: WEBRip 1080p
Видео: 1920х1080 (16:9), 25 fps, AVC MPEG-4 (x264), [email protected] ~ 6000 kbps avg, 0.116 bit/pixel
Звук: 48 kHz, AC3, 2 ch, 192 kbps avg

Скриншоты


Релиз от:

RelizMAN

Post 10-Nov-2019 21:35

[Quote]

Информация
Оригинальное название: Что? Где? Когда?
Год выпуска: 2019
Жанр: Интеллектуальное шоу
Ведущий: Борис Крюк
Описание: Интеллектуальная викторина, наиболее распространённая в русскоязычной среде. Была создана в 1975 г. телеведущим Владимиром Ворошиловым. Игра очень быстро стала настолько популярной, что кроме оригинальной телевизионной версии появилась спортивная версия игры. Сущность игры заключается в противостоянии команды Знатоков (игровой команды из шести человек) команде Телезрителей. Знатоки должны за одну минуту при помощи мозгового штурма найти ответ на вопрос, присланный телезрителем. Как правило, игрокам задаются вопросы, ответить на которые можно с помощью общих знаний и логики. За каждый правильный ответ команда Знатоков получает одно очко, в случае неверного ответа очко начисляется команде Телезрителей. Игра ведётся до шести очков.
Автор релиза: 25Kuzmich
Спасибо за 3 выпуск: Doc66

Возможно наличие "всплывающих" надписей

Огромная благодарность Media-Art-Club за созданный постер к раздаче
Выпущено: Россия, Продюсерский центр "ИГРА-ТВ"
Продолжительность: 5 x ~ 01:00:00
Язык: Русский
Файл
Формат: TS
Качество: HDTV 1080i
Видео кодек: H.264
Аудио кодек: MP2, AC3
Видео: MPEG-4 AVC, ~ 6520 Кбит/с, 1920x1080
Аудио#1: Русский MP2, 2 ch, 192 Кбит/с
Аудио#2: Русский AC3, 2 ch, 384 Кбит/с

Анонс:

В первой игре Команда Константина Рудера. В составе команды: Никита Баринов, Александра Золотова, Роман Кузиков, Евгений Фионов, Илья Баженов. Капитан команды – Константин Рудер.
Во второй игре Команда Виктора Сиднева. В составе команды: Магистр игры «Что? Где? Когда?», четырехкратный обладатель Хрустальной совы Максим Поташев, обладатель Бриллиантовой и Хрустальной совы Борис Левин, а также Леонид Тимофеев, Михаил Дюба и Инна Семёнова.
В третьей игре Команда Ивана Жаркевича. В её составе: Кирилл Чернышёв, Лев Кертман, Денис Галиакберов, Михаил Новосёлов, Анастасия Рекшинская. Капитан команды – Иван Жаркевич.
В четвертой игре Команда Елены Потаниной. За команду играют: Михаил Карпук, Андрей Коробейник, Роман Оркодашвили, Ия Метревели, Айк Казазян. Капитан команды – Елена Потанина.
В пятой игре Команда Бориса Белозёрова. В составе команды: Ольга Быкова, Дарья Любинская, Ким Галачян, Антон Иоков, Никита Старун. Капитан команды – обладатель Хрустальной совы Борис Белозёров..

Скриншоты

RelizMAN

Post 10-Nov-2019 21:35

[Quote]

ЯнаСупер
Информация о фильме
Год выпуска: 2019
Страна: Россия, Телеканал супер
Жанр: Реалити-шоу-Перевод: Не требуется
Продолжительность: 00:49:19
В ролях: Яна Рудковская, Евгений Плющенко, Ксения Собчак
Описание:
Проект «ЯнаСупер» станет пропуском в ту часть жизни богатых и знаменитых, которая, как правило, скрыта от посторонних глаз. Одна из самых влиятельных бизнес-леди российского шоу-бизнеса Яна Рудковская решилась пустить камеры в свой дом, семью, личную и творческую жизнь, чтобы рассказать о себе всю правду.-Качество: HDTV 1080p
Формат: MKV
Видео: MPEG-4 AVC,1920x1080 (16:9), 8376 kbps, 25 fps, 0,162 bpp(0.230 bit/pixel)
Аудио: AC3 / 2.0 / 48 kHz / 192 kbps /-Релиз от: -

ОтчетМедиаИнфо

GGeneral
Unique ID : 226773865017243754117604968294032848215 (0xAA9B0EC701ED4D6887F1D7C9F927B557)
Complete name : E:Запись с твYanaSuper 2019 HDTV 1080p.R.G.GeneralfilmYanaSuper.s01.e01.2019.HDTV 1080p.by.White Smoke.R.G.Generalfilm.mkv
Format : Matroska
Format version : Version 4 / Version 2
File size : 3.01 GiB
Duration : 49 min 19 s
Overall bit rate : 8 742 kb/s
Encoded date : UTC 2019-11-10 12:39:38
Writing application : mkvmerge v6.8.0 ('Theme for Great Cities') 64bit built on Mar 2 2014 21:34:26
Writing library : libebml v1.3.0 + libmatroska v1.4.1
Cover : Yes
Attachments : cover2.jpg
Video
ID : 1
Format : AVC
Format/Info : Advanced Video Codec
Format profile : [email protected]
Format settings : CABAC / 2 Ref Frames
Format settings, CABAC : Yes
Format settings, ReFrames : 2 frames
Codec ID : V_MPEG4/ISO/AVC
Duration : 49 min 19 s
Bit rate : 8 376 kb/s
Width : 1 920 pixels
Height : 1 080 pixels
Display aspect ratio : 16:9
Frame rate mode : Constant
Frame rate : 25.000 FPS
Color space : YUV
Chroma subsampling : 4:2:0
Bit depth : 8 bits
Scan type : Progressive
Bits/(Pixel*Frame) : 0.162
Stream size : 2.89 GiB (96%)
Default : Yes
Forced : No
Audio
ID : 2
Format : AC-3
Format/Info : Audio Coding 3
Commercial name : Dolby Digital
Codec ID : A_AC3
Duration : 49 min 19 s
Bit rate mode : Constant
Bit rate : 192 kb/s
Channel(s) : 2 channels
Channel layout : L R
Sampling rate : 48.0 kHz
Frame rate : 31.250 FPS (1536 SPF)
Bit depth : 16 bits
Compression mode : Lossy
Stream size : 67.7 MiB (2%)
Service kind : Complete Main
Default : Yes
Forced : No

Скриншоты



Раздача ведётся путём добавления новых серий

Внимание! Раздача ведётся путём добавления новых серий; при каждом добавлении создаётся новый торрент.
Чтобы начать докачку новой серии, пользователям необходимо сделать следующее:
1. Остановить скачивание;
2. Удалить старый торрент у себя из клиента (старые серии удалять не надо);
3. Скачать новый торрент и запустить его у себя в клиенте вместо старого, при этом указать клиенту путь в старую папку куда и должно происходить скачивание новых серий. Ваш клиент при этом должен произвести хеширование (проверку) старой папки и будет докачивать только те серии, которых у вас ещё нет. Старые серии при этом не удаляются, а продолжают раздаваться! Eсли вы уже удалили старые серии, то предотвратить повторную закачку старых серий можно, отжав галочку в соответствующих местах при запуске нового торрента.

Vi$itReal

Post 10-Nov-2019 16:20

[Quote]

Информация о фильме
Название: ЯнаСупер
Год выпуска: 2019
Жанр: Реалити-шоу
В ролях: Яна Рудковская, Евгений Плющенко, Ксения Собчак
О фильме: Проект «ЯнаСупер» станет пропуском в ту часть жизни богатых и знаменитых, которая, как правило, скрыта от посторонних глаз. Одна из самых влиятельных бизнес-леди российского шоу-бизнеса Яна Рудковская решилась пустить камеры в свой дом, семью, личную и творческую жизнь, чтобы рассказать о себе всю правду.
Выпущено: Россия
Студия: Телеканал супер
Продолжительность: 1 x ~ 00:49:00
Перевод: Не требуется
Файл
Качество: WEB-DL 720p
Видео: MPEG-4 AVC, ~ 3790 Кбит/с, 1280х720
Аудио: AC3, 2 ch, 192 Кбит/с

Скриншоты


Релиз от:

Vi$itReal

Post 10-Nov-2019 10:35

[Quote]

Название: Дьявол по соседству
Оригинальное название: The Devil Next Door
Год выпуска: 2019
Жанр: Документальный
Выпущено: США, Netflix
Режиссер: Даниэль Сиван
В ролях: Эли Розенбаум, Джон Демьянюк, Йорам Шефтель
О фильме: Иван Демьянюк, в последствии взявший имя Джон, был обычным мигрантом, который переехал в Соединенные Штаты в поисках новой жизни: поселился в тихом городке Кливленд, устроился автомехаником на завод Форд, имел жену, дочку и уже в 1958 году получил американское гражданство. Но в конце 70-х его жизнь переворачивается с ног на голову: американского гражданина, Джона Демьянюк, узнают как жестокого надзирателя газовых камер в бывшем нацистском концентрационном лагере Треблинка, которому узники дали кличку "Иван Грозный" - за жестокие пытки и издевательства над еврейскими заключенными.

Продолжительность: ~ 00:45:00
Перевод: Профессиональный одноголосый (IdeaFilm)
Файл
Кодек: H.264
Качество: WEB-DLRip 720p
Видео: MPEG-4 AVC, ~ 4000 Кбит/с, 1280x720
Аудио: Русский, английский (AC3, 6 ch, 384 Кбит/с)
Внимание, присутствует реклама!

Скриншоты

Релиз от: IdeaFilm

RelizMAN

Post 10-Nov-2019 10:20

[Quote]

Название: Дьявол по соседству
Оригинальное название: The Devil Next Door
Год выпуска: 2019
Жанр: Документальный
Выпущено: США, Netflix
Режиссер: Даниэль Сиван
В ролях: Эли Розенбаум, Джон Демьянюк, Йорам Шефтель
О фильме: Иван Демьянюк, в последствии взявший имя Джон, был обычным мигрантом, который переехал в Соединенные Штаты в поисках новой жизни: поселился в тихом городке Кливленд, устроился автомехаником на завод Форд, имел жену, дочку и уже в 1958 году получил американское гражданство. Но в конце 70-х его жизнь переворачивается с ног на голову: американского гражданина, Джона Демьянюк, узнают как жестокого надзирателя газовых камер в бывшем нацистском концентрационном лагере Треблинка, которому узники дали кличку "Иван Грозный" - за жестокие пытки и издевательства над еврейскими заключенными.

Продолжительность: ~ 00:45:00
Перевод: Профессиональный одноголосый (IdeaFilm)
Файл
Кодек: H.264
Качество: WEB-DLRip 1080p
Видео: MPEG-4 AVC, ~ 7000 Kбит/с, 1920х1080
Аудио: Русский, английский (AC3, 6 ch, 384 Кбит/с)
Внимание, присутствует реклама!

Скриншоты

Релиз от: IdeaFilm

RelizMAN

Post 03-Nov-2019 20:35

[Quote]

Информация о фильме
Оригинальное название: Следствие вели... с Леонидом Каневским
Год выхода: 2019
Жанр: Документальный, детектив, криминал, расследование, история
Режиссер: Игорь Ромащенко
Ведущий: Леонид Каневский
В выпуске:
1987 год, Краснодар. Обнаружена убитой молодая пара. Из квартиры похищены незначительные ценности. Сыщики подозревают: преступники лишь имитировали разбойное нападение. Настоящая причина убийства — месть. Но за что? Вскоре происходит ещё одно преступление, которое замаскировано под несчастный случай.
Страна: Россия, ООО "Версия продакшн"
Продолжительность: 00:41:15
Перевод: Перевод не требуется
Файл
Кодек: MPEG-4 AVC
Качество: WEBRip 1080p
Видео: 1920х1080 (16:9), 25 fps, AVC MPEG-4 (x264), [email protected] ~ 6000 kbps avg, 0.116 bit/pixel
Звук: 48 kHz, AC3, 2 ch, 192 kbps avg

Скриншоты


Релиз от:

Vi$itReal

Post 03-Nov-2019 08:05

[Quote]

Информация о фильме
Название: Человек-турист: Успеть за 48 часов
Оригинальное название: Travel Man: 48 Hours in
Год выхода: 2019
Жанр: комедия
Режиссер: Ричард Айоади
В ролях: Ричард Айоади, Стивен Мэнган, Ноэль Филдинг, Крис О`Дауд и др.
О фильме:
Актёр и режиссёр Ричард Айоади приглашает вас провести выходные в лучших городах мира. Его спутниками станут коллеги по цеху — британские актёры. Самое главное — увидеть всё самое интересное за 48 часов.

Страна: Великобритания
Продолжительность: ~00:24:00
Перевод: Профессиональный (двухголосый закадровый) Ozz-
Роли озвучивают: | Ирина Воронова и Алексей Серегин |
Автор перевода: | Илья Уюсов |
Подготовлено: Ozz-Качество: HDTVRip 720p
Формат: mkv
Видео кодек: x264
Аудио кодек: AC3
Видео: 1280x720 at 25 fps, AVC, 2500 kbps avg, 0.103 b/pixel
Аудио #1: Russian 48 kHz, AC3, 2 channels, 192 kbpss |Ozz|
Аудио #2: English 48 kHz, AAC, 2 channels, 124 kbps |Original|
Субтитры: Russian - (srt)
Реклама: Присутствует звуковая (два раза в начале и конце по 10 сек.)
 

Current time is: 10-Dec 21:43

All times are UTC + 3