Search found 234 matches

Author Message

Vi$itReal

Post 07-Dec-2019 12:20

[Quote]

Информация о фильме
Название: Уральские пельмени
Год выхода: 2009-2019
Жанр: ТВ-шоу, юмор, развлекательный
Режиссер: Константин Куц, Анастастия Ширина, Леонид Коновалов
В ролях: Дмитрий Брекоткин, Сергей Ершов, Сергей Исаев, Сергей Калугин, Вячеслав Мясников, Сергей Нетиевский, Александр Попов, Андрей Рожков, Сергей Светлаков, Дмитрий Соколов, Максим Ярица, Юля Михалкова
О фильме:
Легендарные чемпионы КВН, всеми любимые посланники юмора в уморительном шоу! Комедийная программа “Уральские пельмени” - передача, созданная неповторимой командой по производству юмора, которая прошла испытание временем и имеет целую армию поклонников. Своими выступлениями “Уральские пельмени” установили очень высокую планку комедийного шоу и не перестают удивлять зрителей великолепным, всегда свежим, ярким и необычным юмором, который нельзя спутать ни с чем. Смешные номера, искрометные шутки и мощный заряд позитива никого не оставят равнодушным.
Официальный сайт
Страна: Россия
Студия: YBW Group по заказу СТС
Продолжительность: ~ 1 час
Перевод: Не требуется
Файл
Кодек: mpeg2, h.264
Качество: DVB, WEBRip 480p, WEBRip 1080p
Видео: 720x576,850x480,1920x1080 ~ 900-6000 kb/s 25.000 кадр/с
Звук: mp2, AC3, AAC 44-48 kHz, Dolby Digital, 2/0 (L,R) ch, ~110-256 kbps
Субтитры: Нет

Скриншоты

Vi$itReal

Post 06-Dec-2019 22:35

[Quote]

Информация о фильме
Название: Уральские Пельмени - Азбука Уральских пельменей. О
Год выхода: 2019
Жанр: ТВ-шоу, юмор, сатира, развлекательный
Режиссер: Анастастия Ширина, Леонид Коновалов
В ролях: Дмитрий Брекоткин, Сергей Ершов, Сергей Исаев, Сергей Калугин, Вячеслав Мясников, Александр Попов, Андрей Рожков, Дмитрий Соколов (V), Максим Ярица, Юлия Михалкова, Илана Юрьева, Ксения Корнева
О фильме: Легендарные чемпионы КВН, всеми любимые посланники юмора в уморительном шоу! Комедийная программа “Уральские пельмени” - передача, созданная неповторимой командой по производству юмора, которая прошла испытание временем и имеет целую армию поклонников. Своими выступлениями “Уральские пельмени” установили очень высокую планку комедийного шоу и не перестают удивлять зрителей великолепным, всегда свежим, ярким и необычным юмором, который нельзя спутать ни с чем. Смешные номера, искрометные шутки и мощный заряд позитива никого не оставят равнодушным.
Страна: Россия
Продолжительность: 01:11:58
Файл
Кодек: MPEG-4 AVC
Качество: WEBRip 1080p
Видео: 1920x1080, 4407 Кбит/с, 25 fps
Звук: AC3, 2 ch, 192 Кбит/с

Скриншоты

RelizMAN

Post 06-Dec-2019 12:35

[Quote]

Информация о шоу
Название: События прошедшей недели с Джоном Оливером
Оригинальное название: Last Week Tonight with John Oliver
Год выхода: 2019
Жанр: новости, сатира, комедия
Выпущено: США / HBO
В ролях: Джон Оливер и все-все-все
Описание: Аналитическое разговорное шоу HBO, в котором британский ведущий в лице Джона Оливера язвительно высмеивает события прошедшей недели.

Качество: WEB-DL 720p
Перевод: Субтитры (hvblack)
Продолжительность: ~00:30:00
Файл
Формат: MKV
Видео: AVC (x264) | 1280x720p | 59,940 fps | ~4400 kbps
Аудио: AAC | 48KHz | 2.0 (Front: L R) | ~128 kbps [Original]
Субтитры: Русские (SRT), Английские (SRT)
Реклама: Отсутствует

Список эпизодов

01. [17.02.2019] Брэксит
02. [24.02.2019] Экстрасенсы
03. [03.03.2019] Автоматизация
04. [10.03.2019] Автозвонки
05. [17.03.2019] Публичное унижение
06. [31.03.2019] WWE - Всемирная федерация реслинга
07. [07.04.2019] Мобильные дома
08. [14.04.2019] Опиоиды
09. [21.04.2019] Доклад Мюллера
10. [05.05.2019] Смертельные инъекции
11. [12.05.2019] Новый Зелёный Курс
12. [19.05.2019] Поиск причин смерти
13. [02.06.2019] Медицинские изделия
14. [09.06.2019] ПРП - поправка о равных правах
15. [16.06.2019] Импичмент
16. [23.06.2019] Эверест
17. [30.06.2019] Склады
18. [28.07.2019] Борис Джонсон
19. [04.08.2019] Труд заключённых
20. [11.08.2019] Гурбангулы Бердымухаммедов
21. [18.08.2019] Предвзятость в медицине
22. [08.09.2019] Затягивание (Флибустьерство)
23. [15.09.2019] Законная иммиграция
24. [29.09.2019] Производственные аптеки
25. [06.10.2019] Политика одного ребёнка
26. [13.10.2019] Погода
27. [27.10.2019] Трамп и Сирия
28. [03.11.2019] Избирательные автоматы
29. [10.11.2019] SLAPP Suits
30. [17.11.2019] Census
-

MediaInfo

Общее
Уникальный идентификатор : 323088410004295996479584026772298094789 (0xF31090795189513160EEFDD04FC158C5)
Полное имя : .../Last Week Tonight with John Oliver s06 WEB-DL 720p/Last Week Tonight with John Oliver - s06e01 - Brexit.mkv
Формат : Matroska
Версия формата : Version 4 / Version 2
Размер файла : 961 Мбайт
Продолжительность : 29 м. 47 с.
Общий поток : 4510 Кбит/сек
Программа кодирования : mkvmerge v29.0.0 ('Like It Or Not') 64-bit
Библиотека кодирования : libebml v1.3.6 + libmatroska v1.4.9
Видео
Идентификатор : 1
Формат : AVC
Формат/Информация : Advanced Video Codec
Профиль формата : [email protected]
Параметр CABAC формата : Да
Параметр ReFrames формата : 4 кадра
Идентификатор кодека : V_MPEG4/ISO/AVC
Продолжительность : 29 м. 47 с.
Вид битрейта : Постоянный
Битрейт : 4372 Кбит/сек
Ширина : 1280 пикселей
Высота : 720 пикселей
Соотношение сторон : 16:9
Режим частоты кадров : Постоянный
Частота кадров : 59,940 (60000/1001) кадров/сек
Цветовое пространство : YUV
Субдискретизация насыщенности : 4:2:0
Битовая глубина : 8 бит
Тип развёртки : Прогрессивная
Бит/(Пиксели*Кадры) : 0.079
Размер потока : 933 Мбайт (97%)
Default : Да
Forced : Нет
Аудио
Идентификатор : 2
Формат : AAC
Формат/Информация : Advanced Audio Codec
Профиль формата : LC
Идентификатор кодека : A_AAC
Продолжительность : 29 м. 47 с.
Битрейт : 125 Кбит/сек
Каналы : 2 канала
Расположение каналов : Front: L R
Частота : 48,0 КГц
Частота кадров : 46,875 кадров/сек (1024 spf)
Метод сжатия : С потерями
Размер потока : 26,7 Мбайт (3%)
Язык : English
Default : Да
Forced : Нет
Текст
Идентификатор : 3
Формат : UTF-8
Идентификатор кодека : S_TEXT/UTF8
Идентификатор кодека/Информация : UTF-8 Plain Text
Продолжительность : 29 м. 35 с.
Битрейт : 256 бит/сек
Count of elements : 1114
Размер потока : 55,5 Кбайт (0%)
Язык : English
Default : Нет
Forced : Нет
-

Скриншоты

Vi$itReal

Post 05-Dec-2019 12:20

[Quote]

Информация о фильме
Название: Майк Бирбиглия: Новая жизнь
Оригинальное название: Mike Birbiglia: The New One
Год выхода: 2019
Жанр: Стендап, комедия, Standup
В ролях: Майк Бирбиглия
О фильме:
Трогательный и прекрасный Майк Бирбиглия вернулся к нам спустя несколько лет с новым концертом-повествованием под названием «The New One». Выступление представляет собой один большой рассказ о своем преодолении долгого пути от нежелания иметь детей до рождения дочери, полностью изменившего его жизнь, не взирая на трудности, которые могли стоит ему чуть ли не жизни. Майк вырос не только как комик, выступив с этим шоу на Бродвее, но и как автор, рассказчик. Мы ни разу преувеличим, если скажем, что этим концертом Майк прочно застолбил за собой номинацию на один из лучших стендап-концертов уходящего года. Отложите в сторону все свои дела и внимательно ловите каждое мгновение этого замечательного концерта.

Страна: США
Продолжительность: 01:23:15
Перевод: Субтитры
Файл
Кодек: H.264
Качество: WEBRip 1080p
Видео: 1920x1080, 23.976fps, 7686kbps
Звук: AAC, 48000Hz, 320kbps
Субтитры: Русские, вшитые.
Семпл

Скриншоты




Релиз от: AllStandUp

Vi$itReal

Post 01-Dec-2019 18:05

[Quote]

Информация о шоу
Название: Субботним вечером в прямом эфире
Оригинальное название: Saturday Night Live
Год выхода: 2019
Жанр: комедия, пародия, музыка
Выпущено: США / NBC
Создатель: Лорн Майклз
Режиссер: Дон Рой Кинг
Описание: Saturday Night Live («Субботним вечером в прямом эфире») — вечерняя музыкально-юмористическая передача на американском канале NBC, одна из самых популярных и долгоиграющих в истории телевидения США. Премьера состоялась 11 октября 1975 года.
По формату программа состоит из юмористических реприз и 1-2 музыкальных номеров. Большинство реприз разыгрываются в прямом эфире комедийными актерами — членами постоянной труппы, при участии приглашенного ведущего (как правило, популярной знаменитости) и музыкального гостя, которые могут быть одним лицом. Созданием реприз занимаются как актеры, так и штат писателей-сценаристов программы.

Качество: WEB-DL 1080p
Перевод: Субтитры (hvblack)
Продолжительность: ~01:08:00
Файл
Формат: MKV
Видео: AVC (x264) | 1920x1080p | 29,970 fps | ~5700 kbps
Аудио: AC3 | 48 KHz | 5.1 (Front: L C R Side: L R) + LFE | ~256 kbps [Original]
Субтитры: Русские (SRT), Английские (SRT)
Реклама: Отсутствует

Список эпизодов

01. [28.09.2019] Вуди Харрельсон / Билли Айлиш
02. [05.10.2019] Фиби Уоллер-Бридж / Тейлор Свифт
03. [12.10.2019] Дэвид Харбор / Камила Кабельо
04. [26.10.2019] Рэппер Ченс
05. [02.11.2019] Кристен Стюарт / Coldplay
06. [16.11.2019] Гарри Стайлс
07. [23.11.2019] Уилл Феррелл / Кинг Принсес
08. [07.12.2019] Дженнифер Лопез / DaBaby
09. [14.12.2019] Скарлетт Йоханссон / Найл Хоран
10. [21.12.2019] Эдди Мёрфи / Лиззо
...
-

MediaInfo

Общее
Уникальный идентификатор : 121021533459467004683201073066428221421 (0x5B0BE646FA24A6C13D9C451477A647ED)
Полное имя : E:/Мои раздачи/Saturday Night Live s45 WEB-DL 1080p/Saturday Night Live - s45e01 - Woody Harrelson and Billie Eilish.mkv
Формат : Matroska
Версия формата : Version 4 / Version 2
Размер файла : 2,81 Гбайт
Продолжительность : 1 ч. 7 м.
Общий поток : 5970 Кбит/сек
Дата кодирования : UTC 2019-09-29 23:39:21
Программа кодирования : mkvmerge v31.0.0 ('Dolores In A Shoestand') 32-bit
Библиотека кодирования : libebml v1.3.6 + libmatroska v1.4.9
Видео
Идентификатор : 1
Формат : AVC
Формат/Информация : Advanced Video Codec
Профиль формата : [email protected]
Параметр CABAC формата : Да
Параметр ReFrames формата : 4 кадра
Идентификатор кодека : V_MPEG4/ISO/AVC
Продолжительность : 1 ч. 7 м.
Битрейт : 5712 Кбит/сек
Ширина : 1920 пикселей
Высота : 1080 пикселей
Соотношение сторон : 16:9
Режим частоты кадров : Постоянный
Частота кадров : 29,970 (30000/1001) кадров/сек
Цветовое пространство : YUV
Субдискретизация насыщенности : 4:2:0
Битовая глубина : 8 бит
Тип развёртки : Прогрессивная
Бит/(Пиксели*Кадры) : 0.092
Размер потока : 2,69 Гбайт (96%)
Default : Да
Forced : Нет
Аудио
Идентификатор : 2
Формат : E-AC-3
Формат/Информация : Enhanced Audio Coding 3
Параметр Endianness формата : Big
Идентификатор кодека : A_EAC3
Продолжительность : 1 ч. 7 м.
Вид битрейта : Постоянный
Битрейт : 256 Кбит/сек
Каналы : 6 каналов
Расположение каналов : Front: L C R, Side: L R, LFE
Частота : 48,0 КГц
Частота кадров : 187,500 кадров/сек (256 spf)
Метод сжатия : С потерями
Размер потока : 124 Мбайт (4%)
Язык : English
Default : Да
Forced : Нет
Текст
Идентификатор : 3
Формат : UTF-8
Идентификатор кодека : S_TEXT/UTF8
Идентификатор кодека/Информация : UTF-8 Plain Text
Продолжительность : 1 ч. 5 м.
Битрейт : 82 бит/сек
Count of elements : 2000
Размер потока : 39,5 Кбайт (0%)
Язык : English
Default : Нет
Forced : Нет
Меню
00:00:00.000 : en:Chapter 1
00:13:19.300 : en:Chapter 2
00:23:30.466 : en:Chapter 3
00:27:35.166 : en:Chapter 4
00:31:13.400 : en:Chapter 5
00:39:07.366 : en:Chapter 6
00:43:50.266 : en:Chapter 7
00:51:37.866 : en:Chapter 8
00:56:49.733 : en:Chapter 9
01:00:36.666 : en:Chapter 10
-

Скриншоты

Vi$itReal

Post 24-Nov-2019 06:05

[Quote]

Оригинальное название: КВН-2019. Встреча выпускников
Год выпуска: 2019
Жанр: Юмор
Выпущено: Россия, АМИК, Первый канал
Ведущий: Александр Масляков
О фильме: На одной сцене встретятся команды, которые, уже закончив свою карьеру в КВН, остаются популярны и сегодня. Для кого-то это будет реванш, для кого-то — еще одна попытка доказать свое превосходство. Игра войдет в историю и запомнится как самая большая и теплая встреча с любимыми кавээнщиками. Ведь, как и в школе, встреча выпускников Клуба — это лишний повод увидеть старых и добрых друзей по кавээновской сцене.
Качество: HDTV (1080i)
Видео: MPEG-TS AVC, 9305 Кбит/с, 1920x1080, 25 кадр/с
Аудио: Русский (AC3, 2 ch, 384 Кбит/с), (MP2, 2 ch, 192 Кбит/с)
Продолжительность: 02:16:37
Перевод: Не требуется
Субтитры: нет

Скриншоты


MediaInfo

Общее
Идентификатор : 1 (0x1)
Полное имя : D:ЗаписьKVN-2019. Vstrecha vypusknikov.HDTV(1080i).GeneralFilm.ts
Формат : MPEG-TS
Размер файла : 9,93 Гбайт
Продолжительность : 2 ч. 16 м.
Режим общего битрейта : Переменный
Общий поток : 10,4 Мбит/сек
Видео
Идентификатор : 2931 (0xB73)
Идентификатор меню : 1378 (0x562)
Формат : AVC
Формат/Информация : Advanced Video Codec
Профиль формата : [email protected]
Параметр CABAC формата : Да
Параметр ReFrames формата : 4 кадра
Идентификатор кодека : 27
Продолжительность : 2 ч. 16 м.
Битрейт : 9305 Кбит/сек
Ширина : 1920 пикселей
Высота : 1080 пикселей
Соотношение сторон : 16:9
Частота кадров : 25,000 кадров/сек
Цветовое пространство : YUV
Субдискретизация насыщенности : 4:2:0
Битовая глубина : 8 бит
Тип развёртки : MBAFF
Бит/(Пиксели*Кадры) : 0.179
Размер потока : 8,88 Гбайт (89%)
Аудио #1
Идентификатор : 2904 (0xB58)
Идентификатор меню : 1378 (0x562)
Формат : AC-3
Формат/Информация : Audio Coding 3
Расширение режима : CM (complete main)
Параметр Endianness формата : Big
Идентификатор кодека : 6
Продолжительность : 2 ч. 16 м.
Вид битрейта : Постоянный
Битрейт : 384 Кбит/сек
Каналы : 6 каналов
Расположение каналов : Front: L C R, Side: L R, LFE
Частота : 48,0 КГц
Битовая глубина : 16 бит
Метод сжатия : С потерями
Задержка видео : -120 мс.
Размер потока : 375 Мбайт (4%)
Язык : Russian
Аудио #2
Идентификатор : 2905 (0xB59)
Идентификатор меню : 1378 (0x562)
Формат : MPEG Audio
Версия формата : Version 1
Профиль формата : Layer 2
Идентификатор кодека : 3
Продолжительность : 2 ч. 16 м.
Вид битрейта : Постоянный
Битрейт : 192 Кбит/сек
Каналы : 2 канала
Частота : 48,0 КГц
Метод сжатия : С потерями
Задержка видео : -120 мс.
Размер потока : 188 Мбайт (2%)
Язык : Russian

Команды

Сборная Камызякского края по КВНу (Астраханская область).
«Уральские пельмени» (Екатеринбург).
«Город Пятигорск» (Ставропольский край).

Релиз:

RelizMAN

Post 22-Nov-2019 03:35

[Quote]

Информация о шоу
Название: События прошедшей недели с Джоном Оливером
Оригинальное название: Last Week Tonight with John Oliver
Год выхода: 2019
Жанр: новости, сатира, комедия
Выпущено: США / HBO
В ролях: Джон Оливер и все-все-все
Описание: Аналитическое разговорное шоу HBO, в котором британский ведущий в лице Джона Оливера язвительно высмеивает события прошедшей недели.

Качество: WEB-DL 720p
Перевод: Субтитры (hvblack)
Продолжительность: ~00:30:00
Файл
Формат: MKV
Видео: AVC (x264) | 1280x720p | 59,940 fps | ~4400 kbps
Аудио: AAC | 48KHz | 2.0 (Front: L R) | ~128 kbps [Original]
Субтитры: Русские (SRT), Английские (SRT)
Реклама: Отсутствует

Список эпизодов

01. [17.02.2019] Брэксит
02. [24.02.2019] Экстрасенсы
03. [03.03.2019] Автоматизация
04. [10.03.2019] Автозвонки
05. [17.03.2019] Публичное унижение
06. [31.03.2019] WWE - Всемирная федерация реслинга
07. [07.04.2019] Мобильные дома
08. [14.04.2019] Опиоиды
09. [21.04.2019] Доклад Мюллера
10. [05.05.2019] Смертельные инъекции
11. [12.05.2019] Новый Зелёный Курс
12. [19.05.2019] Поиск причин смерти
13. [02.06.2019] Медицинские изделия
14. [09.06.2019] ПРП - поправка о равных правах
15. [16.06.2019] Импичмент
16. [23.06.2019] Эверест
17. [30.06.2019] Склады
18. [28.07.2019] Борис Джонсон
19. [04.08.2019] Труд заключённых
20. [11.08.2019] Гурбангулы Бердымухаммедов
21. [18.08.2019] Предвзятость в медицине
22. [08.09.2019] Затягивание (Флибустьерство)
23. [15.09.2019] Законная иммиграция
24. [29.09.2019] Производственные аптеки
25. [06.10.2019] Политика одного ребёнка
26. [13.10.2019] Погода
27. [27.10.2019] Трамп и Сирия
28. [03.11.2019] Voting Machines
29. [10.11.2019] SLAPP Suits
30. [17.11.2019] Census
-

MediaInfo

Общее
Уникальный идентификатор : 323088410004295996479584026772298094789 (0xF31090795189513160EEFDD04FC158C5)
Полное имя : .../Last Week Tonight with John Oliver s06 WEB-DL 720p/Last Week Tonight with John Oliver - s06e01 - Brexit.mkv
Формат : Matroska
Версия формата : Version 4 / Version 2
Размер файла : 961 Мбайт
Продолжительность : 29 м. 47 с.
Общий поток : 4510 Кбит/сек
Программа кодирования : mkvmerge v29.0.0 ('Like It Or Not') 64-bit
Библиотека кодирования : libebml v1.3.6 + libmatroska v1.4.9
Видео
Идентификатор : 1
Формат : AVC
Формат/Информация : Advanced Video Codec
Профиль формата : [email protected]
Параметр CABAC формата : Да
Параметр ReFrames формата : 4 кадра
Идентификатор кодека : V_MPEG4/ISO/AVC
Продолжительность : 29 м. 47 с.
Вид битрейта : Постоянный
Битрейт : 4372 Кбит/сек
Ширина : 1280 пикселей
Высота : 720 пикселей
Соотношение сторон : 16:9
Режим частоты кадров : Постоянный
Частота кадров : 59,940 (60000/1001) кадров/сек
Цветовое пространство : YUV
Субдискретизация насыщенности : 4:2:0
Битовая глубина : 8 бит
Тип развёртки : Прогрессивная
Бит/(Пиксели*Кадры) : 0.079
Размер потока : 933 Мбайт (97%)
Default : Да
Forced : Нет
Аудио
Идентификатор : 2
Формат : AAC
Формат/Информация : Advanced Audio Codec
Профиль формата : LC
Идентификатор кодека : A_AAC
Продолжительность : 29 м. 47 с.
Битрейт : 125 Кбит/сек
Каналы : 2 канала
Расположение каналов : Front: L R
Частота : 48,0 КГц
Частота кадров : 46,875 кадров/сек (1024 spf)
Метод сжатия : С потерями
Размер потока : 26,7 Мбайт (3%)
Язык : English
Default : Да
Forced : Нет
Текст
Идентификатор : 3
Формат : UTF-8
Идентификатор кодека : S_TEXT/UTF8
Идентификатор кодека/Информация : UTF-8 Plain Text
Продолжительность : 29 м. 35 с.
Битрейт : 256 бит/сек
Count of elements : 1114
Размер потока : 55,5 Кбайт (0%)
Язык : English
Default : Нет
Forced : Нет
-

Скриншоты

Vi$itReal

Post 21-Nov-2019 13:20

[Quote]

Информация о шоу
Название: Субботним вечером в прямом эфире
Оригинальное название: Saturday Night Live
Год выхода: 2019
Жанр: комедия, пародия, музыка
Выпущено: США / NBC
Создатель: Лорн Майклз
Режиссер: Дон Рой Кинг
Описание: Saturday Night Live («Субботним вечером в прямом эфире») — вечерняя музыкально-юмористическая передача на американском канале NBC, одна из самых популярных и долгоиграющих в истории телевидения США. Премьера состоялась 11 октября 1975 года.
По формату программа состоит из юмористических реприз и 1-2 музыкальных номеров. Большинство реприз разыгрываются в прямом эфире комедийными актерами — членами постоянной труппы, при участии приглашенного ведущего (как правило, популярной знаменитости) и музыкального гостя, которые могут быть одним лицом. Созданием реприз занимаются как актеры, так и штат писателей-сценаристов программы.

Качество: WEB-DL 1080p
Перевод: Субтитры (hvblack)
Продолжительность: ~01:08:00
Файл
Формат: MKV
Видео: AVC (x264) | 1920x1080p | 29,970 fps | ~5700 kbps
Аудио: AC3 | 48 KHz | 5.1 (Front: L C R Side: L R) + LFE | ~256 kbps [Original]
Субтитры: Русские (SRT), Английские (SRT)
Реклама: Отсутствует

Список эпизодов

01. [28.09.2019] Вуди Харрельсон / Билли Айлиш
02. [05.10.2019] Фиби Уоллер-Бридж / Тейлор Свифт
03. [12.10.2019] Дэвид Харбор / Камила Кабельо
04. [26.10.2019] Рэппер Ченс
05. [02.11.2019] Кристен Стюарт / Coldplay
06. [16.11.2019] Гарри Стайлс
07. [23.11.2019] Уилл Феррелл / Кинг Принсес
...
-

MediaInfo

Общее
Уникальный идентификатор : 121021533459467004683201073066428221421 (0x5B0BE646FA24A6C13D9C451477A647ED)
Полное имя : E:/Мои раздачи/Saturday Night Live s45 WEB-DL 1080p/Saturday Night Live - s45e01 - Woody Harrelson and Billie Eilish.mkv
Формат : Matroska
Версия формата : Version 4 / Version 2
Размер файла : 2,81 Гбайт
Продолжительность : 1 ч. 7 м.
Общий поток : 5970 Кбит/сек
Дата кодирования : UTC 2019-09-29 23:39:21
Программа кодирования : mkvmerge v31.0.0 ('Dolores In A Shoestand') 32-bit
Библиотека кодирования : libebml v1.3.6 + libmatroska v1.4.9
Видео
Идентификатор : 1
Формат : AVC
Формат/Информация : Advanced Video Codec
Профиль формата : [email protected]
Параметр CABAC формата : Да
Параметр ReFrames формата : 4 кадра
Идентификатор кодека : V_MPEG4/ISO/AVC
Продолжительность : 1 ч. 7 м.
Битрейт : 5712 Кбит/сек
Ширина : 1920 пикселей
Высота : 1080 пикселей
Соотношение сторон : 16:9
Режим частоты кадров : Постоянный
Частота кадров : 29,970 (30000/1001) кадров/сек
Цветовое пространство : YUV
Субдискретизация насыщенности : 4:2:0
Битовая глубина : 8 бит
Тип развёртки : Прогрессивная
Бит/(Пиксели*Кадры) : 0.092
Размер потока : 2,69 Гбайт (96%)
Default : Да
Forced : Нет
Аудио
Идентификатор : 2
Формат : E-AC-3
Формат/Информация : Enhanced Audio Coding 3
Параметр Endianness формата : Big
Идентификатор кодека : A_EAC3
Продолжительность : 1 ч. 7 м.
Вид битрейта : Постоянный
Битрейт : 256 Кбит/сек
Каналы : 6 каналов
Расположение каналов : Front: L C R, Side: L R, LFE
Частота : 48,0 КГц
Частота кадров : 187,500 кадров/сек (256 spf)
Метод сжатия : С потерями
Размер потока : 124 Мбайт (4%)
Язык : English
Default : Да
Forced : Нет
Текст
Идентификатор : 3
Формат : UTF-8
Идентификатор кодека : S_TEXT/UTF8
Идентификатор кодека/Информация : UTF-8 Plain Text
Продолжительность : 1 ч. 5 м.
Битрейт : 82 бит/сек
Count of elements : 2000
Размер потока : 39,5 Кбайт (0%)
Язык : English
Default : Нет
Forced : Нет
Меню
00:00:00.000 : en:Chapter 1
00:13:19.300 : en:Chapter 2
00:23:30.466 : en:Chapter 3
00:27:35.166 : en:Chapter 4
00:31:13.400 : en:Chapter 5
00:39:07.366 : en:Chapter 6
00:43:50.266 : en:Chapter 7
00:51:37.866 : en:Chapter 8
00:56:49.733 : en:Chapter 9
01:00:36.666 : en:Chapter 10
-

Скриншоты

RelizMAN

Post 17-Nov-2019 18:20

[Quote]

Информация о фильме
Название: Стендап Андеграунд
Год выпуска: 2019
Жанр: ТВ-шоу, юмор
Режиссер: Владимир Устюгов
В ролях: Елена Великанова, Максим Щёголев, Любовь Германова, Валерий Сторожик, Максим Сапрыкин, Дмитрий Бедерин, Сергей Подольный, Виктория Герасимова, Александр Яцко, Жанна Эппле, Василий Симонов, Андрей Железный, Георгий Николаев (II)
О фильме: Погрузись в андеграунд отечественного стендапа! Более 20 молодых и еще не добившихся славы, денег и выступлений в модных клубах комиков со всей России наконец получили возможность шутить публично. Без цензуры и давления форматов. Для «СТЕНДАП АНДЕГРАУНД» они подготовили самые смелые, провокационные и актуальные шутки, которые рассмешат зрителей. Погружение в андеграунд отечественного стендапа будет модерировать уже добившийся если не денег, то хотя бы славы Илья Овечкин. Именно ему предстоит зажечь публику перед выступлениями участников шоу. В каждом выпуске со своими монологами на самые «горячие» темы будут выступать 5-6 человек. Возможно, кто-то из них и станет новой звездой стендапа. Режиссером проекта выступил Александр Незлобин, а продюсером шоу стал Сергей Светлаков.
Выпущено: Россия
Студия: More originals
Продолжительность: 3 х ~ 00:49:00
Перевод: Не требуется
Файл
Качество: WEBRip 720p
Видео: MPEG-4 AVC, ~ 2935 Кбит/с, 1280x720
Аудио: AC3, 2 ch, 192 Кбит/с

Скриншоты


Релиз от:

Vi$itReal

Post 16-Nov-2019 22:50

[Quote]

Оригинальное название: КВН-2019. Кубок мэра Москвы
Год выпуска: 2019
Жанр: Юмор
Выпущено: Россия, ОАО "Первый канал"
Ведущий: Александр Масляков
О фильме: КВН – соревнование в индивидуальном и командном остроумии – на сегодняшний день представляет собой самостоятельный жанр сценического искусства. История КВН берет свое начало в 1957 году, являясь поначалу викториной под названием «Вечер Веселых Вопросов», а уже с 1961 года передача стала выходить в эфир под названием «КВН». Поначалу передача планировалась как соревнование эрудитов, со временем же, претерпевая метаморфозы, она стала приобретать явно юмористическую окраску содержания. Помимо того, что это была единственная молодежная юмористическая передача своего времени, у ее истоков стояли и известнейшие телеведущие страны – сначала сам автор программы Альберт Аксельрод в паре с юной Светланой Жильцовой, впоследствии Аксельрода сменил тогда еще студент-четверокурсник Александр Масляков. Сегодня это уже не совсем та передача, что приковывала внимание зрителей десятилетия назад, это проект, который в поиске новых идей и находок меняется вместе с нашей жизнью и, как показывает жизнь, процесс его совершенствования просто бесконечен.
Качество: HDTV (1080i)
Видео: MPEG-TS AVC, 10.8 Мбит/с, 1920x1080, 25 кадр/с
Аудио: Русский (AC3, 2 ch, 384 Кбит/с), (MP2, 2 ch, 192 Кбит/с)
Продолжительность: 01:56:59
Перевод: Не требуется
Субтитры: нет

Скриншоты


MediaInfo

Общее
Идентификатор : 1 (0x1)
Полное имя : D:ЗаписьKVN-2019. Kubok mjera Moskvy.HDTV(1080i).GeneralFilm.ts
Формат : MPEG-TS
Размер файла : 9,77 Гбайт
Продолжительность : 1 ч. 56 м.
Режим общего битрейта : Переменный
Общий поток : 12,0 Мбит/сек
Видео
Идентификатор : 1904 (0x770)
Идентификатор меню : 80 (0x50)
Формат : AVC
Формат/Информация : Advanced Video Codec
Профиль формата : [email protected]
Параметр CABAC формата : Да
Параметр ReFrames формата : 3 кадра
Идентификатор кодека : 27
Продолжительность : 1 ч. 56 м.
Битрейт : 10,8 Мбит/сек
Ширина : 1920 пикселей
Высота : 1080 пикселей
Соотношение сторон : 16:9
Частота кадров : 25,000 кадров/сек
Стандарт вещания : Component
Цветовое пространство : YUV
Субдискретизация насыщенности : 4:2:0
Битовая глубина : 8 бит
Тип развёртки : Чересстрочная
Порядок развёртки : Верхнее поле первое
Бит/(Пиксели*Кадры) : 0.208
Размер потока : 8,81 Гбайт (90%)
Основные цвета : BT.709
Характеристики трансфера : BT.709
Коэффициенты матрицы : BT.709
Аудио #1
Идентификатор : 2904 (0xB58)
Идентификатор меню : 80 (0x50)
Формат : AC-3
Формат/Информация : Audio Coding 3
Расширение режима : CM (complete main)
Параметр Endianness формата : Big
Идентификатор кодека : 6
Продолжительность : 1 ч. 56 м.
Вид битрейта : Постоянный
Битрейт : 384 Кбит/сек
Каналы : 6 каналов
Расположение каналов : Front: L C R, Side: L R, LFE
Частота : 48,0 КГц
Битовая глубина : 16 бит
Метод сжатия : С потерями
Задержка видео : -120 мс.
Размер потока : 321 Мбайт (3%)
Язык : Russian
Аудио #2
Идентификатор : 2905 (0xB59)
Идентификатор меню : 80 (0x50)
Формат : MPEG Audio
Версия формата : Version 1
Профиль формата : Layer 2
Идентификатор кодека : 3
Продолжительность : 1 ч. 56 м.
Вид битрейта : Постоянный
Битрейт : 192 Кбит/сек
Каналы : 2 канала
Частота : 48,0 КГц
Метод сжатия : С потерями
Задержка видео : -120 мс.
Размер потока : 161 Мбайт (2%)
Язык : Russian

Команды

«Такая история» (ОГУ им. Тургенева, Орел)
«НАТЕ» (Станица Брюховецкая)
«Наполеон Динамит» (Тюменская область)
«Будем дружить семьями» (Москва)
и многочисленные гости.

Релиз:

RelizMAN

Post 11-Nov-2019 08:05

[Quote]

Дата/Год выпуска: 2010-11
Страна: Япония
Жанр: Юмор, ТВ-шоу
Продолжительность: эпизод 57 мин.
Перевод: Субтитры (русские)
Формат субтитров: hardsub
Оригинальная аудиодорожка: Япония
Описание:
Однажды, в далёком уже 2003 году, японцы взяли и запустили шоу "GameCenter CX", в котором самый обычный с виду мужчина знакомит себя и зрителей с консольными ретро-играми эпохи 80-90ых. Причем герой передачи, Арино Синъя, с детства не брал в руки джойстик, и рефлексы у него отнюдь не молниеносные. А ведь ему надо проходить испытания классикой именно до концовки, сразу, получая помощь только в самой безнадёжной ситуации - и это длится десяток часов кряду, а то и больше! Но Шеф, будучи профессиональным комиком, не сдаётся и постоянно шутит, разряжая обстановку. Да, в итоге получается типичный "летсплей", только тщательно нарезанный лучшими моментами, снабжённый закадровыми комментариями, приукрашенный спецэффектами и до жути весёлый (именно в духе страны восходящего солнца). Кроме того, в состав каждого выпуска входит посещение аркадных залов, и маленькие забавные рубрики, различающиеся по сезонам. На сей момент приключения Арино уверенно подходят аж к двум сотням эпизодов! Присоединяйтесь, скучно не будет!
Эпизоды:
107. Paris-Dakar Rally Special [Famicom]
109. The Legend of Zelda: Ocarina of Time [Nintendo 64] (Часть 1)
110. The Legend of Zelda: Ocarina of Time [Nintendo 64] (Часть 2)
113. Kamaitachi no Yoru [SNES]
114. Rockman 4 - Aratanaru Yabou!! [Famicom] (Часть 1)
115. Rockman 4 - Aratanaru Yabou!! [Famicom] (Часть 2)
качество: WEBRip
Формат: AVI
Видео: MPEG-4 (XVID), 1280 х 720, 2515 кб/с, 29.97 fps
Аудио: AAC, 125 кб/с, 48 кГц, 2 канала

Скриншоты

Формат: MKV
Видео: H.264 (AVC), 1280 х 720, 2010 кб/с, 29.97 fps
Аудио: AC-3, 192 кб/с, 48 кГц, 2 канала

Скриншоты

RelizMAN

Post 09-Nov-2019 21:35

[Quote]

Информация о шоу
Название: События прошедшей недели с Джоном Оливером
Оригинальное название: Last Week Tonight with John Oliver
Год выхода: 2019
Жанр: новости, сатира, комедия
Выпущено: США / HBO
В ролях: Джон Оливер и все-все-все
Описание: Аналитическое разговорное шоу HBO, в котором британский ведущий в лице Джона Оливера язвительно высмеивает события прошедшей недели.

Качество: WEB-DL 720p
Перевод: Субтитры (hvblack)
Продолжительность: ~00:30:00
Файл
Формат: MKV
Видео: AVC (x264) | 1280x720p | 59,940 fps | ~4400 kbps
Аудио: AAC | 48KHz | 2.0 (Front: L R) | ~128 kbps [Original]
Субтитры: Русские (SRT), Английские (SRT)
Реклама: Отсутствует

Список эпизодов

01. [17.02.2019] Брэксит
02. [24.02.2019] Экстрасенсы
03. [03.03.2019] Автоматизация
04. [10.03.2019] Автозвонки
05. [17.03.2019] Публичное унижение
06. [31.03.2019] WWE - Всемирная федерация реслинга
07. [07.04.2019] Мобильные дома
08. [14.04.2019] Опиоиды
09. [21.04.2019] Доклад Мюллера
10. [05.05.2019] Смертельные инъекции
11. [12.05.2019] Новый Зелёный Курс
12. [19.05.2019] Поиск причин смерти
13. [02.06.2019] Медицинские изделия
14. [09.06.2019] ПРП - поправка о равных правах
15. [16.06.2019] Импичмент
16. [23.06.2019] Эверест
17. [30.06.2019] Склады
18. [28.07.2019] Борис Джонсон
19. [04.08.2019] Труд заключённых
20. [11.08.2019] Гурбангулы Бердымухаммедов
21. [18.08.2019] Предвзятость в медицине
22. [08.09.2019] Затягивание (Флибустьерство)
23. [15.09.2019] Законная иммиграция
24. [29.09.2019] Производственные аптеки
25. [06.10.2019] Политика одного ребёнка
26. [13.10.2019] Погода
27. [27.10.2019] Trump & Syria
28. [03.11.2019] Voting Machines
29. [10.11.2019] ...
30. [17.11.2019] ...
-

MediaInfo

Общее
Уникальный идентификатор : 323088410004295996479584026772298094789 (0xF31090795189513160EEFDD04FC158C5)
Полное имя : .../Last Week Tonight with John Oliver s06 WEB-DL 720p/Last Week Tonight with John Oliver - s06e01 - Brexit.mkv
Формат : Matroska
Версия формата : Version 4 / Version 2
Размер файла : 961 Мбайт
Продолжительность : 29 м. 47 с.
Общий поток : 4510 Кбит/сек
Программа кодирования : mkvmerge v29.0.0 ('Like It Or Not') 64-bit
Библиотека кодирования : libebml v1.3.6 + libmatroska v1.4.9
Видео
Идентификатор : 1
Формат : AVC
Формат/Информация : Advanced Video Codec
Профиль формата : [email protected]
Параметр CABAC формата : Да
Параметр ReFrames формата : 4 кадра
Идентификатор кодека : V_MPEG4/ISO/AVC
Продолжительность : 29 м. 47 с.
Вид битрейта : Постоянный
Битрейт : 4372 Кбит/сек
Ширина : 1280 пикселей
Высота : 720 пикселей
Соотношение сторон : 16:9
Режим частоты кадров : Постоянный
Частота кадров : 59,940 (60000/1001) кадров/сек
Цветовое пространство : YUV
Субдискретизация насыщенности : 4:2:0
Битовая глубина : 8 бит
Тип развёртки : Прогрессивная
Бит/(Пиксели*Кадры) : 0.079
Размер потока : 933 Мбайт (97%)
Default : Да
Forced : Нет
Аудио
Идентификатор : 2
Формат : AAC
Формат/Информация : Advanced Audio Codec
Профиль формата : LC
Идентификатор кодека : A_AAC
Продолжительность : 29 м. 47 с.
Битрейт : 125 Кбит/сек
Каналы : 2 канала
Расположение каналов : Front: L R
Частота : 48,0 КГц
Частота кадров : 46,875 кадров/сек (1024 spf)
Метод сжатия : С потерями
Размер потока : 26,7 Мбайт (3%)
Язык : English
Default : Да
Forced : Нет
Текст
Идентификатор : 3
Формат : UTF-8
Идентификатор кодека : S_TEXT/UTF8
Идентификатор кодека/Информация : UTF-8 Plain Text
Продолжительность : 29 м. 35 с.
Битрейт : 256 бит/сек
Count of elements : 1114
Размер потока : 55,5 Кбайт (0%)
Язык : English
Default : Нет
Forced : Нет
-

Скриншоты

RelizMAN

Post 09-Nov-2019 15:05

[Quote]

Информация о фильме
Название: Уральские пельмени - Нервное сентября
Год выхода: 2019
Жанр: ТВ-шоу, юмор, сатира, развлекательный
Режиссер: Константин Куц, Леонид Коновалов, Анастасия Гуделова
В ролях: Дмитрий Брекоткин, Сергей Ершов, Сергей Исаев, Сергей Калугин, Вячеслав Мясников, Александр Попов, Андрей Рожков, Дмитрий Соколов (V), Максим Ярица, Юлия Михалкова, Илана Юрьева
О фильме: Когда дети носят домой задание для родителей, когда есть ещё один иностранный язык - язык трудовика, когда единственное что меняется в школе, это шторы, и когда все делается через ЕГЭ - тогда и появляется «Нервное Сентября».
Страна: Россия
Студия: YBW Group, СТС
Продолжительность: 01:11:29
Перевод: Русский
Субтитры: нет
Файл
Формат: MKV
Качество: WEBRip-AVC
Видео: MPEG-4 AVC, 1280x720, - 886 Кбит/с - 25.000 fps
Звук: AAC-LC, 2 ch, - 128 Кбит/с

MediaInfo

General
Unique ID : 277598308678160488454713805366178066532 (0xD0D77D51259540462B7EEF522627B064)
Complete name : C:UsersUserDesktopencodedУральские пельмени - Нервное сентябряUP.Nervnoe.Sentyabrya.2019.720p.WEBRip.mkv
Format : Matroska
Format version : Version 4
File size : 520 MiB
Duration : 1 h 11 min
Overall bit rate : 1 017 kb/s
Encoded date : UTC 2019-11-09 07:27:59
Writing application : mkvmerge v38.0.0 ('The Silent Type') 64-bit
Writing library : libebml v1.3.9 + libmatroska v1.5.2
Video
ID : 1
Format : AVC
Format/Info : Advanced Video Codec
Format profile : [email protected]
Format settings : CABAC / 3 Ref Frames
Format settings, CABAC : Yes
Format settings, Reference : 3 frames
Codec ID : V_MPEG4/ISO/AVC
Duration : 1 h 11 min
Bit rate : 886 kb/s
Width : 1 280 pixels
Height : 720 pixels
Display aspect ratio : 16:9
Frame rate mode : Constant
Frame rate : 25.000 FPS
Color space : YUV
Chroma subsampling : 4:2:0
Bit depth : 8 bits
Scan type : Progressive
Bits/(Pixel*Frame) : 0.038
Stream size : 453 MiB (87%)
Writing library : x264 core 155 r2901 7d0ff22
Default : Yes
Forced : No
Color range : Limited
Color primaries : BT.709
Transfer characteristics : BT.709
Matrix coefficients : BT.709
Audio
ID : 2
Format : AAC LC
Format/Info : Advanced Audio Codec Low Complexity
Codec ID : A_AAC-2
Duration : 1 h 11 min
Bit rate : 128 kb/s
Channel(s) : 2 channels
Channel layout : L R
Sampling rate : 44.1 kHz
Frame rate : 43.066 FPS (1024 SPF)
Compression mode : Lossy
Stream size : 65.5 MiB (13%)
Default : Yes
Forced : No

Скриншоты

Vi$itReal

Post 08-Nov-2019 03:20

[Quote]

Информация о шоу
Название: Субботним вечером в прямом эфире
Оригинальное название: Saturday Night Live
Год выхода: 2019
Жанр: комедия, пародия, музыка
Выпущено: США / NBC
Создатель: Лорн Майклз
Режиссер: Дон Рой Кинг
Описание: Saturday Night Live («Субботним вечером в прямом эфире») — вечерняя музыкально-юмористическая передача на американском канале NBC, одна из самых популярных и долгоиграющих в истории телевидения США. Премьера состоялась 11 октября 1975 года.
По формату программа состоит из юмористических реприз и 1-2 музыкальных номеров. Большинство реприз разыгрываются в прямом эфире комедийными актерами — членами постоянной труппы, при участии приглашенного ведущего (как правило, популярной знаменитости) и музыкального гостя, которые могут быть одним лицом. Созданием реприз занимаются как актеры, так и штат писателей-сценаристов программы.

Качество: WEB-DL 1080p
Перевод: Субтитры (hvblack)
Продолжительность: ~01:08:00
Файл
Формат: MKV
Видео: AVC (x264) | 1920x1080p | 29,970 fps | ~5700 kbps
Аудио: AC3 | 48 KHz | 5.1 (Front: L C R Side: L R) + LFE | ~256 kbps [Original]
Субтитры: Русские (SRT), Английские (SRT)
Реклама: Отсутствует

Список эпизодов

01. [28.09.2019] Вуди Харрельсон / Билли Айлиш
02. [05.10.2019] Фиби Уоллер-Бридж / Тейлор Свифт
03. [12.10.2019] Дэвид Харбор / Камила Кабельо
04. [26.10.2019] Chance the Rapper
05. [02.11.2019] Кристен Стюарт / Coldplay
06. [16.11.2019] Гарри Стайлс
07. [23.11.2019] ...
...
-

MediaInfo

Общее
Уникальный идентификатор : 121021533459467004683201073066428221421 (0x5B0BE646FA24A6C13D9C451477A647ED)
Полное имя : E:/Мои раздачи/Saturday Night Live s45 WEB-DL 1080p/Saturday Night Live - s45e01 - Woody Harrelson and Billie Eilish.mkv
Формат : Matroska
Версия формата : Version 4 / Version 2
Размер файла : 2,81 Гбайт
Продолжительность : 1 ч. 7 м.
Общий поток : 5970 Кбит/сек
Дата кодирования : UTC 2019-09-29 23:39:21
Программа кодирования : mkvmerge v31.0.0 ('Dolores In A Shoestand') 32-bit
Библиотека кодирования : libebml v1.3.6 + libmatroska v1.4.9
Видео
Идентификатор : 1
Формат : AVC
Формат/Информация : Advanced Video Codec
Профиль формата : [email protected]
Параметр CABAC формата : Да
Параметр ReFrames формата : 4 кадра
Идентификатор кодека : V_MPEG4/ISO/AVC
Продолжительность : 1 ч. 7 м.
Битрейт : 5712 Кбит/сек
Ширина : 1920 пикселей
Высота : 1080 пикселей
Соотношение сторон : 16:9
Режим частоты кадров : Постоянный
Частота кадров : 29,970 (30000/1001) кадров/сек
Цветовое пространство : YUV
Субдискретизация насыщенности : 4:2:0
Битовая глубина : 8 бит
Тип развёртки : Прогрессивная
Бит/(Пиксели*Кадры) : 0.092
Размер потока : 2,69 Гбайт (96%)
Default : Да
Forced : Нет
Аудио
Идентификатор : 2
Формат : E-AC-3
Формат/Информация : Enhanced Audio Coding 3
Параметр Endianness формата : Big
Идентификатор кодека : A_EAC3
Продолжительность : 1 ч. 7 м.
Вид битрейта : Постоянный
Битрейт : 256 Кбит/сек
Каналы : 6 каналов
Расположение каналов : Front: L C R, Side: L R, LFE
Частота : 48,0 КГц
Частота кадров : 187,500 кадров/сек (256 spf)
Метод сжатия : С потерями
Размер потока : 124 Мбайт (4%)
Язык : English
Default : Да
Forced : Нет
Текст
Идентификатор : 3
Формат : UTF-8
Идентификатор кодека : S_TEXT/UTF8
Идентификатор кодека/Информация : UTF-8 Plain Text
Продолжительность : 1 ч. 5 м.
Битрейт : 82 бит/сек
Count of elements : 2000
Размер потока : 39,5 Кбайт (0%)
Язык : English
Default : Нет
Forced : Нет
Меню
00:00:00.000 : en:Chapter 1
00:13:19.300 : en:Chapter 2
00:23:30.466 : en:Chapter 3
00:27:35.166 : en:Chapter 4
00:31:13.400 : en:Chapter 5
00:39:07.366 : en:Chapter 6
00:43:50.266 : en:Chapter 7
00:51:37.866 : en:Chapter 8
00:56:49.733 : en:Chapter 9
01:00:36.666 : en:Chapter 10
-

Скриншоты

Vi$itReal

Post 07-Nov-2019 17:20

[Quote]

Информация о фильме
Название: Дэниел Слосс: Х
Оригинальное название: Daniel Sloss: X
Год выхода: 2019
Жанр: Стендап, комедия, Standup
В ролях: Дэниел Слосс
О фильме:
Шотландец Дэниел Слосс в прошлом году пошумел на весь мир, выпустив два концерта, один из которых в итоге стал причиной для многих тысяч расставаний пар (включая и самого Дэниела). И всего год спустя Слосс вернулся с новым громким выступлением с загадочным названием «Х». Прекрасный концерт с ни чуть не меньшим потенциалом навести шороху: тут и рассуждения на тему МеТоо; любовь Дэниела к детям в самом разном понимании этого; зависть к женщинам в самых разных аспектах и контрастный душ в виде душераздирающей истории.

Страна: Великобритания
Продолжительность: 01:27:27
Перевод: Любительский (одноголосый закадровый)
Файл
Кодек: H.264
Качество: WEBRip 1080p
Видео: 1920x1080, 23.976fps, 7293kbps
Звук: AAC, 48000Hz, 320kbps
Семпл

Скриншоты




Релиз от: AllStandUp
 

Current time is: 09-Dec 16:36

All times are UTC + 3