Search found 229 matches

Author Message

Vi$itReal

Post Today 14:35

[Quote]

Название: Наркоман Павлик
Год выхода: 2019
Жанр: Комедия, короткометражный
Режиссер: Павел Радонцев
В ролях: Павел Радонцев, Денис Гущин, Кирилл Демидов, Антон Батищев, Илья Сорокин, Андрей Савицкий, Регина Вожова, Иван Солдаткин, Ольга Лапушкина, Михаил Мартынов, Хамид Дышниев, Андрей Мирославский, Артём Веретенников, Николай Гусляров
О сериале:
Короткометражный, юмористический сериал о приключениях Павлика, от участников проектов Comedy Club Samara Style, Comedy Club Saint-Petersburg. Сериал стремительно набирает популярность, фразы Павлика всё чаще встречаются на просторах рунета. "Здорова братиш!" - если вы слышали это и не знали откуда, смотрите. Очень угарная и ржачная тема!
Страна: Россия
Студия: Comedoz
Продолжительность: ~00:30:00
Перевод: Не требуется
Субтитры: Нет
Файл
Формат: MKV
Качество: WEBRip (1080p)
Видео: MPEG-4 AVC, ~ 5000 Кбит/с, 1920x1080
Звук: AC3, 2 ch, 192 Кбит/с

MediaInfo

Общее
Уникальный идентификатор : 267693872318864993574250689561931354897 (0xC963F6E70882B96CC526FF7D7CA91311)
Полное имя : Павлик.S07E01.WEB-DL.1080p.mkv
Формат : Matroska
Версия формата : Version 4
Размер файла : 697 Мбайт
Продолжительность : 18 м. 21 с.
Общий поток : 5308 Кбит/сек
Дата кодирования : UTC 2020-01-12 09:08:18
Программа кодирования : mkvmerge v42.0.0 ('Overtime') 64-bit
Библиотека кодирования : libebml v1.3.10 + libmatroska v1.5.2
Attachments : poster.jpg
Видео
Идентификатор : 1
Формат : AVC
Формат/Информация : Advanced Video Codec
Профиль формата : [email protected]
Настройки формата : CABAC / 4 Ref Frames
Параметр CABAC формата : Да
Параметр RefFrames формата : 4 кадра
Идентификатор кодека : V_MPEG4/ISO/AVC
Продолжительность : 18 м. 21 с.
Битрейт : 5114 Кбит/сек
Ширина : 1920 пикселей
Высота : 1080 пикселей
Соотношение сторон : 16:9
Режим частоты кадров : Постоянный
Частота кадров : 25,000 кадров/сек
Цветовое пространство : YUV
Субдискретизация насыщенности : 4:2:0
Битовая глубина : 8 бит
Тип развёртки : Прогрессивная
Бит/(Пиксели*Кадры) : 0.099
Размер потока : 671 Мбайт (96%)
Default : Да
Forced : Нет
Аудио
Идентификатор : 2
Формат : AC-3
Формат/Информация : Audio Coding 3
Коммерческое название : Dolby Digital
Идентификатор кодека : A_AC3
Продолжительность : 18 м. 21 с.
Вид битрейта : Постоянный
Битрейт : 192 Кбит/сек
Каналы : 2 канала
ChannelLayout : L R
Частота : 48,0 КГц
Частота кадров : 31,250 кадров/сек (1536 SPF)
Метод сжатия : С потерями
Размер потока : 25,2 Мбайт (4%)
Default : Да
Forced : Нет

Скриншоты

RelizMAN

Post Yesterday 04:05

[Quote]

Информация о фильме
Название: Женский Stand Up
Год выпуска: 2020
Жанр: ТВ-шоу, юмор
Ведущий: Ирина Мягкова
В ролях: Зоя Яровицына, Надежда Джабраилова, Александра Муратова, Мария Маркова, Сауле Юсупова, Маргарита Родина, Павел Залуцкий
О фильме: Если ты думаешь, что женщины не ругаются, не жалуются на детей, не шутят о сексе и еще множество всяких «не», то это шоу докажет обратное! Для героинь «Женского стендапа» нет запретных тем. Они честно говорят о том, что их не устраивает в отношениях, высмеивают стереотипы семейной жизни и откровенно заявляют, что быть хорошей матерью вообще-то очень сложно. Хочешь узнать, о чем думают женщины, смотри «Женский стендап»!.
Выпущено: Россия
Студия: Comedy Club Production
Продолжительность: 1 x ~ 00:48:00
Перевод: Не требуется
Файл
Качество: WEB-DL 720p
Видео: MPEG-4 AVC, ~ 3000 Кбит/с, 1280x720
Аудио: AC3, 2 ch, 192 Кбит/с

Скриншоты

Раздача ведётся путём добавления новых серий

Внимание! Раздача ведётся путём добавления новых серий; при каждом добавлении создаётся новый торрент.
Чтобы начать докачку новой серии, пользователям необходимо сделать следующее:
1. Остановить скачивание;
2. Удалить старый торрент у себя из клиента (старые серии удалять не надо);
3. Скачать новый торрент и запустить его у себя в клиенте вместо старого, при этом указать клиенту путь в старую папку куда и должно происходить скачивание новых серий. Ваш клиент при этом должен произвести хеширование (проверку) старой папки и будет докачивать только те серии, которых у вас ещё нет. Старые серии при этом не удаляются, а продолжают раздаваться! Eсли вы уже удалили старые серии, то предотвратить повторную закачку старых серий можно, отжав галочку в соответствующих местах при запуске нового торрента.

Релиз от:

Vi$itReal

Post 14-Jan-2020 01:05

[Quote]

Название: Наркоман Павлик
Год выхода: 2019
Жанр: Комедия, короткометражный
Режиссер: Павел Радонцев
В ролях: Павел Радонцев, Денис Гущин, Кирилл Демидов, Антон Батищев, Илья Сорокин, Андрей Савицкий, Регина Вожова, Иван Солдаткин, Ольга Лапушкина, Михаил Мартынов, Хамид Дышниев, Андрей Мирославский, Артём Веретенников, Николай Гусляров
О сериале:
Короткометражный, юмористический сериал о приключениях Павлика, от участников проектов Comedy Club Samara Style, Comedy Club Saint-Petersburg. Сериал стремительно набирает популярность, фразы Павлика всё чаще встречаются на просторах рунета. "Здорова братиш!" - если вы слышали это и не знали откуда, смотрите. Очень угарная и ржачная тема!
Страна: Россия
Студия: Comedoz
Продолжительность: ~00:30:00
Перевод: Не требуется
Субтитры: Нет
Файл
Формат: MKV
Качество: WEBRip (1080p)
Видео: MPEG-4 AVC, ~ 5000 Кбит/с, 1920x1080
Звук: AC3, 2 ch, 192 Кбит/с

MediaInfo

Общее
Уникальный идентификатор : 267693872318864993574250689561931354897 (0xC963F6E70882B96CC526FF7D7CA91311)
Полное имя : Павлик.S07E01.WEB-DL.1080p.mkv
Формат : Matroska
Версия формата : Version 4
Размер файла : 697 Мбайт
Продолжительность : 18 м. 21 с.
Общий поток : 5308 Кбит/сек
Дата кодирования : UTC 2020-01-12 09:08:18
Программа кодирования : mkvmerge v42.0.0 ('Overtime') 64-bit
Библиотека кодирования : libebml v1.3.10 + libmatroska v1.5.2
Attachments : poster.jpg
Видео
Идентификатор : 1
Формат : AVC
Формат/Информация : Advanced Video Codec
Профиль формата : [email protected]
Настройки формата : CABAC / 4 Ref Frames
Параметр CABAC формата : Да
Параметр RefFrames формата : 4 кадра
Идентификатор кодека : V_MPEG4/ISO/AVC
Продолжительность : 18 м. 21 с.
Битрейт : 5114 Кбит/сек
Ширина : 1920 пикселей
Высота : 1080 пикселей
Соотношение сторон : 16:9
Режим частоты кадров : Постоянный
Частота кадров : 25,000 кадров/сек
Цветовое пространство : YUV
Субдискретизация насыщенности : 4:2:0
Битовая глубина : 8 бит
Тип развёртки : Прогрессивная
Бит/(Пиксели*Кадры) : 0.099
Размер потока : 671 Мбайт (96%)
Default : Да
Forced : Нет
Аудио
Идентификатор : 2
Формат : AC-3
Формат/Информация : Audio Coding 3
Коммерческое название : Dolby Digital
Идентификатор кодека : A_AC3
Продолжительность : 18 м. 21 с.
Вид битрейта : Постоянный
Битрейт : 192 Кбит/сек
Каналы : 2 канала
ChannelLayout : L R
Частота : 48,0 КГц
Частота кадров : 31,250 кадров/сек (1536 SPF)
Метод сжатия : С потерями
Размер потока : 25,2 Мбайт (4%)
Default : Да
Forced : Нет

Скриншоты

Vi$itReal

Post 30-Dec-2019 16:20

[Quote]

Информация о фильме
Название: Почему мы смеёмся: Весёлые женщины
Оригинальное название: Why We Laugh: Funny Women
Год выхода: 2013
Жанр: Стендап, комедия, Standup, документальный
В ролях: Joan Rivers, Kim Wayans, Tig Notaro
О фильме:
«Почему мы смеёмся?» — документальный фильм 2013 года, в котором миллион смешных женщин, среди которых великая Джоан Риверс, Кэти Гриффин и Вупи Голдберг, рассказывают, каково это — быть женщиной в комедийной индустрии. Откровения перемежаются шутками, а колкости — душевными историями. Смотреть надо всем: начинающие комики всех гендеров найдут там полезные советы и вдохновение, любители стендапа узнают немного истории и посмотрят на женщин, которым пришлось пройти огонь, воду и медные трубы, чтобы Эми Шумер могла шутить про свою вагину, а Эли Вонг начала снимать романтические комедии, которые мы заслужили. Девчонкам понравятся истории про женскую долю, а мальчишкам стоит в кои-то веки внимательно, очень внимательно слушать и мотать на ус.

Страна: США
Продолжительность: 01:26:18
Перевод: Субтитры
Файл
Кодек: H.264
Качество: WEBRip 1080p
Видео: 1920x1080, 23.976fps, 7398kbps
Звук: AAC, 48000Hz, 320kbps
Субтитры: Русские, вшитые.
Семпл

Скриншоты




Релиз от: AllStandUp

Vi$itReal

Post 29-Dec-2019 00:35

[Quote]

Информация о шоу
Название: Субботним вечером в прямом эфире
Оригинальное название: Saturday Night Live
Год выхода: 2019
Жанр: комедия, пародия, музыка
Выпущено: США / NBC
Создатель: Лорн Майклз
Режиссер: Дон Рой Кинг
Описание: Saturday Night Live («Субботним вечером в прямом эфире») — вечерняя музыкально-юмористическая передача на американском канале NBC, одна из самых популярных и долгоиграющих в истории телевидения США. Премьера состоялась 11 октября 1975 года.
По формату программа состоит из юмористических реприз и 1-2 музыкальных номеров. Большинство реприз разыгрываются в прямом эфире комедийными актерами — членами постоянной труппы, при участии приглашенного ведущего (как правило, популярной знаменитости) и музыкального гостя, которые могут быть одним лицом. Созданием реприз занимаются как актеры, так и штат писателей-сценаристов программы.

Качество: WEB-DL 1080p
Перевод: Субтитры (hvblack)
Продолжительность: ~01:08:00
Файл
Формат: MKV
Видео: AVC (x264) | 1920x1080p | 29,970 fps | ~5700 kbps
Аудио: AC3 | 48 KHz | 5.1 (Front: L C R Side: L R) + LFE | ~256 kbps [Original]
Субтитры: Русские (SRT), Английские (SRT)
Реклама: Отсутствует

Список эпизодов

01. [28.09.2019] Вуди Харрельсон / Билли Айлиш
02. [05.10.2019] Фиби Уоллер-Бридж / Тейлор Свифт
03. [12.10.2019] Дэвид Харбор / Камила Кабельо
04. [26.10.2019] Рэппер Ченс
05. [02.11.2019] Кристен Стюарт / Coldplay
06. [16.11.2019] Гарри Стайлс
07. [23.11.2019] Уилл Феррелл / Кинг Принсес
08. [07.12.2019] Дженнифер Лопез / DaBaby
09. [14.12.2019] Скарлетт Йоханссон / Найл Хоран

10. [21.12.2019] Эдди Мёрфи / Лиззо
11. [25.01.2020] Адам Драйвер / Холзи
...
-

MediaInfo

Общее
Уникальный идентификатор : 121021533459467004683201073066428221421 (0x5B0BE646FA24A6C13D9C451477A647ED)
Полное имя : E:/Мои раздачи/Saturday Night Live s45 WEB-DL 1080p/Saturday Night Live - s45e01 - Woody Harrelson and Billie Eilish.mkv
Формат : Matroska
Версия формата : Version 4 / Version 2
Размер файла : 2,81 Гбайт
Продолжительность : 1 ч. 7 м.
Общий поток : 5970 Кбит/сек
Дата кодирования : UTC 2019-09-29 23:39:21
Программа кодирования : mkvmerge v31.0.0 ('Dolores In A Shoestand') 32-bit
Библиотека кодирования : libebml v1.3.6 + libmatroska v1.4.9
Видео
Идентификатор : 1
Формат : AVC
Формат/Информация : Advanced Video Codec
Профиль формата : [email protected]
Параметр CABAC формата : Да
Параметр ReFrames формата : 4 кадра
Идентификатор кодека : V_MPEG4/ISO/AVC
Продолжительность : 1 ч. 7 м.
Битрейт : 5712 Кбит/сек
Ширина : 1920 пикселей
Высота : 1080 пикселей
Соотношение сторон : 16:9
Режим частоты кадров : Постоянный
Частота кадров : 29,970 (30000/1001) кадров/сек
Цветовое пространство : YUV
Субдискретизация насыщенности : 4:2:0
Битовая глубина : 8 бит
Тип развёртки : Прогрессивная
Бит/(Пиксели*Кадры) : 0.092
Размер потока : 2,69 Гбайт (96%)
Default : Да
Forced : Нет
Аудио
Идентификатор : 2
Формат : E-AC-3
Формат/Информация : Enhanced Audio Coding 3
Параметр Endianness формата : Big
Идентификатор кодека : A_EAC3
Продолжительность : 1 ч. 7 м.
Вид битрейта : Постоянный
Битрейт : 256 Кбит/сек
Каналы : 6 каналов
Расположение каналов : Front: L C R, Side: L R, LFE
Частота : 48,0 КГц
Частота кадров : 187,500 кадров/сек (256 spf)
Метод сжатия : С потерями
Размер потока : 124 Мбайт (4%)
Язык : English
Default : Да
Forced : Нет
Текст
Идентификатор : 3
Формат : UTF-8
Идентификатор кодека : S_TEXT/UTF8
Идентификатор кодека/Информация : UTF-8 Plain Text
Продолжительность : 1 ч. 5 м.
Битрейт : 82 бит/сек
Count of elements : 2000
Размер потока : 39,5 Кбайт (0%)
Язык : English
Default : Нет
Forced : Нет
Меню
00:00:00.000 : en:Chapter 1
00:13:19.300 : en:Chapter 2
00:23:30.466 : en:Chapter 3
00:27:35.166 : en:Chapter 4
00:31:13.400 : en:Chapter 5
00:39:07.366 : en:Chapter 6
00:43:50.266 : en:Chapter 7
00:51:37.866 : en:Chapter 8
00:56:49.733 : en:Chapter 9
01:00:36.666 : en:Chapter 10
-

Скриншоты

Vi$itReal

Post 28-Dec-2019 04:50

[Quote]

Информация о фильме
Название: Новый Мартиросян
Год выхода: 2019
Жанр: ТВ-шоу, юмор
Ведущий: Гарик Мартиросян
О фильме:
Мартиросян подготовил большую стендап-программу, с которой уже прокатился по городам России. Получилось не только смешно и остро, но и актуально, и местами даже жестко — как и положено в настоящем стендапе.
Страна: Россия, ТНТ
Продолжительность: 1 x ~ 00:45:00
Язык: Русский
Автор релиза:
Примечание: Без рекламы
Файл
Кодек: MPEG-4 AVC
Качество: WEB-DL 1080p
Видео: MPEG-4 AVC, ~ 4400 Кбит/с, 1920x1072
Звук: AC3, 2 ch, 192 Кбит/с
Семпл

Скриншоты

RelizMAN

Post 22-Dec-2019 22:35

[Quote]

Информация о шоу
Название: События прошедшей недели с Джоном Оливером
Оригинальное название: Last Week Tonight with John Oliver
Год выхода: 2019
Жанр: новости, сатира, комедия
Выпущено: США / HBO
В ролях: Джон Оливер и все-все-все
Описание: Аналитическое разговорное шоу HBO, в котором британский ведущий в лице Джона Оливера язвительно высмеивает события прошедшей недели.

Качество: WEB-DL 720p
Перевод: Субтитры (hvblack)
Продолжительность: ~00:30:00
Файл
Формат: MKV
Видео: AVC (x264) | 1280x720p | 59,940 fps | ~4400 kbps
Аудио: AAC | 48KHz | 2.0 (Front: L R) | ~128 kbps [Original]
Субтитры: Русские (SRT), Английские (SRT)
Реклама: Отсутствует

Список эпизодов

01. [17.02.2019] Брэксит
02. [24.02.2019] Экстрасенсы
03. [03.03.2019] Автоматизация
04. [10.03.2019] Автозвонки
05. [17.03.2019] Публичное унижение
06. [31.03.2019] WWE - Всемирная федерация реслинга
07. [07.04.2019] Мобильные дома
08. [14.04.2019] Опиоиды
09. [21.04.2019] Доклад Мюллера
10. [05.05.2019] Смертельные инъекции
11. [12.05.2019] Новый Зелёный Курс
12. [19.05.2019] Поиск причин смерти
13. [02.06.2019] Медицинские изделия
14. [09.06.2019] ПРП - поправка о равных правах
15. [16.06.2019] Импичмент
16. [23.06.2019] Эверест
17. [30.06.2019] Склады
18. [28.07.2019] Борис Джонсон
19. [04.08.2019] Труд заключённых
20. [11.08.2019] Гурбангулы Бердымухаммедов
21. [18.08.2019] Предвзятость в медицине
22. [08.09.2019] Затягивание (Флибустьерство)
23. [15.09.2019] Законная иммиграция
24. [29.09.2019] Производственные аптеки
25. [06.10.2019] Политика одного ребёнка
26. [13.10.2019] Погода
27. [27.10.2019] Трамп и Сирия
28. [03.11.2019] Избирательные автоматы
29. [10.11.2019] Ротозатыкательные иски
30. [17.11.2019] Перепись
-

MediaInfo

Общее
Уникальный идентификатор : 323088410004295996479584026772298094789 (0xF31090795189513160EEFDD04FC158C5)
Полное имя : .../Last Week Tonight with John Oliver s06 WEB-DL 720p/Last Week Tonight with John Oliver - s06e01 - Brexit.mkv
Формат : Matroska
Версия формата : Version 4 / Version 2
Размер файла : 961 Мбайт
Продолжительность : 29 м. 47 с.
Общий поток : 4510 Кбит/сек
Программа кодирования : mkvmerge v29.0.0 ('Like It Or Not') 64-bit
Библиотека кодирования : libebml v1.3.6 + libmatroska v1.4.9
Видео
Идентификатор : 1
Формат : AVC
Формат/Информация : Advanced Video Codec
Профиль формата : [email protected]
Параметр CABAC формата : Да
Параметр ReFrames формата : 4 кадра
Идентификатор кодека : V_MPEG4/ISO/AVC
Продолжительность : 29 м. 47 с.
Вид битрейта : Постоянный
Битрейт : 4372 Кбит/сек
Ширина : 1280 пикселей
Высота : 720 пикселей
Соотношение сторон : 16:9
Режим частоты кадров : Постоянный
Частота кадров : 59,940 (60000/1001) кадров/сек
Цветовое пространство : YUV
Субдискретизация насыщенности : 4:2:0
Битовая глубина : 8 бит
Тип развёртки : Прогрессивная
Бит/(Пиксели*Кадры) : 0.079
Размер потока : 933 Мбайт (97%)
Default : Да
Forced : Нет
Аудио
Идентификатор : 2
Формат : AAC
Формат/Информация : Advanced Audio Codec
Профиль формата : LC
Идентификатор кодека : A_AAC
Продолжительность : 29 м. 47 с.
Битрейт : 125 Кбит/сек
Каналы : 2 канала
Расположение каналов : Front: L R
Частота : 48,0 КГц
Частота кадров : 46,875 кадров/сек (1024 spf)
Метод сжатия : С потерями
Размер потока : 26,7 Мбайт (3%)
Язык : English
Default : Да
Forced : Нет
Текст
Идентификатор : 3
Формат : UTF-8
Идентификатор кодека : S_TEXT/UTF8
Идентификатор кодека/Информация : UTF-8 Plain Text
Продолжительность : 29 м. 35 с.
Битрейт : 256 бит/сек
Count of elements : 1114
Размер потока : 55,5 Кбайт (0%)
Язык : English
Default : Нет
Forced : Нет
-

Скриншоты

Vi$itReal

Post 17-Dec-2019 10:50

[Quote]

Информация о шоу
Название: Субботним вечером в прямом эфире
Оригинальное название: Saturday Night Live
Год выхода: 2019
Жанр: комедия, пародия, музыка
Выпущено: США / NBC
Создатель: Лорн Майклз
Режиссер: Дон Рой Кинг
Описание: Saturday Night Live («Субботним вечером в прямом эфире») — вечерняя музыкально-юмористическая передача на американском канале NBC, одна из самых популярных и долгоиграющих в истории телевидения США. Премьера состоялась 11 октября 1975 года.
По формату программа состоит из юмористических реприз и 1-2 музыкальных номеров. Большинство реприз разыгрываются в прямом эфире комедийными актерами — членами постоянной труппы, при участии приглашенного ведущего (как правило, популярной знаменитости) и музыкального гостя, которые могут быть одним лицом. Созданием реприз занимаются как актеры, так и штат писателей-сценаристов программы.

Качество: WEB-DL 1080p
Перевод: Субтитры (hvblack)
Продолжительность: ~01:08:00
Файл
Формат: MKV
Видео: AVC (x264) | 1920x1080p | 29,970 fps | ~5700 kbps
Аудио: AC3 | 48 KHz | 5.1 (Front: L C R Side: L R) + LFE | ~256 kbps [Original]
Субтитры: Русские (SRT), Английские (SRT)
Реклама: Отсутствует

Список эпизодов

01. [28.09.2019] Вуди Харрельсон / Билли Айлиш
02. [05.10.2019] Фиби Уоллер-Бридж / Тейлор Свифт
03. [12.10.2019] Дэвид Харбор / Камила Кабельо
04. [26.10.2019] Рэппер Ченс
05. [02.11.2019] Кристен Стюарт / Coldplay
06. [16.11.2019] Гарри Стайлс
07. [23.11.2019] Уилл Феррелл / Кинг Принсес
08. [07.12.2019] Дженнифер Лопез / DaBaby
09. [14.12.2019] Скарлетт Йоханссон / Найл Хоран
10. [21.12.2019] Эдди Мёрфи / Лиззо
...
-

MediaInfo

Общее
Уникальный идентификатор : 121021533459467004683201073066428221421 (0x5B0BE646FA24A6C13D9C451477A647ED)
Полное имя : E:/Мои раздачи/Saturday Night Live s45 WEB-DL 1080p/Saturday Night Live - s45e01 - Woody Harrelson and Billie Eilish.mkv
Формат : Matroska
Версия формата : Version 4 / Version 2
Размер файла : 2,81 Гбайт
Продолжительность : 1 ч. 7 м.
Общий поток : 5970 Кбит/сек
Дата кодирования : UTC 2019-09-29 23:39:21
Программа кодирования : mkvmerge v31.0.0 ('Dolores In A Shoestand') 32-bit
Библиотека кодирования : libebml v1.3.6 + libmatroska v1.4.9
Видео
Идентификатор : 1
Формат : AVC
Формат/Информация : Advanced Video Codec
Профиль формата : [email protected]
Параметр CABAC формата : Да
Параметр ReFrames формата : 4 кадра
Идентификатор кодека : V_MPEG4/ISO/AVC
Продолжительность : 1 ч. 7 м.
Битрейт : 5712 Кбит/сек
Ширина : 1920 пикселей
Высота : 1080 пикселей
Соотношение сторон : 16:9
Режим частоты кадров : Постоянный
Частота кадров : 29,970 (30000/1001) кадров/сек
Цветовое пространство : YUV
Субдискретизация насыщенности : 4:2:0
Битовая глубина : 8 бит
Тип развёртки : Прогрессивная
Бит/(Пиксели*Кадры) : 0.092
Размер потока : 2,69 Гбайт (96%)
Default : Да
Forced : Нет
Аудио
Идентификатор : 2
Формат : E-AC-3
Формат/Информация : Enhanced Audio Coding 3
Параметр Endianness формата : Big
Идентификатор кодека : A_EAC3
Продолжительность : 1 ч. 7 м.
Вид битрейта : Постоянный
Битрейт : 256 Кбит/сек
Каналы : 6 каналов
Расположение каналов : Front: L C R, Side: L R, LFE
Частота : 48,0 КГц
Частота кадров : 187,500 кадров/сек (256 spf)
Метод сжатия : С потерями
Размер потока : 124 Мбайт (4%)
Язык : English
Default : Да
Forced : Нет
Текст
Идентификатор : 3
Формат : UTF-8
Идентификатор кодека : S_TEXT/UTF8
Идентификатор кодека/Информация : UTF-8 Plain Text
Продолжительность : 1 ч. 5 м.
Битрейт : 82 бит/сек
Count of elements : 2000
Размер потока : 39,5 Кбайт (0%)
Язык : English
Default : Нет
Forced : Нет
Меню
00:00:00.000 : en:Chapter 1
00:13:19.300 : en:Chapter 2
00:23:30.466 : en:Chapter 3
00:27:35.166 : en:Chapter 4
00:31:13.400 : en:Chapter 5
00:39:07.366 : en:Chapter 6
00:43:50.266 : en:Chapter 7
00:51:37.866 : en:Chapter 8
00:56:49.733 : en:Chapter 9
01:00:36.666 : en:Chapter 10
-

Скриншоты

Vi$itReal

Post 14-Dec-2019 00:35

[Quote]

Информация о фильме
Название: Уральские Пельмени - Азбука Уральских пельменей. П
Год выхода: 2019
Жанр: ТВ-шоу, юмор, сатира, развлекательный
Режиссер: Анастастия Ширина, Леонид Коновалов
В ролях: Дмитрий Брекоткин, Сергей Ершов, Сергей Исаев, Сергей Калугин, Вячеслав Мясников, Александр Попов, Андрей Рожков, Дмитрий Соколов (V), Максим Ярица, Юлия Михалкова, Илана Юрьева, Ксения Корнева
О фильме: Легендарные чемпионы КВН, всеми любимые посланники юмора в уморительном шоу! Комедийная программа “Уральские пельмени” - передача, созданная неповторимой командой по производству юмора, которая прошла испытание временем и имеет целую армию поклонников. Своими выступлениями “Уральские пельмени” установили очень высокую планку комедийного шоу и не перестают удивлять зрителей великолепным, всегда свежим, ярким и необычным юмором, который нельзя спутать ни с чем. Смешные номера, искрометные шутки и мощный заряд позитива никого не оставят равнодушным.
Страна: Россия
Продолжительность: 01:12:09
Файл
Кодек: MPEG-4 AVC
Качество: WEBRip 1080p
Видео: 1920x1080, 4545 Кбит/с, 25 fps
Звук: AC3, 2 ch, 192 Кбит/с

Скриншоты

RelizMAN

Post 13-Dec-2019 05:05

[Quote]

Информация о шоу
Название: События прошедшей недели с Джоном Оливером
Оригинальное название: Last Week Tonight with John Oliver
Год выхода: 2019
Жанр: новости, сатира, комедия
Выпущено: США / HBO
В ролях: Джон Оливер и все-все-все
Описание: Аналитическое разговорное шоу HBO, в котором британский ведущий в лице Джона Оливера язвительно высмеивает события прошедшей недели.

Качество: WEB-DL 720p
Перевод: Субтитры (hvblack)
Продолжительность: ~00:30:00
Файл
Формат: MKV
Видео: AVC (x264) | 1280x720p | 59,940 fps | ~4400 kbps
Аудио: AAC | 48KHz | 2.0 (Front: L R) | ~128 kbps [Original]
Субтитры: Русские (SRT), Английские (SRT)
Реклама: Отсутствует

Список эпизодов

01. [17.02.2019] Брэксит
02. [24.02.2019] Экстрасенсы
03. [03.03.2019] Автоматизация
04. [10.03.2019] Автозвонки
05. [17.03.2019] Публичное унижение
06. [31.03.2019] WWE - Всемирная федерация реслинга
07. [07.04.2019] Мобильные дома
08. [14.04.2019] Опиоиды
09. [21.04.2019] Доклад Мюллера
10. [05.05.2019] Смертельные инъекции
11. [12.05.2019] Новый Зелёный Курс
12. [19.05.2019] Поиск причин смерти
13. [02.06.2019] Медицинские изделия
14. [09.06.2019] ПРП - поправка о равных правах
15. [16.06.2019] Импичмент
16. [23.06.2019] Эверест
17. [30.06.2019] Склады
18. [28.07.2019] Борис Джонсон
19. [04.08.2019] Труд заключённых
20. [11.08.2019] Гурбангулы Бердымухаммедов
21. [18.08.2019] Предвзятость в медицине
22. [08.09.2019] Затягивание (Флибустьерство)
23. [15.09.2019] Законная иммиграция
24. [29.09.2019] Производственные аптеки
25. [06.10.2019] Политика одного ребёнка
26. [13.10.2019] Погода
27. [27.10.2019] Трамп и Сирия
28. [03.11.2019] Избирательные автоматы
29. [10.11.2019] Ротозатыкательные иски
30. [17.11.2019] Перепись
-

MediaInfo

Общее
Уникальный идентификатор : 323088410004295996479584026772298094789 (0xF31090795189513160EEFDD04FC158C5)
Полное имя : .../Last Week Tonight with John Oliver s06 WEB-DL 720p/Last Week Tonight with John Oliver - s06e01 - Brexit.mkv
Формат : Matroska
Версия формата : Version 4 / Version 2
Размер файла : 961 Мбайт
Продолжительность : 29 м. 47 с.
Общий поток : 4510 Кбит/сек
Программа кодирования : mkvmerge v29.0.0 ('Like It Or Not') 64-bit
Библиотека кодирования : libebml v1.3.6 + libmatroska v1.4.9
Видео
Идентификатор : 1
Формат : AVC
Формат/Информация : Advanced Video Codec
Профиль формата : [email protected]
Параметр CABAC формата : Да
Параметр ReFrames формата : 4 кадра
Идентификатор кодека : V_MPEG4/ISO/AVC
Продолжительность : 29 м. 47 с.
Вид битрейта : Постоянный
Битрейт : 4372 Кбит/сек
Ширина : 1280 пикселей
Высота : 720 пикселей
Соотношение сторон : 16:9
Режим частоты кадров : Постоянный
Частота кадров : 59,940 (60000/1001) кадров/сек
Цветовое пространство : YUV
Субдискретизация насыщенности : 4:2:0
Битовая глубина : 8 бит
Тип развёртки : Прогрессивная
Бит/(Пиксели*Кадры) : 0.079
Размер потока : 933 Мбайт (97%)
Default : Да
Forced : Нет
Аудио
Идентификатор : 2
Формат : AAC
Формат/Информация : Advanced Audio Codec
Профиль формата : LC
Идентификатор кодека : A_AAC
Продолжительность : 29 м. 47 с.
Битрейт : 125 Кбит/сек
Каналы : 2 канала
Расположение каналов : Front: L R
Частота : 48,0 КГц
Частота кадров : 46,875 кадров/сек (1024 spf)
Метод сжатия : С потерями
Размер потока : 26,7 Мбайт (3%)
Язык : English
Default : Да
Forced : Нет
Текст
Идентификатор : 3
Формат : UTF-8
Идентификатор кодека : S_TEXT/UTF8
Идентификатор кодека/Информация : UTF-8 Plain Text
Продолжительность : 29 м. 35 с.
Битрейт : 256 бит/сек
Count of elements : 1114
Размер потока : 55,5 Кбайт (0%)
Язык : English
Default : Нет
Forced : Нет
-

Скриншоты

Vi$itReal

Post 10-Dec-2019 17:50

[Quote]

Информация о шоу
Название: Субботним вечером в прямом эфире
Оригинальное название: Saturday Night Live
Год выхода: 2019
Жанр: комедия, пародия, музыка
Выпущено: США / NBC
Создатель: Лорн Майклз
Режиссер: Дон Рой Кинг
Описание: Saturday Night Live («Субботним вечером в прямом эфире») — вечерняя музыкально-юмористическая передача на американском канале NBC, одна из самых популярных и долгоиграющих в истории телевидения США. Премьера состоялась 11 октября 1975 года.
По формату программа состоит из юмористических реприз и 1-2 музыкальных номеров. Большинство реприз разыгрываются в прямом эфире комедийными актерами — членами постоянной труппы, при участии приглашенного ведущего (как правило, популярной знаменитости) и музыкального гостя, которые могут быть одним лицом. Созданием реприз занимаются как актеры, так и штат писателей-сценаристов программы.

Качество: WEB-DL 1080p
Перевод: Субтитры (hvblack)
Продолжительность: ~01:08:00
Файл
Формат: MKV
Видео: AVC (x264) | 1920x1080p | 29,970 fps | ~5700 kbps
Аудио: AC3 | 48 KHz | 5.1 (Front: L C R Side: L R) + LFE | ~256 kbps [Original]
Субтитры: Русские (SRT), Английские (SRT)
Реклама: Отсутствует

Список эпизодов

01. [28.09.2019] Вуди Харрельсон / Билли Айлиш
02. [05.10.2019] Фиби Уоллер-Бридж / Тейлор Свифт
03. [12.10.2019] Дэвид Харбор / Камила Кабельо
04. [26.10.2019] Рэппер Ченс
05. [02.11.2019] Кристен Стюарт / Coldplay
06. [16.11.2019] Гарри Стайлс
07. [23.11.2019] Уилл Феррелл / Кинг Принсес
08. [07.12.2019] Дженнифер Лопез / DaBaby
09. [14.12.2019] Скарлетт Йоханссон / Найл Хоран
10. [21.12.2019] Эдди Мёрфи / Лиззо
...
-

MediaInfo

Общее
Уникальный идентификатор : 121021533459467004683201073066428221421 (0x5B0BE646FA24A6C13D9C451477A647ED)
Полное имя : E:/Мои раздачи/Saturday Night Live s45 WEB-DL 1080p/Saturday Night Live - s45e01 - Woody Harrelson and Billie Eilish.mkv
Формат : Matroska
Версия формата : Version 4 / Version 2
Размер файла : 2,81 Гбайт
Продолжительность : 1 ч. 7 м.
Общий поток : 5970 Кбит/сек
Дата кодирования : UTC 2019-09-29 23:39:21
Программа кодирования : mkvmerge v31.0.0 ('Dolores In A Shoestand') 32-bit
Библиотека кодирования : libebml v1.3.6 + libmatroska v1.4.9
Видео
Идентификатор : 1
Формат : AVC
Формат/Информация : Advanced Video Codec
Профиль формата : [email protected]
Параметр CABAC формата : Да
Параметр ReFrames формата : 4 кадра
Идентификатор кодека : V_MPEG4/ISO/AVC
Продолжительность : 1 ч. 7 м.
Битрейт : 5712 Кбит/сек
Ширина : 1920 пикселей
Высота : 1080 пикселей
Соотношение сторон : 16:9
Режим частоты кадров : Постоянный
Частота кадров : 29,970 (30000/1001) кадров/сек
Цветовое пространство : YUV
Субдискретизация насыщенности : 4:2:0
Битовая глубина : 8 бит
Тип развёртки : Прогрессивная
Бит/(Пиксели*Кадры) : 0.092
Размер потока : 2,69 Гбайт (96%)
Default : Да
Forced : Нет
Аудио
Идентификатор : 2
Формат : E-AC-3
Формат/Информация : Enhanced Audio Coding 3
Параметр Endianness формата : Big
Идентификатор кодека : A_EAC3
Продолжительность : 1 ч. 7 м.
Вид битрейта : Постоянный
Битрейт : 256 Кбит/сек
Каналы : 6 каналов
Расположение каналов : Front: L C R, Side: L R, LFE
Частота : 48,0 КГц
Частота кадров : 187,500 кадров/сек (256 spf)
Метод сжатия : С потерями
Размер потока : 124 Мбайт (4%)
Язык : English
Default : Да
Forced : Нет
Текст
Идентификатор : 3
Формат : UTF-8
Идентификатор кодека : S_TEXT/UTF8
Идентификатор кодека/Информация : UTF-8 Plain Text
Продолжительность : 1 ч. 5 м.
Битрейт : 82 бит/сек
Count of elements : 2000
Размер потока : 39,5 Кбайт (0%)
Язык : English
Default : Нет
Forced : Нет
Меню
00:00:00.000 : en:Chapter 1
00:13:19.300 : en:Chapter 2
00:23:30.466 : en:Chapter 3
00:27:35.166 : en:Chapter 4
00:31:13.400 : en:Chapter 5
00:39:07.366 : en:Chapter 6
00:43:50.266 : en:Chapter 7
00:51:37.866 : en:Chapter 8
00:56:49.733 : en:Chapter 9
01:00:36.666 : en:Chapter 10
-

Скриншоты

Vi$itReal

Post 07-Dec-2019 12:20

[Quote]

Информация о фильме
Название: Уральские пельмени
Год выхода: 2009-2019
Жанр: ТВ-шоу, юмор, развлекательный
Режиссер: Константин Куц, Анастастия Ширина, Леонид Коновалов
В ролях: Дмитрий Брекоткин, Сергей Ершов, Сергей Исаев, Сергей Калугин, Вячеслав Мясников, Сергей Нетиевский, Александр Попов, Андрей Рожков, Сергей Светлаков, Дмитрий Соколов, Максим Ярица, Юля Михалкова
О фильме:
Легендарные чемпионы КВН, всеми любимые посланники юмора в уморительном шоу! Комедийная программа “Уральские пельмени” - передача, созданная неповторимой командой по производству юмора, которая прошла испытание временем и имеет целую армию поклонников. Своими выступлениями “Уральские пельмени” установили очень высокую планку комедийного шоу и не перестают удивлять зрителей великолепным, всегда свежим, ярким и необычным юмором, который нельзя спутать ни с чем. Смешные номера, искрометные шутки и мощный заряд позитива никого не оставят равнодушным.
Официальный сайт
Страна: Россия
Студия: YBW Group по заказу СТС
Продолжительность: ~ 1 час
Перевод: Не требуется
Файл
Кодек: mpeg2, h.264
Качество: DVB, WEBRip 480p, WEBRip 1080p
Видео: 720x576,850x480,1920x1080 ~ 900-6000 kb/s 25.000 кадр/с
Звук: mp2, AC3, AAC 44-48 kHz, Dolby Digital, 2/0 (L,R) ch, ~110-256 kbps
Субтитры: Нет

Скриншоты

Vi$itReal

Post 06-Dec-2019 22:35

[Quote]

Информация о фильме
Название: Уральские Пельмени - Азбука Уральских пельменей. О
Год выхода: 2019
Жанр: ТВ-шоу, юмор, сатира, развлекательный
Режиссер: Анастастия Ширина, Леонид Коновалов
В ролях: Дмитрий Брекоткин, Сергей Ершов, Сергей Исаев, Сергей Калугин, Вячеслав Мясников, Александр Попов, Андрей Рожков, Дмитрий Соколов (V), Максим Ярица, Юлия Михалкова, Илана Юрьева, Ксения Корнева
О фильме: Легендарные чемпионы КВН, всеми любимые посланники юмора в уморительном шоу! Комедийная программа “Уральские пельмени” - передача, созданная неповторимой командой по производству юмора, которая прошла испытание временем и имеет целую армию поклонников. Своими выступлениями “Уральские пельмени” установили очень высокую планку комедийного шоу и не перестают удивлять зрителей великолепным, всегда свежим, ярким и необычным юмором, который нельзя спутать ни с чем. Смешные номера, искрометные шутки и мощный заряд позитива никого не оставят равнодушным.
Страна: Россия
Продолжительность: 01:11:58
Файл
Кодек: MPEG-4 AVC
Качество: WEBRip 1080p
Видео: 1920x1080, 4407 Кбит/с, 25 fps
Звук: AC3, 2 ch, 192 Кбит/с

Скриншоты

RelizMAN

Post 06-Dec-2019 12:35

[Quote]

Информация о шоу
Название: События прошедшей недели с Джоном Оливером
Оригинальное название: Last Week Tonight with John Oliver
Год выхода: 2019
Жанр: новости, сатира, комедия
Выпущено: США / HBO
В ролях: Джон Оливер и все-все-все
Описание: Аналитическое разговорное шоу HBO, в котором британский ведущий в лице Джона Оливера язвительно высмеивает события прошедшей недели.

Качество: WEB-DL 720p
Перевод: Субтитры (hvblack)
Продолжительность: ~00:30:00
Файл
Формат: MKV
Видео: AVC (x264) | 1280x720p | 59,940 fps | ~4400 kbps
Аудио: AAC | 48KHz | 2.0 (Front: L R) | ~128 kbps [Original]
Субтитры: Русские (SRT), Английские (SRT)
Реклама: Отсутствует

Список эпизодов

01. [17.02.2019] Брэксит
02. [24.02.2019] Экстрасенсы
03. [03.03.2019] Автоматизация
04. [10.03.2019] Автозвонки
05. [17.03.2019] Публичное унижение
06. [31.03.2019] WWE - Всемирная федерация реслинга
07. [07.04.2019] Мобильные дома
08. [14.04.2019] Опиоиды
09. [21.04.2019] Доклад Мюллера
10. [05.05.2019] Смертельные инъекции
11. [12.05.2019] Новый Зелёный Курс
12. [19.05.2019] Поиск причин смерти
13. [02.06.2019] Медицинские изделия
14. [09.06.2019] ПРП - поправка о равных правах
15. [16.06.2019] Импичмент
16. [23.06.2019] Эверест
17. [30.06.2019] Склады
18. [28.07.2019] Борис Джонсон
19. [04.08.2019] Труд заключённых
20. [11.08.2019] Гурбангулы Бердымухаммедов
21. [18.08.2019] Предвзятость в медицине
22. [08.09.2019] Затягивание (Флибустьерство)
23. [15.09.2019] Законная иммиграция
24. [29.09.2019] Производственные аптеки
25. [06.10.2019] Политика одного ребёнка
26. [13.10.2019] Погода
27. [27.10.2019] Трамп и Сирия
28. [03.11.2019] Избирательные автоматы
29. [10.11.2019] SLAPP Suits
30. [17.11.2019] Census
-

MediaInfo

Общее
Уникальный идентификатор : 323088410004295996479584026772298094789 (0xF31090795189513160EEFDD04FC158C5)
Полное имя : .../Last Week Tonight with John Oliver s06 WEB-DL 720p/Last Week Tonight with John Oliver - s06e01 - Brexit.mkv
Формат : Matroska
Версия формата : Version 4 / Version 2
Размер файла : 961 Мбайт
Продолжительность : 29 м. 47 с.
Общий поток : 4510 Кбит/сек
Программа кодирования : mkvmerge v29.0.0 ('Like It Or Not') 64-bit
Библиотека кодирования : libebml v1.3.6 + libmatroska v1.4.9
Видео
Идентификатор : 1
Формат : AVC
Формат/Информация : Advanced Video Codec
Профиль формата : [email protected]
Параметр CABAC формата : Да
Параметр ReFrames формата : 4 кадра
Идентификатор кодека : V_MPEG4/ISO/AVC
Продолжительность : 29 м. 47 с.
Вид битрейта : Постоянный
Битрейт : 4372 Кбит/сек
Ширина : 1280 пикселей
Высота : 720 пикселей
Соотношение сторон : 16:9
Режим частоты кадров : Постоянный
Частота кадров : 59,940 (60000/1001) кадров/сек
Цветовое пространство : YUV
Субдискретизация насыщенности : 4:2:0
Битовая глубина : 8 бит
Тип развёртки : Прогрессивная
Бит/(Пиксели*Кадры) : 0.079
Размер потока : 933 Мбайт (97%)
Default : Да
Forced : Нет
Аудио
Идентификатор : 2
Формат : AAC
Формат/Информация : Advanced Audio Codec
Профиль формата : LC
Идентификатор кодека : A_AAC
Продолжительность : 29 м. 47 с.
Битрейт : 125 Кбит/сек
Каналы : 2 канала
Расположение каналов : Front: L R
Частота : 48,0 КГц
Частота кадров : 46,875 кадров/сек (1024 spf)
Метод сжатия : С потерями
Размер потока : 26,7 Мбайт (3%)
Язык : English
Default : Да
Forced : Нет
Текст
Идентификатор : 3
Формат : UTF-8
Идентификатор кодека : S_TEXT/UTF8
Идентификатор кодека/Информация : UTF-8 Plain Text
Продолжительность : 29 м. 35 с.
Битрейт : 256 бит/сек
Count of elements : 1114
Размер потока : 55,5 Кбайт (0%)
Язык : English
Default : Нет
Forced : Нет
-

Скриншоты

Vi$itReal

Post 05-Dec-2019 12:20

[Quote]

Информация о фильме
Название: Майк Бирбиглия: Новая жизнь
Оригинальное название: Mike Birbiglia: The New One
Год выхода: 2019
Жанр: Стендап, комедия, Standup
В ролях: Майк Бирбиглия
О фильме:
Трогательный и прекрасный Майк Бирбиглия вернулся к нам спустя несколько лет с новым концертом-повествованием под названием «The New One». Выступление представляет собой один большой рассказ о своем преодолении долгого пути от нежелания иметь детей до рождения дочери, полностью изменившего его жизнь, не взирая на трудности, которые могли стоит ему чуть ли не жизни. Майк вырос не только как комик, выступив с этим шоу на Бродвее, но и как автор, рассказчик. Мы ни разу преувеличим, если скажем, что этим концертом Майк прочно застолбил за собой номинацию на один из лучших стендап-концертов уходящего года. Отложите в сторону все свои дела и внимательно ловите каждое мгновение этого замечательного концерта.

Страна: США
Продолжительность: 01:23:15
Перевод: Субтитры
Файл
Кодек: H.264
Качество: WEBRip 1080p
Видео: 1920x1080, 23.976fps, 7686kbps
Звук: AAC, 48000Hz, 320kbps
Субтитры: Русские, вшитые.
Семпл

Скриншоты




Релиз от: AllStandUp
 

Current time is: 20-Jan 18:39

All times are UTC + 3