Search found 134 matches

Author Message

Vi$itReal

Post Yesterday 14:05

[Quote]

Информация о фильме
Название: Уральские Пельмени - Азбука Уральских пельменей О
Год выхода: 2019
Жанр: ТВ-шоу, юмор, сатира, развлекательный
Режиссер: Анастастия Ширина, Леонид Коновалов
В ролях: Дмитрий Брекоткин, Сергей Ершов, Сергей Исаев, Сергей Калугин, Вячеслав Мясников, Александр Попов, Андрей Рожков, Дмитрий Соколов (V), Максим Ярица, Юлия Михалкова, Илана Юрьева, Ксения Корнева
О фильме: Легендарные чемпионы КВН, всеми любимые посланники юмора в уморительном шоу! Комедийная программа “Уральские пельмени” - передача, созданная неповторимой командой по производству юмора, которая прошла испытание временем и имеет целую армию поклонников. Своими выступлениями “Уральские пельмени” установили очень высокую планку комедийного шоу и не перестают удивлять зрителей великолепным, всегда свежим, ярким и необычным юмором, который нельзя спутать ни с чем. Смешные номера, искрометные шутки и мощный заряд позитива никого не оставят равнодушным.
Страна: Россия
Продолжительность: 01:11:58
Перевод: не требуется
Субтитры: нет
Файл
Кодек: XviD
Качество: WEBRip
Видео: 720x400 (1.80:1), 25 fps, XviD build 73 ~1899 kbps avg, 0.26 bit/pixel
Звук: 44.100 kHz, MPEG Layer 3, 2 ch, ~128.00 kbps avg

Скриншоты

Vi$itReal

Post 06-Dec-2019 15:05

[Quote]

Информация о фильме
Название: Уральские Пельмени - Азбука Уральских пельменей Н
Год выхода: 2019
Жанр: ТВ-шоу, юмор, сатира, развлекательный
Режиссер: Анастастия Ширина, Леонид Коновалов
В ролях: Дмитрий Брекоткин, Сергей Ершов, Сергей Исаев, Сергей Калугин, Вячеслав Мясников, Александр Попов, Андрей Рожков, Дмитрий Соколов (V), Максим Ярица, Юлия Михалкова, Илана Юрьева, Ксения Корнева
О фильме: Легендарные чемпионы КВН, всеми любимые посланники юмора в уморительном шоу! Комедийная программа “Уральские пельмени” - передача, созданная неповторимой командой по производству юмора, которая прошла испытание временем и имеет целую армию поклонников. Своими выступлениями “Уральские пельмени” установили очень высокую планку комедийного шоу и не перестают удивлять зрителей великолепным, всегда свежим, ярким и необычным юмором, который нельзя спутать ни с чем. Смешные номера, искрометные шутки и мощный заряд позитива никого не оставят равнодушным.
Страна: Россия
Продолжительность: 01:11:14
Перевод: не требуется
Субтитры: нет
Файл
Кодек: XviD
Качество: WEBRip
Видео: 720x400 (1.80:1), 25 fps, XviD build 73 ~1899 kbps avg, 0.26 bit/pixel
Звук: 44.100 kHz, MPEG Layer 3, 2 ch, ~128.00 kbps avg

Скриншоты

Vi$itReal

Post 24-Nov-2019 03:20

[Quote]

Оригинальное название: КВН-2019. Встреча выпускников
Год выпуска: 2019
Жанр: Юмор
Выпущено: Россия, АМИК, Первый канал
Ведущий: Александр Масляков
О фильме: На одной сцене встретятся команды, которые, уже закончив свою карьеру в КВН, остаются популярны и сегодня. Для кого-то это будет реванш, для кого-то — еще одна попытка доказать свое превосходство. Игра войдет в историю и запомнится как самая большая и теплая встреча с любимыми кавээнщиками. Ведь, как и в школе, встреча выпускников Клуба — это лишний повод увидеть старых и добрых друзей по кавээновской сцене.
Качество: HDTVRip
Видео: XviD, 1797 Кбит/с, 720х400, 25 кадр/с
Аудио: Русский (AC3, 2 ch, 192 Кбит/с)
Продолжительность: 02:16:37
Перевод: Не требуется
Субтитры: нет

Скриншоты


MediaInfo

Общее
Полное имя : D:KVN-2019. Vstrecha vypusknikov.HDTVRip.GeneralFilm.avi
Формат : AVI
Формат/Информация : Audio Video Interleave
Размер файла : 1,91 Гбайт
Продолжительность : 2 ч. 16 м.
Общий поток : 2001 Кбит/сек
Видео
Идентификатор : 0
Формат : MPEG-4 Visual
Профиль формата : Advanced [email protected]
Параметр BVOP формата : 1
Параметр QPel формата : Нет
Параметр GMC формата : Без точки перехода
Параметр матрицы формата : Выборочная
Идентификатор кодека : XVID
Идентификатор кодека/Подсказка : XviD
Продолжительность : 2 ч. 16 м.
Битрейт : 1797 Кбит/сек
Ширина : 720 пикселей
Высота : 400 пикселей
Соотношение сторон : 16:9
Частота кадров : 25,000 кадров/сек
Цветовое пространство : YUV
Субдискретизация насыщенности : 4:2:0
Битовая глубина : 8 бит
Тип развёртки : Прогрессивная
Метод сжатия : С потерями
Бит/(Пиксели*Кадры) : 0.250
Размер потока : 1,72 Гбайт (90%)
Библиотека кодирования : XviD 1.2.1 (UTC 2008-12-04)
Аудио
Идентификатор : 1
Формат : AC-3
Формат/Информация : Audio Coding 3
Расширение режима : CM (complete main)
Параметр Endianness формата : Big
Идентификатор кодека : 2000
Продолжительность : 2 ч. 16 м.
Вид битрейта : Постоянный
Битрейт : 192 Кбит/сек
Каналы : 2 канала
Расположение каналов : Front: L R
Частота : 48,0 КГц
Битовая глубина : 16 бит
Метод сжатия : С потерями
Размер потока : 188 Мбайт (10%)
Выравнивание : Соединение по промежуткам
Продолжительность промежутка : 32 мс. (0,80 видеокадр)

Команды

Сборная Камызякского края по КВНу (Астраханская область).
«Уральские пельмени» (Екатеринбург).
«Город Пятигорск» (Ставропольский край).

Релиз:

Vi$itReal

Post 23-Nov-2019 16:35

[Quote]

Информация о фильме
Название: Уральские Пельмени - Азбука Уральских пельменей М
Год выхода: 2019
Жанр: ТВ-шоу, юмор, сатира, развлекательный
Режиссер: Анастастия Ширина, Леонид Коновалов
В ролях: Дмитрий Брекоткин, Сергей Ершов, Сергей Исаев, Сергей Калугин, Вячеслав Мясников, Александр Попов, Андрей Рожков, Дмитрий Соколов (V), Максим Ярица, Юлия Михалкова, Илана Юрьева, Ксения Корнева
О фильме: Легендарные чемпионы КВН, всеми любимые посланники юмора в уморительном шоу! Комедийная программа “Уральские пельмени” - передача, созданная неповторимой командой по производству юмора, которая прошла испытание временем и имеет целую армию поклонников. Своими выступлениями “Уральские пельмени” установили очень высокую планку комедийного шоу и не перестают удивлять зрителей великолепным, всегда свежим, ярким и необычным юмором, который нельзя спутать ни с чем. Смешные номера, искрометные шутки и мощный заряд позитива никого не оставят равнодушным.
Страна: Россия
Продолжительность: 01:11:57
Перевод: не требуется
Субтитры: нет
Файл
Кодек: XviD
Качество: WEBRip
Видео: 720x400 (1.80:1), 25 fps, XviD build 73 ~1899 kbps avg, 0.26 bit/pixel
Звук: 44.100 kHz, MPEG Layer 3, 2 ch, ~128.00 kbps avg

Скриншоты

Vi$itReal

Post 23-Nov-2019 16:35

[Quote]

Информация о фильме
Название: КВН-2019. Встреча выпускников - 2019
Год выхода: 2019
Жанр: Юмор
Ведущий: Александр Масляков
О фильме:
Что такое КВН - знают, без сомнения, все. В КВН играют во всем мире, это прежде всего молодежная игра. Постоянные конкурсные задания - "Визитная карточка", "Разминка", "Конкурс капитанов", "Музыкальный конкурс", "Домашнее задание". Игру команд оценивает профессиональное жюри - люди, у которых с чувством юмора все в порядке, многие из них раньше сами играли в КВН. Среди членов жюри были Константин Эрнст, Леонид Парфенов, Юлий Гусман, Леонид Ярмольник, Валдис Пельш, Сергей Шолохов, Геннадий Хазанов и другие. Кроме самих игр проводятся ежегодные встречи: фестиваль команд КВН (с 1990 г., семь раз фестиваль проходил в г.Сочи), музыкальный фестиваль КВН, летний кубок КВН, международные товарищеские игры в КВН. Сборная КВН играет со сборными других стран. Уже состоялись игры между сборной КВН и сборными Америки, Австралии, Израиля... Игра в КВН для многих становится профессией, а многие благодаря игре связывают жизнь с искусством. Из КВН "вышли": Леонид Якубович, Михаил Марфин, Татьяна Лазарева, Олег Филимонов, Юлий Гусман и многие другие.
Команды: Сборная Камызякского края по КВНу (Астраханская область), «Уральские пельмени» (Екатеринбург), «Город Пятигорск» (Ставропольский край).
Страна: Россия
Студия: АМИК, ОАО «Первый канал»
Продолжительность: 02:18:11
Язык: Русский
Релиз группы: | Автор релиза:
Примечание: Без рекламы
Файл
Кодек: XviD
Качество: SATRip
Видео: XviD, ~ 1700 Кбит/с, 720x400
Звук: МР3, 2 ch, 192 Кбит/с

Скриншоты

Vi$itReal

Post 22-Nov-2019 07:05

[Quote]

Информация о фильме
Название: Уральские Пельмени - Азбука Уральских пельменей Л
Год выхода: 2019
Жанр: ТВ-шоу, юмор, сатира, развлекательный
Режиссер: Анастастия Ширина, Леонид Коновалов
В ролях: Дмитрий Брекоткин, Сергей Ершов, Сергей Исаев, Сергей Калугин, Вячеслав Мясников, Александр Попов, Андрей Рожков, Дмитрий Соколов (V), Максим Ярица, Юлия Михалкова, Илана Юрьева, Ксения Корнева
О фильме: Легендарные чемпионы КВН, всеми любимые посланники юмора в уморительном шоу! Комедийная программа “Уральские пельмени” - передача, созданная неповторимой командой по производству юмора, которая прошла испытание временем и имеет целую армию поклонников. Своими выступлениями “Уральские пельмени” установили очень высокую планку комедийного шоу и не перестают удивлять зрителей великолепным, всегда свежим, ярким и необычным юмором, который нельзя спутать ни с чем. Смешные номера, искрометные шутки и мощный заряд позитива никого не оставят равнодушным.
Страна: Россия
Продолжительность: 01:12:25
Перевод: не требуется
Субтитры: нет
Файл
Кодек: XviD
Качество: WEBRip
Видео: 720x400 (1.80:1), 25 fps, XviD build 73 ~1799 kbps avg, 0.25 bit/pixel
Звук: 44.100 kHz, MPEG Layer 3, 2 ch, ~128.00 kbps avg

Скриншоты

Vi$itReal

Post 16-Nov-2019 22:35

[Quote]

Оригинальное название: КВН-2019. Кубок мэра Москвы
Год выпуска: 2019
Жанр: Юмор
Выпущено: Россия, ОАО "Первый канал"
Ведущий: Александр Масляков
О фильме: КВН – соревнование в индивидуальном и командном остроумии – на сегодняшний день представляет собой самостоятельный жанр сценического искусства. История КВН берет свое начало в 1957 году, являясь поначалу викториной под названием «Вечер Веселых Вопросов», а уже с 1961 года передача стала выходить в эфир под названием «КВН». Поначалу передача планировалась как соревнование эрудитов, со временем же, претерпевая метаморфозы, она стала приобретать явно юмористическую окраску содержания. Помимо того, что это была единственная молодежная юмористическая передача своего времени, у ее истоков стояли и известнейшие телеведущие страны – сначала сам автор программы Альберт Аксельрод в паре с юной Светланой Жильцовой, впоследствии Аксельрода сменил тогда еще студент-четверокурсник Александр Масляков. Сегодня это уже не совсем та передача, что приковывала внимание зрителей десятилетия назад, это проект, который в поиске новых идей и находок меняется вместе с нашей жизнью и, как показывает жизнь, процесс его совершенствования просто бесконечен.
Качество: HDTVRip
Видео: XviD, 1795 Кбит/с, 720х400, 25 кадр/с
Аудио: Русский (AC3, 2 ch, 192 Кбит/с)
Продолжительность: 01:56:59
Перевод: Не требуется
Субтитры: нет

Скриншоты


MediaInfo

Общее
Полное имя : D:KVN-2019. Kubok mjera Moskvy.HDTVRip.GeneralFilm.avi
Формат : AVI
Формат/Информация : Audio Video Interleave
Размер файла : 1,63 Гбайт
Продолжительность : 1 ч. 56 м.
Общий поток : 1998 Кбит/сек
Видео
Идентификатор : 0
Формат : MPEG-4 Visual
Профиль формата : Advanced [email protected]
Параметр BVOP формата : 1
Параметр QPel формата : Нет
Параметр GMC формата : Без точки перехода
Параметр матрицы формата : Выборочная
Идентификатор кодека : XVID
Идентификатор кодека/Подсказка : XviD
Продолжительность : 1 ч. 56 м.
Битрейт : 1795 Кбит/сек
Ширина : 720 пикселей
Высота : 400 пикселей
Соотношение сторон : 16:9
Частота кадров : 25,000 кадров/сек
Цветовое пространство : YUV
Субдискретизация насыщенности : 4:2:0
Битовая глубина : 8 бит
Тип развёртки : Прогрессивная
Метод сжатия : С потерями
Бит/(Пиксели*Кадры) : 0.249
Размер потока : 1,47 Гбайт (90%)
Библиотека кодирования : XviD 1.2.1 (UTC 2008-12-04)
Аудио
Идентификатор : 1
Формат : AC-3
Формат/Информация : Audio Coding 3
Расширение режима : CM (complete main)
Параметр Endianness формата : Big
Идентификатор кодека : 2000
Продолжительность : 1 ч. 56 м.
Вид битрейта : Постоянный
Битрейт : 192 Кбит/сек
Каналы : 2 канала
Расположение каналов : Front: L R
Частота : 48,0 КГц
Битовая глубина : 16 бит
Метод сжатия : С потерями
Размер потока : 161 Мбайт (10%)
Выравнивание : Соединение по промежуткам
Продолжительность промежутка : 32 мс. (0,80 видеокадр)

Команды

«Такая история» (ОГУ им. Тургенева, Орел)
«НАТЕ» (Станица Брюховецкая)
«Наполеон Динамит» (Тюменская область)
«Будем дружить семьями» (Москва)
и многочисленные гости.

Релиз:

Vi$itReal

Post 16-Nov-2019 19:35

[Quote]

Информация о фильме
Название: КВН-2019. День рождения КВН (Кубок мэра Москвы 2019)
Год выхода: 2019
Жанр: Юмор
Ведущий: Александр Масляков
О фильме:
Что такое КВН - знают, без сомнения, все. В КВН играют во всем мире, это прежде всего молодежная игра. Постоянные конкурсные задания - "Визитная карточка", "Разминка", "Конкурс капитанов", "Музыкальный конкурс", "Домашнее задание". Игру команд оценивает профессиональное жюри - люди, у которых с чувством юмора все в порядке, многие из них раньше сами играли в КВН. Среди членов жюри были Константин Эрнст, Леонид Парфенов, Юлий Гусман, Леонид Ярмольник, Валдис Пельш, Сергей Шолохов, Геннадий Хазанов и другие. Кроме самих игр проводятся ежегодные встречи: фестиваль команд КВН (с 1990 г., семь раз фестиваль проходил в г.Сочи), музыкальный фестиваль КВН, летний кубок КВН, международные товарищеские игры в КВН. Сборная КВН играет со сборными других стран. Уже состоялись игры между сборной КВН и сборными Америки, Австралии, Израиля... Игра в КВН для многих становится профессией, а многие благодаря игре связывают жизнь с искусством. Из КВН "вышли": Леонид Якубович, Михаил Марфин, Татьяна Лазарева, Олег Филимонов, Юлий Гусман и многие другие.
Команды: «Такая история» (ОГУ им. Тургенева, Орел), «НАТЕ» (Станица Брюховецкая), «Наполеон Динамит» (Тюменская область), «Будем дружить семьями» (Москва), и многочисленные гости..
Страна: Россия
Студия: АМИК, ОАО «Первый канал»
Продолжительность: 01:57:12
Язык: Русский
Релиз группы: | Автор релиза:
Примечание: Без рекламы
Файл
Кодек: XviD
Качество: SATRip
Видео: XviD, ~ 1700 Кбит/с, 720x400
Звук: МР3, 2 ch, 192 Кбит/с

Скриншоты

Vi$itReal

Post 11-Nov-2019 08:05

[Quote]

Дата/Год выпуска: 2003-18
Страна: Япония
Жанр: Юмор, ТВ-шоу
Продолжительность: эпизод 57 мин.
Перевод: Озвучка, субтитры
Формат субтитров: hardsub (содержание выпуска, подсказки)
Оригинальная аудиодорожка: Япония
Описание:
В этой раздаче находятся озвученные разными командами выпуски передачи.
Эпизоды:

раскрыть список

005 Metroid (vo den904)
006 Solomon's Key (dvo DeadSno & den904)
007 Prince of Persia. Part 1 (vo den904)
008 Prince of Persia. Part 2 (dvo DeadSno & den904)
022 Final Fight (озвучка DinoCorn)
027 Super Mario 64. Part 1 (dvo DeadSno & den904)
028 Super Mario 64. Part 2 (dvo DeadSno & den904)
029 Ninja Ryuukenden (vo incorcadit)
032 Contra (dvo DeadSno & den904)
039 Mighty Bomb Jack (dvo DeadSno & den904)
045 Ultraseven (dvo DeadSno & den904)
046 MegaMan (dvo Abunai!! GCCX)
050 Special TamaGe in South Korea (dvo DeadSno & den904)
051 Musashi no Ken - Tadaima Shugyou Chuu (dvo DeadSno & den904)
056 Flashback (dvo DeadSno & den904)
065 Cannes Trip (dvo DeadSno & den904)
069 Dragon Slayer IV - Drasle Family (dvo DeadSno & den904)
073 Lemmings (dvo DeadSno & den904)
081 Battle Golfer Yui (dvo DeadSno & den904)
084 Super Gussun Oyoyo (dvo DeadSno & den904)
087 Golden Axe (dvo DeadSno & den904)
091 Kid Kool (dvo Abunai!! GCCX)
094 Densha de Go! (dvo DeadSno & den904)
102 Super Puyo Puyo (dvo DeadSno & den904)
109 The Legend of Zelda Ocarina of Time. Part 1 (vo den904)
110 The Legend of Zelda Ocarina of Time. Part 2 (vo den904)
114 Rockman 4 - Aratanaru Yabou!!. Part 1 (dvo DeadSno & den904)
115 Rockman 4 - Aratanaru Yabou!!. Part 2 (dvo DeadSno & den904)
117 Gimmick (vo DeadSno & den904)
122 Comix Zone (dvo DeadSno & den904)
124 Metal Storm (dvo DeadSno & den904)
127 Pac-Man 2 - The New Adventures (dvo DeadSno & den904)
132 Battletoads. Part1 (vo den904)
133 Battletoads. Part2 (vo den904)
135 Alex Kidd no Miracle World (dvo DeadSno & den904)
160 Chou Wakusei Senki Metafight (dvo DeadSno & den904)
162 Super Donkey Kong 2 - Dixie & Diddy.Part 1 (dvo DeadSno & den904)
163 Super Donkey Kong 2 - Dixie & Diddy.Part 2 (dvo DeadSno & den904)
164 Super Donkey Kong 2 - Dixie & Diddy.Part 3 (dvo DeadSno & den904)
166 Kage (vo den904)
169 Nitropunks Mightheads (dvo DeadSno & den904)
178 Rockman X. Part 1 (dvo DeadSno & den904)
179 Rockman X. Part 2 (dvo DeadSno & den904)
181 Gunstar Heroes (dvo DeadSno & den904)
184 Super Mario Land (dvo DeadSno & den904)
197 Intelligent Qube. Part 1 (dvo DeadSno & den904)
198 Intelligent Qube. Part 2 (dvo DeadSno & den904)
239 Densha de Go! 64 (dvo DeadSno & den904)
DX#01 Yoshi's Wooly World (dvo MedySlava и DimanWav)
NC#11 Excitebike 3D (vo Дмитрий Нагато)
NC#18 Balloon Fight (vo Dinocorn)
Special 36. GCCX in Russia (dvo DeadSno & den904)
качество: WEBRip
Формат: AVI
Видео: MREG-4 (XVID), , 392 кб/с, 29.97 fps
Аудио: AAC, 152 кб/с, 44.1 кГц, 2 канала
Видео: MREG-4 (XVID), , 1276 кб/с, 29.97 fps
Аудио: AC-3, 192 кб/с, 48,0 кГц, 2 канала
Видео: MREG-4 (XVID), , 1654 кб/с, 29.97 fps
Аудио: AC-3, 192 кб/с, 48,0 кГц, 2 канала
Видео: MREG-4 (XVID), , 1190 кб/с, 29.97 fps
Аудио: AC-3, 192 кб/с, 48,0 кГц, 2 канала

Скриншоты

1280x720

1024x576

640x480

704x396
Формат: MP4
Видео: H.264 (AVC), 1920x1080, 4447 кб/с, 25 fps
Аудио: AAC, 192 кб/с, 44.1 кГц, 2 канала
Видео: H.264 (AVC), 640x360, 450 кб/с, 25 fps
Аудио: AAC, 109 кб/с, 44.1 кГц, 2 канала
Видео: H.264 (AVC), 1280x720, 1980 кб/с, 29.97 fps
Аудио: AAC, 192 кб/с, 44.1 кГц, 2 канала

Скриншоты

1920x1080

1280x720

640x360
Формат: MKV
Видео: H.264 (AVC), 1920x1080, 2380 кб/с, 29.97 fps
Аудио: AC-3, 192 кб/с, 48 кГц, 2 канала

Скриншоты

Vi$itReal

Post 11-Nov-2019 06:05

[Quote]

Дата/Год выпуска: 2014-16
Страна: Япония
Жанр: Юмор, ТВ-шоу
Продолжительность: эпизод 57 мин.
Перевод: Субтитры (русские)
Формат субтитров: hardsub
Оригинальная аудиодорожка: Япония
Описание:
В этой раздаче находятся специальные выпуски, которые не входят в список эпизодов какого-либо сезона: DVD-бонусы, выпуски, посвящённые разным событиям, и выпуски, где Арино пытается достичь поставленных целей в играх из Virtual Console.
Эпизоды:
DVD-Exclusive 01. Transformers: Convoy no Nazo
DVD-Exclusive 03. Ikki
DVD-Exclusive 04. Bomberman
DVD-Exclusive 07. Binary Land
DX 01. Yoshi's Wooly World
NC 03. Star Force
NC 04. Nekketsu Downtown
NC 05. Splatterhouse
NC 07. Super Mario Kart
NC 11. Excitebike 3D
NC 15. Hoshi no Kirby Super Deluxe
NC 17. Iwata Asks Balloon Fight
NC 18. Balloon Fight
Special 04. GameCenter CX in USA + RoboCop
Special 17. Arino's Challenge in Budokan
Special 36. GCCX in Russia
Super Mario 30th Anniversary NicoNico Chokaigi Special
качество: WEBRip
Формат: AVI
Видео: HMREG-4 (XVID), 1920 x 1080, 2 096 кб/с, 29.97 fps
Аудио: MP3, 128 кб/с, 44,1 кГц, 2 канала
Видео: MREG-4 (XVID), 1280 x 720, 1 255 кб/с, 30.00 fps
Аудио: MP3, 192 кб/с, 44,1 кГц, 2 канала
Видео: H264, 640 x 480, 1 363 кб/с, : 29.97 fps
Аудио: MP3, 128 кб/с, 44,1 кГц, 2 канала
Видео: MREG-4 (XVID), 704 x 396, 1 750 кб/с, 29.97 fps
Аудио: MP3, 128 кб/с, 48 кГц, 2 канала

Скриншоты

1920 x 1080

1280 х 720

640 x 480

704 x 396
Формат: MP4
Видео: H264, 640 x 480, 600 кб/с, 23.976 fps
Аудио: AAC, 128 кб/с, 44,1 кГц, 2 канала
Видео: H264, 480 x 360, 243 кб/с, 29.97 fps
Аудио: AAC, 96 кб/с, 44,1 кГц, 2 канала

Скриншоты

480 х 360

640 x 480
Формат: MKV
Видео: H.264, 1280 x 720, 3681 кб/с, 29.97 fps
Аудио: MP3, 192 кб/с, 44,1 кГц, 2 канала
Видео: H.264, 640 x 360, 947 кб/с, 29.97 fps
Аудио: MP3, 192 кб/с, 44,1 кГц, 2 канала

Скриншоты

1280 x 720

640 x 480

Vi$itReal

Post 08-Nov-2019 16:35

[Quote]

Информация о фильме
Название: Уральские пельмени - Нервное сентября
Год выхода: 2019
Жанр: ТВ-шоу, юмор, сатира, развлекательный
Режиссер: Константин Куц, Леонид Коновалов, Анастасия Гуделова
В ролях: Дмитрий Брекоткин, Сергей Ершов, Сергей Исаев, Сергей Калугин, Вячеслав Мясников, Александр Попов, Андрей Рожков, Дмитрий Соколов (V), Максим Ярица, Юлия Михалкова, Илана Юрьева
О фильме:
Когда дети носят домой задание для родителей, когда есть ещё один иностранный язык - язык трудовика, когда единственное что меняется в школе, это шторы, и когда все делается через ЕГЭ - тогда и появляется «Нервное Сентября».
Страна: Россия
Студия: YBW Group, СТС
Продолжительность: 01:10:11
Язык: Русский
Релиз группы: | Автор релиза:
Примечание: Без рекламы
Файл
Кодек: XviD
Качество: SATRip
Видео: XviD, ~ 1700 Кбит/с, 720x400
Звук: МР3, 2 ch, 192 Кбит/с
Семпл

Скриншоты

Vi$itReal

Post 08-Nov-2019 10:50

[Quote]

Название: Stand Up в MP3 (Сезон 1-10)
Жанр: Юмор
Автор: ТНТ, Россия / Comedy Club Production
Озвучивают: Руслан Белый, Слава Комиссаренко, Юлия Ахмедова, Дмитрий Романов, Стас Старовойтов, Тимур Каргинов, Виктор Комаров, Александр Шаляпин, Алексей Щербаков, Нурлан Сабуров
Год издания: 2019
Продолжительность: 118 х ~00:46:00
Описание:
Программа телеканала ТНТ, StandUp в MP3 для прослушивания в плеерах.
В 2013-м году вышел первый выпуск юмористической передачи «Stand Up» на канале «ТНТ», созданной КВНщиком (команда «Седьмое небо»), участником передачи «Comedy Club», «Убойная лига» и других юмористических проектов — Русланом Белым, который нашёл себя в этом проекте и предоставил возможность другим комикам проявить себя во всей красе.
Stand Up - это взгляд на наши жизненные повседневные ситуации. Это история, которую рассказывает человек на сцене, - обычно очень откровенную. Это правда жизни. Это что-то современное, что-то новое. Это что-то невообразимо оригинальное, яркое, интересное и обязательно смешное. Встречайте...

MediaInfo

Общее:
Полное имя : E:TORRENTYSerialStand.UpStand.Up2016Stand.Up.-5.(04).2016.G-R.mp3.mp3
Формат : MPEG Audio
Размер файла : 41,8 Мбайт
Продолжительность : 45 м.
Режим общего битрейта : Постоянный
Общий поток : 128 Кбит/сек
Трек : Stand.Up.-5.(04).2016.G-R.mp3
Библиотека кодирования : LAME3.99.5
Примечание : by groozin R
comment : by groozin R
creation_time : 2016-10-10T06:06:18.000000Z
Аудио
Формат : MPEG Audio
Версия формата : Version 1
Профиль формата : Layer 3
Режим : Joint stereo
Расширение режима : MS Stereo
Продолжительность : 45 м.
Вид битрейта : Постоянный
Битрейт : 128 Кбит/сек
Каналы : 2 канала
Частота : 48,0 КГц
Метод сжатия : С потерями
Размер потока : 41,8 Мбайт (100%)
Библиотека кодирования : LAME3.99.5

Содержание релиза, продолжительность.

2013-2014, 1 - 2-й сезоны
01. Stand.Up.(01).2013.G-R.mp3- 00:44:41
02. Stand.Up.(02).2013.G-R.mp3- 00:44:32
03. Stand.Up.(03).2013.G-R.mp3- 00:47:02
04. Stand.Up.(04).2013.G-R.mp3- 00:48:41
05. Stand.Up.(05).2013.G-R.mp3- 00:46:21
06. Stand.Up.(06).2013.G-R.mp3- 00:42:47
07. Stand.Up.(07).2013.G-R.mp3- 00:47:29
08. Stand.Up.(08).2013.G-R.mp3- 00:47:30
09. Stand.Up.(09).2013.G-R.mp3- 00:49:17
10. Stand.Up.(10).2013.G-R.mp3- 00:47:58
11. Stand.Up.(11).2013.G-R.mp3- 00:50:08
12. Stand.Up.(12).2013.G-R.mp3- 00:47:38
13. Stand.Up.(13).2013.G-R.mp3- 00:49:33
14. Stand.Up.(14).2013.G-R.mp3- 00:46:43
15. Stand.Up.(15).2013.G-R.mp3- 00:49:48
16. Stand.Up.(16).2013.G-R.mp3- 00:46:16
17. Stand.Up.(17).2014.G-R.mp3- 00:44:31
18. Stand.Up.(18).2014.G-R.mp3- 00:48:54
19. Stand.Up.(19).2014.G-R.mp3- 00:49:03
20. Stand.Up.(20).2014.G-R.mp3- 00:48:19
21. Stand.Up.(21).2014.G-R.mp3- 00:48:00
22. Stand.Up.(22).2014.G-R.mp3- 00:48:26
23. Stand.Up.(23).2014.G-R.mp3- 00:49:12
24. Stand.Up.(24).2014.G-R.mp3- 00:47:22
25. Stand.Up.(25).2014.G-R.mp3- 00:46:37
26. Stand.Up.(26).2014.G-R.mp3- 00:47:44
27. Stand.Up.(27).2014.G-R.mp3- 00:47:44
28. Stand.Up.(28).2014.G-R.mp3- 00:46:24
29. Stand.Up.(29).2014.G-R.mp3- 00:48:09
30. Stand.Up.(30).2014.G-R.mp3- 00:47:24
31. Stand.Up.(31).2014.G-R.mp3- 00:47:17
32. Stand.Up.(32).2014.G-R.mp3- 00:47:05
33. Stand.Up.(33).2014.G-R.mp3- 00:47:37
34. Stand.Up.(34).2014.G-R.mp3- 00:48:29
35. Stand.Up.(35).2014.G-R.mp3- 00:47:30-2015, 3-й сезон
01. Stand.Up.-3.(01).2015.G-R.mp3- 00:46:34
02. Stand.Up.-3.(02).2015.G-R.mp3- 00:46:33
03. Stand.Up.-3.(03).2015.G-R.mp3- 00:46:19
04. Stand.Up.-3.(04).2015.G-R.mp3- 00:47:15
05. Stand.Up.-3.(05).2015.G-R.mp3- 00:45:29
06. Stand.Up.-3.(06).2015.G-R.mp3- 00:46:30
07. Stand.Up.-3.(07).2015.G-R.mp3- 00:47:23
08. Stand.Up.-3.(08).2015.G-R.mp3- 00:47:30
09. Stand.Up.-3.(09).2015.G-R.mp3- 00:48:02
10. Stand.Up.-3.(10).2015.G-R.mp3- 00:47:22
11. Stand.Up.-3.(11).2015.G-R.mp3- 00:47:32-2016, 4-й сезон
01. Stand.Up.-4.(01).2016.G-R.mp3- 00:48:55
02. Stand.Up.-4.(02).2016.G-R.mp3- 00:48:10
03. Stand.Up.-4.(03).2016.G-R.mp3- 00:48:33
04. Stand.Up.-4.(04).2016.G-R.mp3- 00:48:47
05. Stand.Up.-4.(05).2016.G-R.mp3- 00:48:53
06. Stand.Up.-4.(06).2016.G-R.mp3- 00:49:09
07. Stand.Up.-4.(07).2016.G-R.mp3- 00:47:55
08. Stand.Up.-4.(08).2016.G-R.mp3- 00:47:14
09. Stand.Up.-4.(09).2016.G-R.mp3- 00:49:05-2016, 5-й сезон
10. Stand.Up.-5.(01).2016.G-R.mp3- 00:47:59
11. Stand.Up.-5.(02).2016.G-R.mp3- 00:47:39
12. Stand.Up.-5.(03).2016.G-R.mp3- 00:48:29
13. Stand.Up.-5.(04).2016.G-R.mp3- 00:45:40
14. Stand.Up.-5.(05).2016.G-R.mp3- 00:49:24
15. Stand.Up.-5.(06).2016.G-R.mp3- 00:47:09
16. Stand.Up.-5.(07).2016.G-R.mp3- 00:49:20
17. Stand.Up.-5.(08).2016.G-R.mp3- 00:45:15
18. Stand.Up.-5.(09).2016.G-R.mp3- 00:47:47-2017, 6-й сезон
01. Stand.Up.-6.(01).2017.G-R.mp3- 00:46:51
02. Stand.Up.-6.(02).2017.G-R.mp3- 00:46:55
03. Stand.Up.-6.(03).2017.G-R.mp3- 00:46:06
04. Stand.Up.-6.(04).2017.G-R.mp3- 00:47:19
05. Stand.Up.-6.(05).2017.G-R.mp3- 00:47:40
06. Stand.Up.-6.(06).2017.G-R.mp3- 00:46:36
07. Stand.Up.-6.(07).2017.G-R.mp3- 00:45:48
08. Stand.Up.-6.(08).2017.G-R.mp3- 00:44:35
09. Stand.Up.-6.(09).2017.G-R.mp3- 00:44:52
2017, 7-й сезон
01. Stand.Up.-7.(01).2017.G-R.mp3- 00:46:58
02. Stand.Up.-7.(02).2017.G-R.mp3- 00:46:40
03. Stand.Up.-7.(03).2017.G-R.mp3- 00:46:15
04. Stand.Up.-7.(04).2017.G-R.mp3- 00:47:22
05. Stand.Up.-7.(05).2017.G-R.mp3- 00:47:18
06. Stand.Up.-7.(06).2017.G-R.mp3- 00:46:44
07. Stand.Up.-7.(07).2017.G-R.mp3- 00:47:06
08. Stand.Up.-7.(08).2017.G-R.mp3- 00:47:41
09. Stand.Up.-7.(09).2017.G-R.mp3- 00:45:19
10. Stand.Up.-7.(10).2017.G-R.mp3- 00:46:44
2018, 8-й сезон
01. Stand.Up.-8.(01).2018.G-R.mp3-00:45:40
02. Stand.Up.-8.(02).2018.G-R.mp3-00:46:54
03. Stand.Up.-8.(03).2018.G-R.mp3-00:45:32
04. Stand.Up.-8.(04).2018.G-R.mp3-00:47:05
05. Stand.Up.-8.(05).2018.G-R.mp3-00:47:13
06. Stand.Up.-8.(06).2018.G-R.mp3-00:47:13
07. Stand.Up.-8.(07).2018.G-R.mp3-00:47:31
08. Stand.Up.-8.(08).2018.G-R.mp3-00:45:42
09. Stand.Up.-8.(09).2018.G-R.mp3-00:45:58
10. Stand.Up.-8.(10).2018.G-R.mp3-00:46:30
11. Stand.Up.-8.(11).2018.G-R.mp3-00:46:34
12. Stand.Up.-8.(12).2018.G-R.mp3-00:45:48
13. Stand.Up.-8.(13).2018.G-R.mp3-00:47:05
14. Stand.Up.-8.(14).2018.G-R.mp3-00:46:11
15. Stand.Up.-8.(15).2018.G-R.mp3-00:47:49
2019, 9-й сезон
01. Stand.Up.-09.(01).(10.02).2019.G-R-00:44:34
02. Stand.Up.-09.(02).(17.02).2019.G-R-00:47:31
03. Stand.Up.-09.(03).(24.02).2019.G-R-00:46:24
04. Stand.Up.-09.(04).(31.02).2019.G-R-00:47:50
05. Stand.Up.-09.(05).(10.03).2019.G-R-00:44:10
06. Stand.Up.-09.(06).(17.03).2019.G-R-00:44:06
07. Stand.Up.-09.(07).(24.03).2019.G-R-00:42:11
08. Stand.Up.-09.(08).(31.03).2019.G-R-00:44:31
09. Stand.Up.-09.(09).(14.04).2019.G-R-00:44:32
10. Stand.Up.-09.(10).(21.04).2019.G-R-00:44:32
2019, 10-й сезон*
01. Stand.Up.-10.(01).(31.08).2019.G-R-00:47:16
02. Stand.Up.-10.(02).(07.09).2019.G-R-00:46:51
03. Stand.Up.-10.(03).(14.09).2019.G-R-00:46:43
04. Stand.Up.-10.(04).(21.09).2019.G-R-00:47:20
05. Stand.Up.-10.(05).(21.09).2019.G-R-00:47:49
06. Stand.Up.-10.(06).(28.09).2019.G-R-00:46:31
07. Stand.Up.-10.(07).(05.10).2019.G-R-00:47:03
08. Stand.Up.-10.(08).(12.10).2019.G-R-00:47:52
09. Stand.Up.-10.(09).(19.10).2019.G-R-00:46:07
10. Stand.Up.-10.(10).(26.10).2019.G-R-00:46:44
Файл
Формат/Кодек: MP3
Битрейт аудио: 128-192 Кбит/сек, CBR

Vi$itReal

Post 07-Nov-2019 15:50

[Quote]

Информация о фильме
Название: Уральские Пельмени - Лето это маленькая жесть
Год выхода: 2019
Жанр: ТВ-шоу, юмор, сатира, развлекательный
Режиссер: Анастастия Ширина, Леонид Коновалов
В ролях: Дмитрий Брекоткин, Сергей Ершов, Сергей Исаев, Сергей Калугин, Вячеслав Мясников, Александр Попов, Андрей Рожков, Дмитрий Соколов (V), Максим Ярица, Юлия Михалкова, Илана Юрьева, Ксения Корнева
О фильме: Если страной начинают править грядки, если в небе стало тесно от чартеров, если на берегу из-за людей не видно гальку, это значит в России наступило лето. А «Лето – это маленькая жесть» в новой программе Шоу «Уральские пельмени».
Страна: Россия
Продолжительность: 01:10:32
Перевод: не требуется
Субтитры: нет
Файл
Кодек: XviD
Качество: WEBRip
Видео: 688x384 (1.79:1), 25 fps, XviD build 73 ~1899 kbps avg, 0.29 bit/pixel
Звук: 44.100 kHz, MPEG Layer 3, 2 ch, ~128.00 kbps avg

Скриншоты

Vi$itReal

Post 07-Nov-2019 02:05

[Quote]

Информация о фильме
Название: Уральские Пельмени - Азбука Уральских пельменей К
Год выхода: 2019
Жанр: ТВ-шоу, юмор, сатира, развлекательный
Режиссер: Анастастия Ширина, Леонид Коновалов
В ролях: Дмитрий Брекоткин, Сергей Ершов, Сергей Исаев, Сергей Калугин, Вячеслав Мясников, Александр Попов, Андрей Рожков, Дмитрий Соколов (V), Максим Ярица, Юлия Михалкова, Илана Юрьева, Ксения Корнева
О фильме: Легендарные чемпионы КВН, всеми любимые посланники юмора в уморительном шоу! Комедийная программа “Уральские пельмени” - передача, созданная неповторимой командой по производству юмора, которая прошла испытание временем и имеет целую армию поклонников. Своими выступлениями “Уральские пельмени” установили очень высокую планку комедийного шоу и не перестают удивлять зрителей великолепным, всегда свежим, ярким и необычным юмором, который нельзя спутать ни с чем. Смешные номера, искрометные шутки и мощный заряд позитива никого не оставят равнодушным.
Страна: Россия
Продолжительность: 01:12:38
Перевод: не требуется
Субтитры: нет
Файл
Кодек: XviD
Качество: WEBRip
Видео: 688x384 (1.79:1), 25 fps, XviD build 73 ~1899 kbps avg, 0.29 bit/pixel
Звук: 44.100 kHz, MPEG Layer 3, 2 ch, ~128.00 kbps avg

Скриншоты

Vi$itReal

Post 27-Oct-2019 18:05

[Quote]

Информация о фильме
Оригинальное название: Вечерний квартал
Год выпуска: 2019
Жанр: Юмористическое шоу, концерт, сатира
Выпущено: Украина, Студия 95 квартал
Режиссер: Студия 95 квартал
В ролях: Юрий Великий, Юрий Крапов, Елена Кравец, Евгений Кошевой, Сергей Казанин, Александр Пикалов, Юрий Корявченков, Аркадий Лапухин
О фильме:
Однажды веселые ребята из "95-го квартала" решили отметить свой переезд из родного Кривого Рога в Киев, а заодно 10-летие команды новым шоу. Коллектив подобрался душевный, "с огоньком", гости - сплошь знаменитые, а столичная публика - щедрая на аплодисменты. Так родилась самая смешная и популярная передача на отечественном телевидении - "Вечерний квартал". Идея шоу проста: в городе N есть некий модный квартал, в котором тусуются девять смешных жителей. Остальные просто приходят к ним в гости. Правда, гости не совсем обычные: среди них встречаются и богатые, и знаменитые, политики, и дизайнеры, и поп-звезды. Главный критерий - наличие здорового чувства юмора. Без него - никак, так как гостей здесь встречают не хлебом-солью, а розыгрышами и подколками, а те в свою очередь участвуют в скетчах и исполняют музыкальные или танцевальные номера.

Содержание

Зеленский проводит перекличку в Верховной Раде
Как провести проститутку через консьержа
MARUV - Премьера Нового клипа 2019 - ПАРОДИЯ
Парубий передаёт дела Разумкову
Зачем Зеленский встречался с Томом Крузом
Жена выпытывает у Зеленского государственные тайны
Кличко vs Кива на шоу Самый умный - номер на бис
Первое свидание Варвары Кошевой. Папа следит за дочкой
Старі Фотографії - Финальная песня
Качество: WEBRip
Видео: XviD build 73, 720x400 (16:9), 25.000 fps, 1641 Kbps (0.228 bit/pixel)
Аудио: 48.0 kHz, AC3, 2/0 ch, 192 kbps
Продолжительность: 01:24:30
Перевод: Не требуется
Cубтитры: нет

Скриншоты

MediaInfo

General
Complete name : D:RazdachiVechernij.Kvartal.121.WEBRip.GeneralFilm.avi
Format : AVI
Format/Info : Audio Video Interleave
File size : 1.09 GiB
Duration : 1 h 24 min
Overall bit rate : 1 843 kb/s
Writing application : VirtualDubMod 1.5.10.3 | www.virtualdub-fr.org || (build 2550/release)
Writing library : VirtualDubMod build 2550/release
Video
ID : 0
Format : MPEG-4 Visual
Format profile : Advanced [email protected]
Format settings : BVOP1 / Custom Matrix
Format settings, BVOP : 1
Format settings, QPel : No
Format settings, GMC : No warppoints
Format settings, Matrix : Custom
Codec ID : XVID
Codec ID/Hint : XviD
Duration : 1 h 24 min
Bit rate : 1 641 kb/s
Width : 720 pixels
Height : 400 pixels
Display aspect ratio : 16:9
Frame rate : 25.000 FPS
Color space : YUV
Chroma subsampling : 4:2:0
Bit depth : 8 bits
Scan type : Progressive
Compression mode : Lossy
Bits/(Pixel*Frame) : 0.228
Stream size : 992 MiB (89%)
Writing library : XviD 73
Audio
ID : 1
Format : AC-3
Format/Info : Audio Coding 3
Commercial name : Dolby Digital
Codec ID : 2000
Duration : 1 h 24 min
Bit rate mode : Constant
Bit rate : 192 kb/s
Channel(s) : 2 channels
Channel layout : L R
Sampling rate : 48.0 kHz
Frame rate : 31.250 FPS (1536 SPF)
Bit depth : 16 bits
Compression mode : Lossy
Stream size : 116 MiB (10%)
Alignment : Split accross interleaves
Interleave, duration : 40 ms (1.00 video frame)
Interleave, preload duratio : 500 ms
Service kind : Complete Main
Релиз от:
 

Current time is: 08-Dec 03:05

All times are UTC + 3