Search found 500 matches

Author Message

RelizMAN

Post Yesterday 11:05

[Quote]

Информация о фильме
Название: Одиночество по-американски
Оригинальное название: American Loneliness
Год выхода: 2014
Жанр: Документальный, путешествия, природа, флора, фауна
Режиссер: Матье Ле Лей
О фильме:
Путешествие в одно из самых привлекательных мест на планете — американский Запад. Путешествие состояло из шести недель альпинизма. От снежных бурь в Йеллоустоуне до Дикого Тихоокеанского побережья, это история — поиск свободы в окружении природы.

Страна: Франция
Студия: Montagne TV Mona Lisa Production
Продолжительность: 00:53:03
Перевод: Профессиональный (двухголосый закадровый) SDI Media
Файл
Кодек: AVC/H.264
Качество: HDTV 1080i
Видео: 1920x1080 (16:9), 25 fps, AVC (H.264), [email protected], 8321 kbps, 0.161 bit/pixel
Звук: Русский 48 kHz, MPEG Layer 2, 2 ch, ~192.00 kbps avg
Семпл

MediaInfo

Complete name : M:ТоррентыОдиночество по-американски.ts
Format : MPEG-TS
File size : 3.32 GiB
Duration : 53 min 3 s
Overall bit rate mode : Variable
Overall bit rate : 8 958 kb/s
Video
ID : 4105 (0x1009)
Menu ID : 25002 (0x61AA)
Format : AVC
Format/Info : Advanced Video Codec
Format profile : [email protected]
Format settings : CABAC / 3 Ref Frames
Format settings, CABAC : Yes
Format settings, Reference : 3 frames
Format settings, GOP : M=4, N=32
Codec ID : 27
Duration : 53 min 3 s
Bit rate : 8 321 kb/s
Width : 1 920 pixels
Height : 1 080 pixels
Display aspect ratio : 16:9
Frame rate : 25.000 FPS
Standard : Component
Color space : YUV
Chroma subsampling : 4:2:0
Bit depth : 8 bits
Scan type : Interlaced
Scan type, store method : Separated fields
Scan order : Top Field First
Bits/(Pixel*Frame) : 0.161
Stream size : 3.08 GiB (93%)
Color range : Limited
Color primaries : BT.709
Transfer characteristics : BT.709
Matrix coefficients : BT.709
Audio
ID : 4106 (0x100A)
Menu ID : 25002 (0x61AA)
Format : MPEG Audio
Format version : Version 1
Format profile : Layer 2
Codec ID : 3
Duration : 53 min 3 s
Bit rate mode : Constant
Bit rate : 192 kb/s
Channel(s) : 2 channels
Sampling rate : 48.0 kHz
Frame rate : 41.667 FPS (1152 SPF)
Compression mode : Lossy
Delay relative to video : -80 ms
Stream size : 72.9 MiB (2%)
Language : Russian

Скриншоты

Релиз от: kyba

RelizMAN

Post Yesterday 00:50

[Quote]

Информация о фильме
Название: Дикая природа Португалии
Оригинальное название: Wild Portugal
Год выхода: 2019
Жанр: Документальный, природа, флора, фауна
Режиссер: Кристиан Баумейстер
О фильме:
Представьте себе береговую линию, усыпанную валунами, отдельно стоящие горные вершины и золотистые прерии. Стаи волков здесь выслеживают стада диких мустангов, хищники, умеющие лазить по деревьям, держат в страхе всех обитателей леса, а высоко в небе, прямо над грохочущим прибоем, пара аистов пытается вырастить свое потомство прямо на возвышающейся вверх скале.
Страна: Германия
Студия: Light & Shadow GmbH
Продолжительность: 00:43:59
Перевод: Профессиональный (одноголосый закадровый) Велес
Файл
Кодек: AVC/H.264
Качество: HDTV 1080i
Видео: 1920x1080 (16:9), 25 fps, AVC (H.264), [email protected], 6982 kbps, 0.135 bit/pixel
Звук:
Русский 48 kHz, MPEG Layer 2, 2 ch, ~192.00 kbps avg
Английский 48 kHz, MPEG Layer 2, 2 ch, ~192.00 kbps avg
Семпл

MediaInfo

Complete name : F:НаладкиДикая природа Португалии.ts
Format : MPEG-TS
File size : 2.36 GiB
Duration : 43 min 59 s
Overall bit rate mode : Variable
Overall bit rate : 7 685 kb/s
Video
ID : 308 (0x134)
Menu ID : 26008 (0x6598)
Format : AVC
Format/Info : Advanced Video Codec
Format profile : [email protected]
Format settings : CABAC / 4 Ref Frames
Format settings, CABAC : Yes
Format settings, Reference : 4 frames
Codec ID : 27
Duration : 43 min 59 s
Bit rate : 6 982 kb/s
Width : 1 920 pixels
Height : 1 080 pixels
Display aspect ratio : 16:9
Frame rate : 25.000 FPS
Standard : Component
Color space : YUV
Chroma subsampling : 4:2:0
Bit depth : 8 bits
Scan type : Interlaced
Scan type, store method : Separated fields
Scan order : Top Field First
Bits/(Pixel*Frame) : 0.135
Stream size : 2.15 GiB (91%)
Color range : Limited
Color primaries : BT.709
Transfer characteristics : BT.709
Matrix coefficients : BT.709
Audio #1
ID : 408 (0x198)
Menu ID : 26008 (0x6598)
Format : MPEG Audio
Format version : Version 1
Format profile : Layer 2
Codec ID : 3
Duration : 43 min 59 s
Bit rate mode : Constant
Bit rate : 192 kb/s
Channel(s) : 2 channels
Sampling rate : 48.0 kHz
Frame rate : 41.667 FPS (1152 SPF)
Compression mode : Lossy
Stream size : 60.4 MiB (2%)
Language : Russian
Audio #2
ID : 428 (0x1AC)
Menu ID : 26008 (0x6598)
Format : MPEG Audio
Format version : Version 1
Format profile : Layer 2
Codec ID : 3
Duration : 43 min 59 s
Bit rate mode : Constant
Bit rate : 128 kb/s
Channel(s) : 2 channels
Sampling rate : 48.0 kHz
Frame rate : 41.667 FPS (1152 SPF)
Compression mode : Lossy
Stream size : 40.3 MiB (2%)
Language : English
Text
ID : 508 (0x1FC)
Menu ID : 26008 (0x6598)
Format : DVB Subtitle
Codec ID : 6
Duration : 43 min 59 s
Delay relative to video : 300 ms
Language : Russian

Скриншоты

Релиз от: kyba

Vi$itReal

Post 10-Feb-2020 14:35

[Quote]

Название: Тикл
Оригинальное название: Tickle
Год выпуска: 2013
Жанр: Документальный, познавательный, криминал, расследование
Выпущено: США, Magilla Entertainment
В ролях: Стив Тикл, Мэтью Пабо, Дэн Тейлор
О фильме: Изготовление самогона-это американская семейная традиция, в которой отличительные рецепты и приемы передаются из поколения в поколение. Каждый рецепт отличается и может действовать как отпечаток пальца, чтобы определить, кто создал самогон, люди в Аппалачах не любят, чтобы их самогон заимствовался на постоянной основе. Теперь, когда у Тикла есть новая заначка самогона, ему нужен способ реализовать ее, не попасться. Он обращается за помощью к своим самым доверенным друзьям, Говарду и МОУ, поскольку находит новые способы замести следы и переместить свою недавно приобретенную партию самогона. Начав с витрины магазина, предназначенной для отвлечения внимания незаконного бизнеса по распространению его недавно приобретенного самогона, Тикл должна оставаться осторожным, чтобы уклониться от властей, шпионящих горожан и, самое главное, истинных владельцев, которые могут или не могут иметь серьезные криминальные связи. Поскольку Тикл пускается в серию безумных планов и возмутительных приключений, он просто может узнать, что, когда дело доходит до самогона, украсть его легко, а вот реализовать не так то просто.

Официальный сайт
Качество: HDTVRip
Видео: MPEG-4 AVC, ~ 4000 Кбит/с, 1280x720
Аудио: Русский (MP2, 2 ch, 192 Кбит/с)
Продолжительность: 2 x ~ 00:22:00
Перевод: Профессиональный (одноголосый, закадровый)

[color=blue]Скриншоты[/color]


[/img]

[color=blue]Название серий[/color]

01. Богатство из перегонного куба.
02. Как припрятать выпивку?
03.
04.
05.
06.
07.
08.
09.
10.
11.
12.

[color=blue]Внимание! Раздача ведётся путём добавления новых серий![/color]

Внимание! Раздача ведётся путём добавления новых серий; при каждом добавлении создfётся новый торрент. Чтобы начать докачку новой серии, пользователям необходимо сделать следующее: (1) остановить скачивание, (2) удалить старый торрент у себя из клиента (старые серии удалять не надо), (3) скачать новый торрент и запустить его у себя в клиенте вместо старого, при этом указать клиенту путь в старую папку куда и должно происходить скачивание новых серий.
Ваш клиент при этом должен произвести хеширование (проверку) старой папки (если не производит сам - помогите ему сделать это), и будет докачивать только те серии которых у вас ещё нет. Старые серии при этом не удаляются, а продолжают раздаваться!
Eсли вы уже удалили старые серии, то предотвратить повторную закачку старых серий можно, отжав галочку в соответсвующих местах при запуске нового торрента.
Благодарю за постер ValkiriaGF
Релиз от:

RelizMAN

Post 10-Feb-2020 00:50

[Quote]

Информация о фильме
Название: Настоящая чёрная пантера
Оригинальное название: The Real Black Panther
Год выхода: 2020
Жанр: Документальный, природа, флора, фауна
Режиссер: Джон Коллум
О фильме:
В лесах вдоль реки Кабини в Индии у леопардов появился новый соперник, который смело вышел с ними на тропу войны. Это история Саи, настоящей чёрной пантеры, пришедшей в эти места, чтобы захватить власть над этой территорией.
Страна: США
Студия: SUMBIO STUDIOS NATIONAL GEOGRAPHIC
Продолжительность: ~00:43:58
Перевод: Профессиональный (одноголосый закадровый) Велес
Файл
Кодек: AVC/H.264
Качество: HDTV 1080i
Видео: 1920x1080 (16:9), 25 fps, AVC (H.264), [email protected], 5758 kbps, 0.111 bit/pixel
Звук:
Русский 48 kHz, MPEG Layer 2, 2 ch, ~192.00 kbps avg
Английский 48 kHz, MPEG Layer 2, 2 ch, ~192.00 kbps avg
Семпл

MediaInfo

Complete name : F:НаладкиНастоящая черная пантера.ts
Format : MPEG-TS
File size : 1.96 GiB
Duration : 43 min 58 s
Overall bit rate mode : Variable
Overall bit rate : 6 397 kb/s
Video
ID : 308 (0x134)
Menu ID : 26008 (0x6598)
Format : AVC
Format/Info : Advanced Video Codec
Format profile : [email protected]
Format settings : CABAC / 4 Ref Frames
Format settings, CABAC : Yes
Format settings, Reference : 4 frames
Format settings, GOP : M=4, N=28
Codec ID : 27
Duration : 43 min 57 s
Bit rate : 5 758 kb/s
Width : 1 920 pixels
Height : 1 080 pixels
Display aspect ratio : 16:9
Frame rate : 25.000 FPS
Standard : Component
Color space : YUV
Chroma subsampling : 4:2:0
Bit depth : 8 bits
Scan type : Interlaced
Scan type, store method : Separated fields
Scan order : Top Field First
Bits/(Pixel*Frame) : 0.111
Stream size : 1.77 GiB (90%)
Color range : Limited
Color primaries : BT.709
Transfer characteristics : BT.709
Matrix coefficients : BT.709
Audio #1
ID : 408 (0x198)
Menu ID : 26008 (0x6598)
Format : MPEG Audio
Format version : Version 1
Format profile : Layer 2
Codec ID : 3
Duration : 43 min 58 s
Bit rate mode : Constant
Bit rate : 192 kb/s
Channel(s) : 2 channels
Sampling rate : 48.0 kHz
Frame rate : 41.667 FPS (1152 SPF)
Compression mode : Lossy
Delay relative to video : -120 ms
Stream size : 60.4 MiB (3%)
Language : Russian
Audio #2
ID : 428 (0x1AC)
Menu ID : 26008 (0x6598)
Format : MPEG Audio
Format version : Version 1
Format profile : Layer 2
Codec ID : 3
Duration : 43 min 58 s
Bit rate mode : Constant
Bit rate : 128 kb/s
Channel(s) : 2 channels
Sampling rate : 48.0 kHz
Frame rate : 41.667 FPS (1152 SPF)
Compression mode : Lossy
Delay relative to video : -120 ms
Stream size : 40.3 MiB (2%)
Language : English
Text
ID : 508 (0x1FC)
Menu ID : 26008 (0x6598)
Format : DVB Subtitle
Codec ID : 6
Duration : 43 min 56 s
Delay relative to video : 100 ms
Language : Russian

Скриншоты

Релиз от: kyba

RelizMAN

Post 09-Feb-2020 03:35

[Quote]

Информация о фильме
Название: Холодные острова
Оригинальное название: Frozen Islands
Год выхода: 2020
Жанр: Документальный, природа, флора, фауна
Режиссер: Стефания Мюллер
О фильме:
В южной части Атлантического и Индийского океанов находятся острова Южная Джорджия, Буве и Крозе, которые являются домом для одних из самых крупных в мире популяций тюленей и пингвинов. Этим животным, великолепно адаптировавшимся к жизни в холодном океане, необходимо выходить на берег для того, чтобы вырастить свое потомство, и за ними неотступно следуют зубатые касатки.
Страна: Южная Африка
Студия: OBSESSIVELY CREATIVE CC WILDBEAR ENTERTAINMENT NATIONAL GEOGRAPHIC
Продолжительность: 2 x ~ 00:43:58
Перевод: Профессиональный (одноголосый закадровый) Велес
Файл
Кодек: AVC/H.264
Качество: HDTV 1080i
Видео: 1920x1080 (16:9), 25 fps, AVC (H.264), [email protected], 6078 kbps, 0.117 bit/pixel
Звук:
Русский 48 kHz, MPEG Layer 2, 2 ch, ~192.00 kbps avg
Английский 48 kHz, MPEG Layer 2, 2 ch, ~192.00 kbps avg
Семпл

MediaInfo

Complete name : F:НаладкиХолодные острова2. Серия 2.ts
Format : MPEG-TS
File size : 2.12 GiB
Duration : 43 min 58 s
Overall bit rate mode : Variable
Overall bit rate : 6 903 kb/s
Video
ID : 308 (0x134)
Menu ID : 26008 (0x6598)
Format : AVC
Format/Info : Advanced Video Codec
Format profile : [email protected]
Format settings : CABAC / 4 Ref Frames
Format settings, CABAC : Yes
Format settings, Reference : 4 frames
Codec ID : 27
Duration : 43 min 58 s
Bit rate : 6 239 kb/s
Width : 1 920 pixels
Height : 1 080 pixels
Display aspect ratio : 16:9
Frame rate : 25.000 FPS
Standard : Component
Color space : YUV
Chroma subsampling : 4:2:0
Bit depth : 8 bits
Scan type : Interlaced
Scan type, store method : Separated fields
Scan order : Top Field First
Bits/(Pixel*Frame) : 0.120
Stream size : 1.92 GiB (90%)
Color range : Limited
Color primaries : BT.709
Transfer characteristics : BT.709
Matrix coefficients : BT.709
Audio #1
ID : 408 (0x198)
Menu ID : 26008 (0x6598)
Format : MPEG Audio
Format version : Version 1
Format profile : Layer 2
Codec ID : 3
Duration : 43 min 58 s
Bit rate mode : Constant
Bit rate : 192 kb/s
Channel(s) : 2 channels
Sampling rate : 48.0 kHz
Frame rate : 41.667 FPS (1152 SPF)
Compression mode : Lossy
Stream size : 60.4 MiB (3%)
Language : Russian
Audio #2
ID : 428 (0x1AC)
Menu ID : 26008 (0x6598)
Format : MPEG Audio
Format version : Version 1
Format profile : Layer 2
Codec ID : 3
Duration : 43 min 58 s
Bit rate mode : Constant
Bit rate : 128 kb/s
Channel(s) : 2 channels
Sampling rate : 48.0 kHz
Frame rate : 41.667 FPS (1152 SPF)
Compression mode : Lossy
Stream size : 40.3 MiB (2%)
Language : English
Text
ID : 508 (0x1FC)
Menu ID : 26008 (0x6598)
Format : DVB Subtitle
Codec ID : 6
Duration : 43 min 56 s
Delay relative to video : 1 s 340 ms
Language : Russian

Скриншоты

Релиз от: kyba

RelizMAN

Post 03-Feb-2020 23:50

[Quote]

Информация о фильме
Название: Дикие кошки Индии
Оригинальное название: Wild Cats of India
Год выхода: 2019
Жанр: Документальный, природа, флора, фауна
Режиссер: Сандеш Кадур
О фильме:
Дикие кошки...За долгие годы эволюции они выработали молниеносные рефлексы, взрывную мышечную силу и исключительную чувствительность. У них есть все качества сверх хищников. В Индии диких кошек можно встретить повсюду, от снежных склонов Гималаев до густых джунглей Западных Гатов.
Страна: Индия
Студия: National Geographic
Продолжительность: 00:43:58
Перевод: Профессиональный (одноголосый закадровый) Велес
Файл
Кодек: AVC/H.264
Качество: HDTV 1080i
Видео: 1920x1080 (16:9), 25 fps, AVC (H.264), [email protected], 6205 kbps, 0.20 bit/pixel
Звук:
Русский 48 kHz, MPEG Layer 2, 2 ch, ~192.00 kbps avg
Английский 48 kHz, MPEG Layer 2, 2 ch, ~192.00 kbps avg
Семпл

Содержание

01. Королевство большой кошки / Big Cat Kingdom
В этой серии вы увидите, как снежный барс охраняет свои охотничьи угодья от жестоких рыжих лис, а также познакомитесь с жизнью последних оставшихся в живых азиатских львов, обитающих в национальном парке Гир.
02. Мастера камуфляжа / Masters of Disguise
Присоединяйтесь к оператору дикой природы Сандешу Кадуру, который путешествует по индийскому субконтиненту в поисках разгадки тайн мало известных представителей рода кошачьих - невероятных маленьких кошек Индии!

Скриншоты

Релиз от: kyba

RelizMAN

Post 02-Feb-2020 21:50

[Quote]

Информация о фильме
Название: Эпоха кино
Оригинальное название: The Movies
Год выхода: 2019
Жанр: Документальный, искусство, кино
Режиссер: Том Хэнкс, Гари Гоэцман, Марк Херцог
В ролях: Пол Томас Андерсон, Брэд Бёрд, Алонзо Дюральд, Нил Гэблер, Рени Грэхэм, Бен Манкевич, Эми Николсон, Кеннет Туран, Эдгар Райт, Алек Болдуин
О фильме:
Все, что вы хотели знать о своих любимых фильмах, но боялись спросить. Документальный сериал представляет собой насыщенную уникальными архивами историю кинематографа. От "Нового Голливуда" до наших дней - все важные этапы задокументированы и осмыслены. Главные режиссеры планеты, основополагающие фильмы и хроники их создания: этот проект - отличный подарок для тех, кто всегда хотел знать, что творится за кадром великих картин.

Страна: США
Студия: CNN, HBO Films
Продолжительность: 6 x ~ 01:20:42
Перевод: Профессиональный (двухголосый закадровый)
Файл
Кодек: AVC/H.264
Качество: HDTV 1080i
Видео: 1920x1080 (16:9), 25 fps, AVC (H.264), [email protected], 5325 kbps, 25fps, 0.103 bit/pixel
Звук:
Русский 48.0 KHz, AC3 6 ch (Front: L C R, Side: L R, LFE) ch, ~384.00 kbps avg
Английский 48 kHz, MPEG Layer 2, 2 ch, ~192.00 kbps avg
Семпл

Содержание

01. Восьмидесятые / The Eighties
В восьмидесятых на экране взрываются такие звезды, как Том Круз, Мерил Стрип и Эдди Мерфи. Иностранцы, путешественники во времени, призраки и дорожные воины делят киноплекс с проблемными подростками, избитыми боксерами, классическими композиторами и профессиональными девушками.
02. Девяностые / The Nineties
Поскольку Америка влюбляется в таких звезд, как Джулия Робертс, Дензел Вашингтон и Уилл Смит, такие мастера, как Стивен Спилберг, Спайк Ли, Мартин Скорсезе, Джонатан Демме, Джейн Кэмпион и братья Коэн, руководят некоторыми из своих самых любимых работ.
03. С двухтысячного до нашего времени / The 2000s to Today
С началом нового столетия любимые книги и крестоносцы-комиксы становятся кассовым золотом, мюзиклы и мультфильмы завоевывают зрителей и Оскаров, грубые комедии и эпические драмы демонстрируют крупнейших звезд Голливуда, и новое поколение кинематографистов из разных слоев общества находит свой голос.
04. Семидесятые / The Seventies
Режиссеры становятся хозяевами медиума, когда Спилберг, Коппола, Скорсезе, Лукас и другие режиссеры создают Новый Голливуд, который продвигает кинематографическую сферу на вершину, точно так же, как новое поколение кинозвезд, таких как Роберт Де Ниро, Джек Николсон и Пэм Гриер лайт вверх по экрану.
05. Шестидесятые / The Sixties
Шестидесятые - это десятилетие перемен за кадром и дальше. Классические мюзиклы и эпопеи с участием знаменитостей, таких как Джули Эндрюс, Одри Хепберн и Элизабет Тейлор, создают место для значимых шедевров от таких режиссеров, как Кубрик, Хичкок и Николс, и таких звезд, как Редфорд, Ньюман и Пуатье.
06. Золотой век / The Golden Age
С 1930-х по 1950-е годы голливудские киностудии создают самые знаковые и любимые фильмы всех времен, и Америка влюбляется в эти фильмы, когда такие звезды, как Боги, Брандо и Мэрилин, стали иконами.
Релиз от: kyba

RelizMAN

Post 02-Feb-2020 20:05

[Quote]

Информация о фильме
Название: От корня до кроны: тайны деревьев
Оригинальное название: Rooted
Год выхода: 2018
Жанр: Документальный, природа, флора, фауна
Режиссер: Баренд Ван Дер Ватт
О фильме:
Потрясающее путешествие по Южной Африке. Авторы раскрывают тайны пяти самых фантастических деревьев этого континента. Фильм также рассказывает об уникальных животных, насекомых, птицах и элементах окружающей среды, которые обрели дом в сени этих величественных деревьев.

Страна: ЮАР
Студия: Frameline Film and Television, FrogFoot Films and Graphics
Продолжительность: 5 x ~ 00:45:58
Перевод: Профессиональный (одноголосый закадровый) Видеофильм ТВ
Файл
Кодек: AVC/H.264
Качество: HDTV 1080i
Видео: 1920x1080 (16:9), 25 fps, AVC (H.264), [email protected], 7811 kbps, 0.151 bit/pixel
Звук: Русский 48 kHz, MPEG Layer 2, 2 ch, ~192.00 kbps avg
Семпл

Содержание

01. История акации / Memoirs of Acacia
Через волнистые дюны, на ветреных лугах южного Калахари, среди кустов терновника возвышается величественный Верблюд. Дерево простирает свои ветви к небесам, словно обнимая пейзаж вокруг него.
02. Сладкое искушение / Sweet Seduction
На краю водных путей в заповеднике Селинда растет одно из более экзотических африканских деревьев - могучее колбасное дерево. Дерево соблазняет и соблазняет множество диких животных, от птиц и насекомых, до гораздо более крупных животных, таких как африканский слон.
03. Гиганты / The Giant
В пышном тропическом лесу, окружающем горы Саутпансберг в Южной Африке, мы встречаемся с одним из самых впечатляющих гигантов в мире, 600-летней Оутеникой Йелвуд.
04. Фикус-камнелом / The Rock Splitter
Засушливая, каменистая местность в заповеднике Гёгап горит под жарким африканским солнцем. Но не все в пересохшем ландшафте увядает и уныло, на краю скалистого обнажения огромное дерево может похвастаться большими кожистыми листьями в форме сердца.
05. Полая сердцевина / The Hollow Heart
Это невероятная история о дереве, которое существует уже восемьсот лет - оно может противостоять самым суровым условиям - и которое больше всего любят насекомые, птицы и животные, чем любое другое - огромный баобаб, укоренившийся в саванне дикого заповедника Малилангве в южной части Зимбабве.
Релиз от: kyba

RelizMAN

Post 31-Jan-2020 18:50

[Quote]

Информация о фильме
Название: Эпидемия: Как предотвратить распространение
Оригинальное название: Pandemic: How to Prevent an Outbreak
Год выхода: 2020
Жанр: Документальный
Режиссер: Даг Шульц
В ролях: Syra Madad
О фильме:
Шестисерийный документальный фильм — о том, что может случиться с человечеством, если пандемия гриппа 2018 года не будет купирована в кратчайшие сроки.
В этом документальном фильме вы познакомитесь с героями на передовой борьбы с гриппом и узнаете об их усилиях остановить очередную глобальную вспышку.
Официальный сайт
Страна: США
Студия: Netflix
Продолжительность: ~ 00:50:00
Перевод: Субтитры
Файл
Кодек: H.264
Качество: WEB-DL 1080p
Видео: 1920x1080,~ 3000 Кбит/с, 23.976 fps
Звук: Английский E-AC3, 6ch, 640 kb/s
Субтитры: English, Spanish, Greek, French, Norwegian, Czech, Italian, Portuguese, Dutch, Turkish, Swedish, Indonesian, Finnish, Polish, German, Russian, Danish

Скриншоты


Vi$itReal

Post 29-Jan-2020 02:50

[Quote]

Название: Дальнобойщик в Америке
Оригинальное название: Ciezarowka przez stany
Год выпуска: 2020
Жанр: Документальный, познавательный, путешествия
Выпущено: Польша, Discovery Channel
В ролях: Давид Андрес
О фильме:Жизнь профессионального водителя грузовой фуры далеко не сказка, но дальнобойщик Давид Андрес с большим энтузиазмом преодолевает тысячи километров по дорогам Америки
Качество: HDTVRip 720p
Видео: MPEG-4 AVC, ~ 4000 Кбит/с, 1280x720
Аудио: MP2, 2 ch, 192 Кбит/с
Продолжительность: 2 x ~ 00:32:00
Перевод: Профессиональный (одноголосый, закадровый)
Субтитры: Польские на американскую речь

[color=blue]Скриншоты[/color]


[color=blue]Внимание! Раздача ведётся путём добавления новых серий![/color]

Внимание! Раздача ведётся путём добавления новых серий; при каждом добавлении создfётся новый торрент. Чтобы начать докачку новой серии, пользователям необходимо сделать следующее: (1) остановить скачивание, (2) удалить старый торрент у себя из клиента (старые серии удалять не надо), (3) скачать новый торрент и запустить его у себя в клиенте вместо старого, при этом указать клиенту путь в старую папку куда и должно происходить скачивание новых серий.
Ваш клиент при этом должен произвести хеширование (проверку) старой папки (если не производит сам - помогите ему сделать это), и будет докачивать только те серии которых у вас ещё нет. Старые серии при этом не удаляются, а продолжают раздаваться!
Eсли вы уже удалили старые серии, то предотвратить повторную закачку старых серий можно, отжав галочку в соответсвующих местах при запуске нового торрента.
Релиз от:

RelizMAN

Post 26-Jan-2020 23:35

[Quote]

Информация о фильме
Название: Размер имеет значение
Оригинальное название: Size Matters
Год выхода: 2017
Жанр: Документальный, научно-популярный
Режиссер: Мэтью Томпсон
О фильме:
Почему насекомые такие маленькие, а планеты такие большие? Почему Земля не размером с Юпитер, и почему люди не размером с мышей? Авторы расскажут, почему размер имеет значение, когда мы говорим о нашей вселенной.
Официальный сайт
Страна: Великобритания
Студия: Screen Glue Ltd
Продолжительность: 2 x ~ 00:52:00
Перевод: Профессиональный (одноголосый закадровый) Видеофильм ТВ
Файл
Кодек: AVC/H.264
Качество: HDTV 1080i
Видео: 1920x1080 (16:9), 25 fps, AVC (H.264), [email protected], 7382 kbps, 0.142 bit/pixel
Звук: Русский 48 kHz, MPEG Layer 2, 2 ch, ~192.00 kbps avg
Семпл

Содержание

01. Больше лучше? / Is Bigger Better?
В этой серии мы обратимся к крупным объектам: увеличим Землю и Солнце, встретимся с собакой величиной с динозавра, посмотрим на гигантскую тыкву и пообщаемся с самым высоким человеком в мире.
02. Есть ли в малом своя прелесть? / Is smail Beautiful?
В этой серии мы поговорим о маленьких объектах: уменьшим Землю в два раза, посмотрим, что станет с человеком, если он сожмётся до размеров осы, а также обсудим, почему маленькие существа владеют сверхспособностями.

Скриншоты

Релиз от: kyba

RelizMAN

Post 26-Jan-2020 17:50

[Quote]

Информация о фильме
Название: Семь миров, одна планета
Оригинальное название: Seven Worlds, One Planet
Год выхода: 2019
Жанр: документальный, природа, флора, фауна
Режиссер: Джилз Баджер, Чадден Хантер, Эмма Нэппер
В ролях: Дэвид Аттенборо
О фильме: Двести миллионов лет назад Земля сильно отличалась от того, что мы видим сегодня. Она была полностью покрыта морем, которое окружало один единственный супер-континент, называемый Пангеей. А затем... Пангея начала распадаться. В результате образовались знакомые нам семь континентов. Мы увидим, как развивалась жизнь на каждом из них, и как получилось то удивительное, чудесное разнообразие, которое мы видим.
Над сериалом, снятым за 1794 дня, работали более 1500 человек в 41 стране мира.

Страна: Великобритания, Китай, США, Германия, Франция
Студия: BBC Studios, BBC Natural History Unit (NHU)
Продолжительность: ~00:52:00 серия
Перевод: Профессиональный (многоголосный, закадровый) FocusX | Sample
Файл
Качество: BDRip 1080p | Seven.Worlds.One.Planet.S01.1080p.BluRay.x264-SHORTBREHD
Формат: Matroska
Видео: 1920x1080 at 25.000 fps, x264, ~9300 kbps avg
Аудио#1: Russian: 48 kHz, AC3, 3/2 (L,C,R,l,r) + LFE ch, ~640 kbps avg |Многоголосый закадровый, FocusX|
Аудио#2: English: 48 kHz, DTS, 3/2 (L,C,R,l,r) + LFE ch, ~1509 kbps avg
Субтитры: Russian (Full), English (Full, SDH)
***Релиз: Aarny

Список серий

Episode 1: Антарктика
Episode 2: Азия
Episode 3: Южная Америка
Episode 4: Австралия
Episode 5: Европа
Episode 6: Северная Америка
Episode 7: Африка

Encoding settings

cabac=1 / ref=4 / deblock=1:-3:-3 / analyse=0x3:0x113 / me=umh / subme=8 / psy=1 / psy_rd=1.00:0.00 / mixed_ref=1 / me_range=32 / chroma_me=1 / trellis=2 / 8x8dct=1 / cqm=0 / deadzone=21,11 / fast_pskip=1 / chroma_qp_offset=-2 / threads=24 / lookahead_threads=4 / sliced_threads=0 / nr=0 / decimate=1 / interlaced=0 / bluray_compat=0 / constrained_intra=0 / bframes=3 / b_pyramid=2 / b_adapt=2 / b_bias=0 / direct=3 / weightb=1 / open_gop=0 / weightp=2 / keyint=250 / keyint_min=25 / scenecut=40 / intra_refresh=0 / rc_lookahead=50 / rc=2pass / mbtree=1 / bitrate=9263 / ratetol=1.0 / qcomp=0.60 / qpmin=0 / qpmax=69 / qpstep=4 / cplxblur=20.0 / qblur=0.5 / ip_ratio=1.40 / aq=3:0.80

Скриншоты


Vi$itReal

Post 26-Jan-2020 03:35

[Quote]

Информация о фильме
Название: Замки - оплоты силы
Оригинальное название: Castles - Bastions of Power
Год выхода: 2019
Жанр: Документальный, познавательный
Режиссер: Мартин Беккер, Сабина Биер
О фильме:
Замки были оплотом власти. Тем не менее, какова была жизнь за их стенами?
Страна: Германия
Студия: Gruppe 5 Filmproduktion for ZDF, Arte
Продолжительность: 2 x ~ 00:52:09
Перевод: Профессиональный (одноголосый закадровый) SDI Media
Файл
Кодек: AVC/H.264
Качество: HDTVRip 720p
Видео: 1280x720 (16:9), 25 fps, AVC (Н.264), [email protected],1, 4000 kbps avg, 0.174 bit/pixel
Звук:
Русский 48 kHz, AC3 Dolby Digital, 2/0 (L,R) ch, ~160.00 kbps avg
Английский 48 kHz, AC3 Dolby Digital, 2/0 (L,R) ch, ~160.00 kbps avg
Семпл

Содержание

01. Жизнь за стенами европейских замков / Life behind the Walls of Europe’s Castles
В первой части мы расскажем об их развитии, от простейших деревянных укреплений, до замысловатых крепостей и резиденций.
02. Враг у ворот / Enemy at the Gate
Мы изучим военное применение замков с XI по XVI век, пройдя путь от Белой башни в Лондоне до Шато-Гайар в Нормандии, и замков последних европейских рыцарей-разбойников.
Релиз от: kyba

RelizMAN

Post 26-Jan-2020 01:35

[Quote]

СамсараSamsara Год выпуска: 2011
Страна: США
Жанр: документальный, видовой
Продолжительность: 01:42:05
Перевод: Не требуется
Режиссер: Рон Фрике / Ron Fricke
Сценарий: Рон Фрике / Ron Fricke, Марк Магидсон / Mark Magidson
Продюсер: Марк Магидсон / Mark Magidson, Майлс Коннолли / Myles Connolly, Пол Винз / Paul Winze, Дж.С. Эрл / J.C. Earle, Кристофер Рейна / Christopher Reyna
Оператор: Рон Фрике / Ron Fricke
Композитор: Марселло Де Франчиши / Marcello De Francisci, Лиза Джеррард / Lisa Gerrard, Майкл Стернс / Michael Stearns
Описание: Снимавшийся более пяти лет в 25 странах, фильм «Самсара» - новый невербальный документальный жанр от создателей фильма «Baraka»: Рона Фрике и Марка Магидсона. Это один из немногих фильмов за последние 40 лет, отснятых на 70-миллиметровую пленку.
Погрузитесь в полуторачасовое путешествие по самым удивительным местам планеты.
Приготовьтесь к беспрецедентному чувственному опыту.
«Самсара» воссоединила режиссера Рона Фрике и продюсера Марка Магидсона, чьи удостоенные множества наград фильмы «Барака» и «Хронос» были провозглашены уникальным примером сочетания визуального и музыкального искусства.


MPAA: PG-13 - Детям до 13 лет просмотр не желателен
Официальный сайт

Качество: BDRip 1080p
Контейнер: MKV
Видео: AVC, 1920x802 (2.40:1), 10509 kbps, 23,976 fps, 0,285 bpp
Аудио: английский /; AC3 /; 5.1 /; 48 kHz /; 640 kbps /; 16 bit
Навигация по главам: есть

x264

x264 [info]: frame I:818 Avg QP:17.94 size:361686
x264 [info]: frame P:30575 Avg QP:20.01 size:115688
x264 [info]: frame B:115481 Avg QP:21.94 size: 36488

Media Info

General
Unique ID : 194779703331625057040372420601235135533 (0x928934D16BFE9EBDBF6F5E6ACDE85C2D)
Complete name : E:Samsara (2011)BDRip-F.HD.mkv
Format : Matroska
Format version : Version 4 / Version 2
File size : 7.95 GiB
Duration : 1h 42mn
Overall bit rate : 11.2 Mbps
Encoded date : UTC 2010-02-22 21:41:31
Writing application : mkvmerge v5.9.0 ('On The Loose') built on Dec 9 2012 15:37:01
Writing library : libebml v1.3.0 + libmatroska v1.4.0
Video
ID : 1
Format : AVC
Format/Info : Advanced Video Codec
Format profile : [email protected]
Format settings, CABAC : Yes
Format settings, ReFrames : 5 frames
Codec ID : V_MPEG4/ISO/AVC
Duration : 1h 42mn
Bit rate : 10.5 Mbps
Width : 1 920 pixels
Height : 802 pixels
Display aspect ratio : 2.40:1
Frame rate : 23.976 fps
Color space : YUV
Chroma subsampling : 4:2:0
Bit depth : 8 bits
Scan type : Progressive
Bits/(Pixel*Frame) : 0.285
Stream size : 7.34 GiB (92%)
Writing library : x264 core 129 r2230 1cffe9f
Encoding settings : cabac=1 / ref=5 / deblock=1:-3:-3 / analyse=0x3:0x113 / me=umh / subme=10 / psy=1 / psy_rd=1.00:0.05 / mixed_ref=1 / me_range=32 / chroma_me=1 / trellis=2 / 8x8dct=1 / cqm=0 / deadzone=21,11 / fast_pskip=0 / chroma_qp_offset=-3 / threads=6 / lookahead_threads=1 / sliced_threads=0 / nr=0 / decimate=1 / interlaced=0 / bluray_compat=0 / constrained_intra=0 / bframes=9 / b_pyramid=2 / b_adapt=2 / b_bias=0 / direct=3 / weightb=1 / open_gop=0 / weightp=2 / keyint=240 / keyint_min=23 / scenecut=40 / intra_refresh=0 / rc=2pass / mbtree=0 / bitrate=10509 / ratetol=1.0 / qcomp=0.70 / qpmin=10 / qpmax=51 / qpstep=4 / cplxblur=20.0 / qblur=0.5 / ip_ratio=1.40 / pb_ratio=1.30 / aq=2:0.90
Language : English
Default : Yes
Forced : No
Color primaries : BT.709-5, BT.1361, IEC 61966-2-4, SMPTE RP177
Transfer characteristics : BT.709-5, BT.1361
Matrix coefficients : BT.709-5, BT.1361, IEC 61966-2-4 709, SMPTE RP177
Audio
ID : 2
Format : AC-3
Format/Info : Audio Coding 3
Mode extension : CM (complete main)
Codec ID : A_AC3
Duration : 1h 42mn
Bit rate mode : Constant
Bit rate : 640 Kbps
Channel(s) : 6 channels
Channel positions : Front: L C R, Side: L R, LFE
Sampling rate : 48.0 KHz
Bit depth : 16 bits
Compression mode : Lossy
Stream size : 467 MiB (6%)
Language : English
Default : Yes
Forced : No
Menu
00:00:00.000 : en:00:00:00.000
00:01:50.110 : en:00:01:50.110
00:05:13.313 : en:00:05:13.313
00:07:57.643 : en:00:07:57.643
00:12:34.044 : en:00:12:34.044
00:16:06.924 : en:00:16:06.924
00:19:32.087 : en:00:19:32.087
00:24:17.122 : en:00:24:17.122
00:30:33.039 : en:00:30:33.039
00:33:40.226 : en:00:33:40.226
00:36:18.885 : en:00:36:18.885
00:39:56.602 : en:00:39:56.602
00:44:45.182 : en:00:44:45.182
00:47:03.904 : en:00:47:03.904
00:48:45.505 : en:00:48:45.505
00:49:57.202 : en:00:49:57.202
00:55:29.034 : en:00:55:29.034
00:56:44.651 : en:00:56:44.651
01:01:24.597 : en:01:01:24.597
01:03:41.192 : en:01:03:41.192
01:06:39.328 : en:01:06:39.328
01:10:23.636 : en:01:10:23.636
01:13:41.500 : en:01:13:41.500
01:17:03.910 : en:01:17:03.910
01:18:59.234 : en:01:18:59.234
01:22:54.344 : en:01:22:54.344
01:28:11.077 : en:01:28:11.077
01:29:22.523 : en:01:29:22.523
01:32:14.028 : en:01:32:14.028
01:35:27.722 : en:01:35:27.722

Знаете ли Вы, что...

Samsara. Это слово, пришедшее к нам из санскрита, означает “вечно вращающееся колесо жизни” и является для кинематографистов отправной точкой в поисках неуловимых связующих нитей, пронизывающих нашу жизнь.«Самсара» переносит нас на священные земли и в зоны стихийных бедствий, в сердце промышленных объектов и природных чудес. Отказываясь от диалогов и закадрового текста, создатели «Самсары» разрушают наши представления о традиционной документалистике, поощряя нашу собственную интерпретацию, порожденную изображением и музыкой. Наблюдая слияние древности с современностью, переданное через аллегории с двояким смыслом, зритель не заключен в рамки авторских высказываний, а рассуждает самостоятельно, дает волю воображению и задается вопросами, на которые невозможно дать однозначные ответы.
Углубляясь в темы, затронутые в фильмах«Baraka»(1992) и «Chronos» (1985), «Самсара» исследует чудеса нашего мира от обыденного до сверхъестественного, заглядывает в непостижимое, раскрывает человеческую духовность и опыт. Не являясь ни традиционной документальной кинокартиной, ни фильмом о путешествии, «Самсара» принимает форму невербальной управляемой медитации. Через мощные образы фильм освещает связи между человечеством и природой, показывая, как наши жизненные циклы отражаются в ритме планеты.
Создатели фильма подходят к невербальному кинематографу с пониманием, что такой жанр должен быть чем-то большим, чем демонстрация великолепного изображения, сродни гениальным фотографиям, раскрывающим суть предмета, а не только его физическое присутствие.
Фильм «Самсара» был полностью снят на 70-миллиметровую пленку с использованием обоих стандартов частоты кадров в секунду и уникальной камеры, растягивающей кадры во времени. Эта система, разработанная специально для данного проекта, позволяет обнаружить в стандартных и привычных сценах экстраординарные, завораживающие детали. Изображения прошли процесс сканирования с высочайшим разрешением, что сделало кинофильм доступным для демонстрации в цифровом формате 4К, который позволяет насладиться гипнотизирующим видеорядом с беспрецедентной ясностью.
«Самсара»станет образцовым фильмом для демонстрации возможностей нового формата цифровой проекции 4К, формата HD, а также стандартных цифровых и пленочных проекций...

Скриншоты



Релиз от:

RelizMAN

Post 21-Jan-2020 02:05

[Quote]

Информация о фильме
Название: Солнце. Адский огонь в небесах
Оригинальное название: The Sun – Inferno in the Sky
Год выхода: 2018
Жанр: Документальный, научно-популярный, космос
Режиссер: Манфред Христ
О фильме:
Фильм представляет последние разработки в области солнечных исследований и предлагает свежие, неожиданные и даже противоречивые сведения о работе международных ученых, которые углубляются в загадки нашей животворящей звезды.

Страна: Австрия
Студия: Terra Mater Factual Studios
Продолжительность: 00:50:01
Перевод: Профессиональный (двухголосый закадровый) Видеофильм ТВ
Файл
Кодек: AVC/H.264
Качество: HDTV 1080i
Видео: 1920x1080 (16:9), 25 fps, AVC (H.264), [email protected], 7374 kbps, 0.142 bit/pixel
Звук: Русский 48 kHz, MPEG Layer 2, 2 ch, ~192.00 kbps avg
Семпл

MediaInfo

Complete name : F:НаладкиСолнце_ Адский огонь в небесах.ts
Format : MPEG-TS
File size : 2.78 GiB
Duration : 50 min 1 s
Overall bit rate mode : Variable
Overall bit rate : 7 961 kb/s
Video
ID : 1926 (0x786)
Menu ID : 19004 (0x4A3C)
Format : AVC
Format/Info : Advanced Video Codec
Format profile : [email protected]
Format settings : CABAC / 3 Ref Frames
Format settings, CABAC : Yes
Format settings, Reference : 3 frames
Codec ID : 27
Duration : 50 min 1 s
Bit rate : 7 374 kb/s
Width : 1 920 pixels
Height : 1 080 pixels
Display aspect ratio : 16:9
Frame rate : 25.000 FPS
Color space : YUV
Chroma subsampling : 4:2:0
Bit depth : 8 bits
Scan type : Interlaced
Scan type, store method : Separated fields
Scan order : Top Field First
Bits/(Pixel*Frame) : 0.142
Stream size : 2.58 GiB (93%)
Color range : Limited
Color primaries : BT.709
Transfer characteristics : BT.709
Matrix coefficients : BT.709
Audio
ID : 1927 (0x787)
Menu ID : 19004 (0x4A3C)
Format : MPEG Audio
Format version : Version 1
Format profile : Layer 2
Codec ID : 3
Duration : 50 min 1 s
Bit rate mode : Constant
Bit rate : 192 kb/s
Channel(s) : 2 channels
Sampling rate : 48.0 kHz
Frame rate : 41.667 FPS (1152 SPF)
Compression mode : Lossy
Delay relative to video : -40 ms
Stream size : 68.7 MiB (2%)
Language : Russian

Скриншоты

Релиз от: kyba
 

Current time is: 17-Feb 06:27

All times are UTC + 3