Search found 500 matches

Author Message

RelizMAN

Post Yesterday 05:05

[Quote]

Информация о фильме
Название: Зов Космоса
Оригинальное название: The Call of the Cosmos
Год выхода: 2018
Жанр: научно-популярный, космос, астрономия, семейный
Режиссер: Лед Аллен
В ролях: Пол Нельсон, Роберт Джастроу, Энн Гаугер, Уильям Лейн Крейг, Джей Ричардс, Гильельмо Гонзалес
О фильме:
Этот захватывающий фильм начинается перелётом от Земли до края наблюдаемой Вселенной. Затем, в серии эпизодов с великолепной графикой, мы рассмотрим происхождение и структуру космоса, нашу в нём роль, тайны солнечных затмений и полярных сияний. Апогеем будет честное признание агностиком-астрономом сверхъестественного Конструктора. Завершают великолепные виды таинственного космоса сопровождаемые поэзией псалмопевца. В качестве бонуса Вас ждёт красноречивый рассказ о 1-й высадке человека на Луну, во время которой было осуществлён 1-й в истории космический обряд причастия.

Официальный сайт
Страна: США
Студия: Illustra Media
Продолжительность: 01:05:12
Перевод: Любительские 2-голосый
Файл
Кодек: h.264
Качество: HDRip 1080p
Видео: 1920x1080, 6.8 MBit/sec, 29.97 FPS
Звук: AAC, 192 KBit/sec, 44 KHz, Stereo Релиз от: 1-й Креационистский Киевский Астроклуб

Vi$itReal

Post 08-Dec-2019 19:05

[Quote]

Информация о фильме
Название: 24/7 на космической станции
Оригинальное название: 24/7 On a Space Station
Год выхода: 2018
Жанр: Документальный, космос
Режиссер: Томас Риш
О фильме:
Международная космическая станция (МКС) — это, несомненно, самый амбициозный орбитальный проект из всех когда-либо осуществлявшихся на земле. Этот огромный комплекс смонтированных в одно целое конструкций занимает площадь в 9700 квадратных метров, позволяя будущим астронавтам подготовиться к длительному пребыванию в космосе в условиях невесомости, что совершенно необходимо для будущих экспедиций на Марс. Он также представляет возможность жить и работать вместе представителям 16 стран, принимавших участие в сооружении этого стального монстра, весящего почти 400 тонн. Но как инженеры и астронавты умудрились собрать эту конструкцию в космосе? Как она функционирует? Какие источники энергии она использует? Как туда попадает экипаж МКС и как он вовзвращается на землю? Как они едят, спят, чем дышат на борту этой станции? Этот фильм возьмет нас с собой на борт МКС
Страна: США, Франция
Студия: Didier LECLERC, National Geographic
Продолжительность: 00:43:52
Перевод: Профессиональный (одноголосый закадровый) Велес
Файл
Кодек: AVC/H.264
Качество: HDTVRip 720p
Видео: 1280x720 (16:9), 25 fps, AVC (Н.264), [email protected],1, 4000 kbps avg, 0.174 bit/pixel
Звук:
Русский 48 kHz, AC3 Dolby Digital, 2/0 (L,R) ch, ~192.00 kbps avg
Английский 48 kHz, AC3 Dolby Digital, 2/0 (L,R) ch, ~192.00 kbps avg
Семпл

MediaInfo

Complete name : F:НаладкиНовая папка24_7 на космической станции_720p.mkv
Format : Matroska
Format version : Version 4
File size : 1.34 GiB
Duration : 43 min 52 s
Overall bit rate : 4 385 kb/s
Encoded date : UTC 2019-12-08 07:15:41
Writing application : mkvmerge v6.6.0 ('The Edge Of The In Between') built on Dec 1 2013 17:55:00
Writing library : libebml v1.3.0 + libmatroska v1.4.1
Video
ID : 1
Format : AVC
Format/Info : Advanced Video Codec
Format profile : [email protected]
Format settings : CABAC / 9 Ref Frames
Format settings, CABAC : Yes
Format settings, Reference : 9 frames
Codec ID : V_MPEG4/ISO/AVC
Duration : 43 min 52 s
Bit rate : 4 000 kb/s
Width : 1 280 pixels
Height : 720 pixels
Display aspect ratio : 16:9
Frame rate mode : Constant
Frame rate : 25.000 FPS
Color space : YUV
Chroma subsampling : 4:2:0
Bit depth : 8 bits
Scan type : Progressive
Bits/(Pixel*Frame) : 0.174
Stream size : 1.20 GiB (89%)
Writing library : x264 core 157 r2935 545de2f
Encoding settings : cabac=1 / ref=9 / deblock=1:-3:-3 / analyse=0x3:0x133 / me=umh / subme=9 / psy=1 / psy_rd=1.00:0.00 / mixed_ref=1 / me_range=32 / chroma_me=1 / trellis=2 / 8x8dct=1 / cqm=0 / deadzone=21,11 / fast_pskip=1 / chroma_qp_offset=-2 / threads=12 / lookahead_threads=2 / sliced_threads=0 / nr=0 / decimate=0 / interlaced=0 / bluray_compat=0 / constrained_intra=0 / bframes=9 / b_pyramid=2 / b_adapt=2 / b_bias=0 / direct=3 / weightb=1 / open_gop=0 / weightp=2 / keyint=250 / keyint_min=25 / scenecut=40 / intra_refresh=0 / rc_lookahead=50 / rc=2pass / mbtree=1 / bitrate=4000 / ratetol=1.0 / qcomp=0.60 / qpmin=0 / qpmax=69 / qpstep=4 / cplxblur=20.0 / qblur=0.5 / ip_ratio=1.40 / aq=1:1.00
Language : English
Default : Yes
Forced : No
Audio #1
ID : 2
Format : AC-3
Format/Info : Audio Coding 3
Commercial name : Dolby Digital
Codec ID : A_AC3
Duration : 43 min 52 s
Bit rate mode : Constant
Bit rate : 192 kb/s
Channel(s) : 2 channels
Channel layout : L R
Sampling rate : 48.0 kHz
Frame rate : 31.250 FPS (1536 SPF)
Bit depth : 16 bits
Compression mode : Lossy
Stream size : 60.3 MiB (4%)
Language : Russian
Service kind : Complete Main
Default : Yes
Forced : Yes
Audio #2
ID : 3
Format : AC-3
Format/Info : Audio Coding 3
Commercial name : Dolby Digital
Codec ID : A_AC3
Duration : 43 min 52 s
Bit rate mode : Constant
Bit rate : 192 kb/s
Channel(s) : 2 channels
Channel layout : L R
Sampling rate : 48.0 kHz
Frame rate : 31.250 FPS (1536 SPF)
Bit depth : 16 bits
Compression mode : Lossy
Stream size : 60.3 MiB (4%)
Language : English
Service kind : Complete Main
Default : No
Forced : No
Релиз от: kyba

Vi$itReal

Post 08-Dec-2019 19:05

[Quote]

Информация о фильме
Название: Промывка мозгов: Парадокс гендерного равенства
Оригинальное название: Hjernevask
Год выхода: 2010
Жанр: документальный, научно-популярный, семейный
Режиссер: Терже Лервик
В ролях: Геральд Эйа, Жорден Лорентзен, Мартин Аурдал, Ричард Липпа, Саймон Борон-Коэн, Энн Кембел, Торн Дисет, Кетрин Эгеланд и др.
О фильме:
Среди всех стран мира Норвегия считается местом, где наивысший уровень гендерного равенства. Это достигалось на основании убеждения, согласно которому разница между мужчинами и женщинами заключена только разницей в гениталиях и не касается нервной системы. И это решение привело к возникновению известного парадокса.

Официальный сайт
Страна: Норвегия
Студия: NRK1
Продолжительность: 00:32:36
Перевод: любительский 2-голосый закадровый
Файл
Кодек: h.264
Качество: HDRip-720p
Видео: 1280x720, 2.7 MBit/sec, 25 fps
Звук: AAC, 192 KBit/sec, 44 KHz, Stereo

Скриншоты

Релиз от: 1-й Креационистский Киевский Астроклуб

RelizMAN

Post 08-Dec-2019 17:50

[Quote]

Информация о фильме
Название: Фридайвинг на Большом Барьерном рифе
Оригинальное название: Ultimate Freedive: The Great Barrier Reef
Год выхода: 2016
Жанр: Документальный, природа, флора, фауна, фридайвинг
Режиссер: Грег Грейнджер
О фильме:
Марина Казанкова - 2-хкратная чемпионка мира по фридайвингу. Она умеет задерживать дыхание на 7 минут и опускаться на глубину. Ее ждет удивительный мир Большого барьерного рифа: плавание с гигантским групером и китовой акулой, нерест кораллов в полнолуние и водопады легендарного рифа-Сердце.
Страна: Австралия
Студия: Grainger Tv Pty Ltd
Продолжительность: 00:44:57
Перевод: Профессиональный (двухголосый закадровый) Видеопродакшн
Файл
Кодек: AVC/H.264
Качество: HDTV 1080i
Видео: 1920x1080 (16:9), 25 fps, AVC (H.264), [email protected], 9110 kbps, 25fps, 0.176 bit/pixel
Звук: Русский 48.0 KHz, AC3 6 ch (Front: L C R, Side: L R, LFE) ch, ~448.00 kbps avg
Семпл

MediaInfo

Complete name : F:НаладкиФридайвинг на Большом Барьерном рифе.mkv
Format : Matroska
Format version : Version 4
File size : 3.06 GiB
Duration : 44 min 57 s
Overall bit rate : 9 752 kb/s
Encoded date : UTC 2019-12-08 04:20:33
Writing application : mkvmerge v6.6.0 ('The Edge Of The In Between') built on Dec 1 2013 17:55:00
Writing library : libebml v1.3.0 + libmatroska v1.4.1
Video
ID : 1
Format : AVC
Format/Info : Advanced Video Codec
Format profile : [email protected]
Format settings : CABAC / 3 Ref Frames
Format settings, CABAC : Yes
Format settings, Reference : 3 frames
Codec ID : V_MPEG4/ISO/AVC
Duration : 44 min 57 s
Bit rate : 9 110 kb/s
Width : 1 920 pixels
Height : 1 080 pixels
Display aspect ratio : 16:9
Frame rate mode : Constant
Frame rate : 25.000 FPS
Color space : YUV
Chroma subsampling : 4:2:0
Bit depth : 8 bits
Scan type : Interlaced
Scan type, store method : Separated fields
Scan order : Top Field First
Bits/(Pixel*Frame) : 0.176
Stream size : 2.86 GiB (93%)
Default : Yes
Forced : No
Color range : Limited
Color primaries : BT.709
Transfer characteristics : BT.709
Matrix coefficients : BT.709
Audio
ID : 2
Format : AC-3
Format/Info : Audio Coding 3
Commercial name : Dolby Digital
Codec ID : A_AC3
Duration : 44 min 57 s
Bit rate mode : Constant
Bit rate : 448 kb/s
Channel(s) : 6 channels
Channel layout : L R C LFE Ls Rs
Sampling rate : 48.0 kHz
Frame rate : 31.250 FPS (1536 SPF)
Bit depth : 16 bits
Compression mode : Lossy
Stream size : 144 MiB (5%)
Language : Russian
Service kind : Complete Main
Default : Yes
Forced : No
Релиз от: kyba

RelizMAN

Post 08-Dec-2019 17:50

[Quote]

Информация о фильме
Название: Космический фронт. Старейшая астрономия в мире
Оригинальное название: The World's Oldest Astronomy
Год выхода: 2017
Жанр: Документальный, научно-популярный, космос
Режиссер: Кейичи Кондо
О фильме:
Считается, что астрономия возникла в основном в северном полушарии таких цивилизаций, как Месопотамия и Древняя Греция. Однако эта широко распространенная теория сейчас опровергается. Фактически, коренные жители австралийского континента утверждают, что являются самыми старыми астрономами в мире. Около 5000 лет назад аборигены, у которых не было письменности, точно измерили орбиту Солнца гигантскими скалами, изучили положение созвездий и запомнили маршруты путешествий для торговли. Эти так называемые звездные карты соответствуют основным дорогам сегодняшнего дня. Этот эпизод углубляется в астрономию аборигенов, которая была разработана для выживания в суровых условиях, отличающихся крайне засушливыми районами, неплодородной почвой и отсутствием растений, пригодных для сельского хозяйства.

Страна: Япония
Студия: NHK
Продолжительность: 00:48:56
Перевод: Профессиональный (двухголосый закадровый) SDI Media
Файл
Кодек: AVC/H.264
Качество: HDTV 1080i
Видео: 1920x1080 (16:9), 25 fps, AVC (Н.264), [email protected], 6691 kbps, 25fps, 0.129 bit/pixel
Звук: Русский 48 kHz, MPEG Layer 2, 2 ch, ~192.00 kbps avg
Семпл

MediaInfo

Complete name : F:НаладкиКосмический фронтСтарейшая астрономия в мире.ts
Format : MPEG-TS
File size : 2.48 GiB
Duration : 48 min 56 s
Overall bit rate mode : Variable
Overall bit rate : 7 243 kb/s
Video
ID : 323 (0x143)
Menu ID : 12103 (0x2F47)
Format : AVC
Format/Info : Advanced Video Codec
Format profile : [email protected]
Format settings : CABAC / 4 Ref Frames
Format settings, CABAC : Yes
Format settings, Reference : 4 frames
Codec ID : 27
Duration : 48 min 56 s
Bit rate : 6 691 kb/s
Width : 1 920 pixels
Height : 1 080 pixels
Display aspect ratio : 16:9
Frame rate : 25.000 FPS
Standard : Component
Color space : YUV
Chroma subsampling : 4:2:0
Bit depth : 8 bits
Scan type : Interlaced
Scan type, store method : Separated fields
Scan order : Top Field First
Bits/(Pixel*Frame) : 0.129
Stream size : 2.29 GiB (92%)
Color range : Limited
Color primaries : BT.709
Transfer characteristics : BT.709
Matrix coefficients : BT.709
Audio
ID : 403 (0x193)
Menu ID : 12103 (0x2F47)
Format : MPEG Audio
Format version : Version 1
Format profile : Layer 2
Codec ID : 3
Duration : 48 min 56 s
Bit rate mode : Constant
Bit rate : 192 kb/s
Channel(s) : 2 channels
Sampling rate : 48.0 kHz
Frame rate : 41.667 FPS (1152 SPF)
Compression mode : Lossy
Stream size : 67.2 MiB (3%)
Language : Russian
Релиз от: kyba

RelizMAN

Post 08-Dec-2019 17:50

[Quote]

Информация о фильме
Название: Момент творения
Год выхода: 2019
Жанр: научно-популярный, природа, космос, археология, палеонтология, история
Режиссер: Чванов Андрей
В ролях: Мэри Швейцер, Реймонд Дамадиан, Дмитрий Попов
О фильме:
Цикл захватывающих красочных и коротких видеофильмов, в каждом из которых рассмотрен интересный научный факт из области космоса, природы или истории.

СПИСОК ПЕРЕДАЧ
Взрыв Теории Большого взрыва
А что на скажет про эволюцию Млечный Путь?
Встреча Voyager II с Нептуном
Должно ли Солнце вращаться быстрее?
Космическое доказательство библейской истины
Молодое магнитное поле Меркурия
У теории происхождения жизни новые проблемы
Венерина мухоловка
Двоякодышащая рыба
От рыбы к человеку?
Гекконы и физика
Кости динозавров не всегда полностью окаменевшие
Муравей подрывает идею Естественного отбора
Муравьиная арифметика
Настоящие муравьиные фермы
Говорим по-пчелиному
Прыткие пчёлы или поспешные выводы
Пчёлы-инженеры
Удивительная стрекоза
Целительный поцелуй вампира
Эволюционисты столкнулись с сюрпризом
Все ли учёные — эволюционисты?
Несколько вопросов к эволюционистам
Официальный сайт
Страна: Украина
Студия: 1-й Креационистский Киевский Астроклуб
Продолжительность: 00:39:44
Перевод: Русский оригинал
Файл
Кодек: h.264
Качество: HDRip-1080p
Видео: 1920x1080, 4 MBit/sec, 23-30 fps
Звук: AAC, 192 KBit/sec, 44 KHz, Stereo

RelizMAN

Post 07-Dec-2019 01:50

[Quote]

Информация о фильме
Название: Чудовища в городе
Оригинальное название: Beasts in the City
Год выхода: 2018
Жанр: Документальный, природа, флора, фауна
Режиссер: Сюзанна Люммер
О фильме:
Вы думали, что они были далеко, в дикой природе. Вы не правы, они здесь. Городские захватчики!
Мы создали городские пейзажи, привнесли человеческую культуру в природу, но мы не можем удержать «их». Дикая природа проникает в наши города! Они скользят по нашим городским джунглям, гнездятся на балконе и чувствуют себя как дома в наших дворах. Многие дикие животные не только терпят присутствие людей; они даже привлечены к нам, привлечены нашими привычками. Неважно, двигаются ли они на ногах или крыльях - еноты, попугаи, жирафы и многие другие, многие научились приспосабливаться или, по крайней мере, игнорировать присутствие людей с удивительной изобретательностью.
Страна: Австрия, Германия
Студия: Terra Mater Factual Studios
Продолжительность: 00:49:25
Перевод: Профессиональный (одноголосый закадровый)
Файл
Кодек: AVC/H.264
Качество: HDTV 1080i
Видео: 1920x1080 (16:9), 25 fps, AVC (H.264), [email protected], 7730 kbps, 25fps, 0.149 bit/pixel
Звук: Русский 48 kHz, MPEG Layer 2, 2 ch, ~192.00 kbps avg
Семпл

MediaInfo

Complete name : F:Наладки Чудовища в городе.ts
Format : MPEG-TS
File size : 2.88 GiB
Duration : 49 min 25 s
Overall bit rate mode : Variable
Overall bit rate : 8 335 kb/s
Video
ID : 1926 (0x786)
Menu ID : 19004 (0x4A3C)
Format : AVC
Format/Info : Advanced Video Codec
Format profile : [email protected]
Format settings : CABAC / 3 Ref Frames
Format settings, CABAC : Yes
Format settings, Reference : 3 frames
Codec ID : 27
Duration : 49 min 25 s
Bit rate : 7 730 kb/s
Width : 1 920 pixels
Height : 1 080 pixels
Display aspect ratio : 16:9
Frame rate : 25.000 FPS
Color space : YUV
Chroma subsampling : 4:2:0
Bit depth : 8 bits
Scan type : Interlaced
Scan type, store method : Separated fields
Scan order : Top Field First
Bits/(Pixel*Frame) : 0.149
Stream size : 2.67 GiB (93%)
Color range : Limited
Color primaries : BT.709
Transfer characteristics : BT.709
Matrix coefficients : BT.709
Audio
ID : 1927 (0x787)
Menu ID : 19004 (0x4A3C)
Format : MPEG Audio
Format version : Version 1
Format profile : Layer 2
Codec ID : 3
Duration : 49 min 25 s
Bit rate mode : Constant
Bit rate : 192 kb/s
Channel(s) : 2 channels
Sampling rate : 48.0 kHz
Frame rate : 41.667 FPS (1152 SPF)
Compression mode : Lossy
Delay relative to video : -80 ms
Stream size : 67.9 MiB (2%)
Language : Russian
Релиз от: kyba

RelizMAN

Post 06-Dec-2019 02:35

[Quote]

Информация о фильме
Название: Сила цветов
Оригинальное название: Flower power
Год выхода: 2017
Жанр: Документальный, природа, флора, фауна
Режиссер: Фил Коулз
О фильме:
Они вокруг нас - настолько знакомые, что мы едва замечаем их. Они двигаются настолько медленно, что мы едва ли помним, что они живые. Растения можно назвать фоном нашей жизни. Мы используем их в качестве топлива, строительных материалов, еды, лекарств, не говоря уже о воздухе, которым мы дышим, и все это мы воспринимаем как должное. Люди не смогли бы выжить без растений. Растительный мир существует около 500 миллионов лет, и он помогает сохранить нашу планету живой. Этот фильм расскажет вам про силу цветов!
Страна: Германия
Студия: NDR, Naturfilm
Продолжительность: 00:47:58
Перевод: Профессиональный (одноголосый закадровый)
Файл
Кодек: AVC/H.264
Качество: HDTV 1080i
Видео: 1920x1080 (16:9), 25 fps, AVC (H.264), [email protected], 9544 kbps, 25fps, 0.184 bit/pixel
Звук: Русский 48 kHz, MPEG Layer 2, 2 ch, ~192.00 kbps avg
Семпл

MediaInfo

Complete name : F:НаладкиСила цветов.ts
Format : MPEG-TS
File size : 3.43 GiB
Duration : 47 min 58 s
Overall bit rate mode : Variable
Overall bit rate : 10.2 Mb/s
Video
ID : 1926 (0x786)
Menu ID : 19004 (0x4A3C)
Format : AVC
Format/Info : Advanced Video Codec
Format profile : [email protected]
Format settings : CABAC / 3 Ref Frames
Format settings, CABAC : Yes
Format settings, Reference : 3 frames
Codec ID : 27
Duration : 47 min 58 s
Bit rate : 9 544 kb/s
Width : 1 920 pixels
Height : 1 080 pixels
Display aspect ratio : 16:9
Frame rate : 25.000 FPS
Color space : YUV
Chroma subsampling : 4:2:0
Bit depth : 8 bits
Scan type : Interlaced
Scan type, store method : Separated fields
Scan order : Top Field First
Bits/(Pixel*Frame) : 0.184
Stream size : 3.20 GiB (93%)
Color range : Limited
Color primaries : BT.709
Transfer characteristics : BT.709
Matrix coefficients : BT.709
Audio
ID : 1927 (0x787)
Menu ID : 19004 (0x4A3C)
Format : MPEG Audio
Format version : Version 1
Format profile : Layer 2
Codec ID : 3
Duration : 47 min 58 s
Bit rate mode : Constant
Bit rate : 192 kb/s
Channel(s) : 2 channels
Sampling rate : 48.0 kHz
Frame rate : 41.667 FPS (1152 SPF)
Compression mode : Lossy
Stream size : 65.9 MiB (2%)
Language : Russian
Релиз от: kyba

RelizMAN

Post 06-Dec-2019 02:35

[Quote]

Информация
Название: Акварель
Оригинальное название: Aquarela
Год выхода: 2018
Жанр: Документальный, Видовой, Природа
Режиссер: Виктор Косаковский
Описание: Фильм погружает зрителя в путешествие по преобразующей красоте и необузданной мощи воды, человек по сравнению с которой - ничто. Вода — главный герой фильма, и она показана во всех своих проявлениях и во всем масштабе: от опасных замерзших вод Байкала и страдающего от урагана «Ирма» Майами до величественных ледников Гренландии и мощного водопада Анхель в Венесуэле.

Страна: Великобритания, Германия, Дания, США
Студия: Ma.Ja.De Filmproduktion, Aconite Productions
Продолжительность: 01:29:48
Перевод: Не требуется - озвученных комментариев нет.
Файл
Качество: BDRip 1080p
Видео: AVC/H.264, 1920x804, (2,40:1), ~13.6 Mbps, 23.976 fps
Аудио: AC-3, 6 ch, 640 Kbps
Субтитры: Английские

x264 Log

#NOTES: dirty lines fixed, used BB and FillMargins
----------------------------------------------------------------------------------------------------------------------------
x264 [info]: frame I:611 Avg QP:15.77 size:254363
x264 [info]: frame P:33539 Avg QP:17.55 size:112650
x264 [info]: frame B:95042 Avg QP:19.00 size: 54923
x264 [info]: consecutive B-frames: 5.7% 5.5% 5.9% 29.5% 11.8% 24.5% 4.4% 11.0% 1.0% 0.2% 0.4%
x264 [info]: mb I I16..4: 3.3% 84.9% 11.8%
x264 [info]: mb P I16..4: 0.6% 21.3% 1.7% P16..4: 24.8% 34.0% 14.2% 2.5% 0.2% skip: 0.7%
x264 [info]: mb B I16..4: 0.0% 3.3% 0.4% B16..8: 33.1% 26.2% 5.7% direct:12.8% skip:18.4% L0:40.1% L1:36.7% BI:23.2%
x264 [info]: 8x8 transform intra:89.2% inter:55.4%
x264 [info]: direct mvs spatial:95.8% temporal:4.2%
x264 [info]: coded y,uvDC,uvAC intra: 95.1% 90.1% 72.7% inter: 50.1% 45.6% 22.8%
x264 [info]: i16 v,h,dc,p: 11% 9% 8% 71%
x264 [info]: i8 v,h,dc,ddl,ddr,vr,hd,vl,hu: 7% 11% 10% 10% 13% 10% 14% 11% 16%
x264 [info]: i4 v,h,dc,ddl,ddr,vr,hd,vl,hu: 37% 8% 6% 6% 9% 7% 10% 6% 11%
x264 [info]: i8c dc,h,v,p: 47% 25% 14% 14%
x264 [info]: Weighted P-Frames: Y:4.4% UV:2.4%
x264 [info]: ref P L0: 47.8% 12.4% 21.6% 8.6% 8.6% 1.0% 0.0%
x264 [info]: ref B L0: 81.7% 12.6% 4.4% 1.3%
x264 [info]: ref B L1: 96.3% 3.7%
x264 [info]: kb/s:13590.05
encoded 129192 frames, 10.63 fps, 13590.05 kb/s, duration 3:22:34.74

MediaInfo:

Общее
Unique ID : 149571958730551461080245196813006204100 (0x708682EC2865BBB56452DA0697AAECC4)
Complete name : Aquarela.2018.BDRip.1080p.mkv
Format : Matroska
Format version : Version 4
File size : 8,93 Гбайт
Duration : 1 ч. 29 м.
Overall bit rate : 14,2 Мбит/сек
Encoded date : UTC 2019-12-05 15:29:23
Writing application : mkvmerge v40.0.0 ('Old Town Road + Pony') 64-bit
Writing library : libebml v1.3.9 + libmatroska v1.5.2
Видео
ID : 1
Format : AVC
Format/Info : Advanced Video Codec
Format profile : [email protected]
Format settings : CABAC / 5 Ref Frames
Format settings, CABAC : Да
Format settings, RefFrames : 5 кадров
Codec ID : V_MPEG4/ISO/AVC
Duration : 1 ч. 29 м.
Bit rate : 13,6 Мбит/сек
Width : 1920 пикселей
Height : 804 пикселя
Display aspect ratio : 2,40:1
Frame rate mode : Постоянный
Frame rate : 23,976 (24000/1001) кадра/сек
Color space : YUV
Chroma subsampling : 4:2:0
Bit depth : 8 бит
Scan type : Прогрессивная
Bits/(Pixel*Frame) : 0.367
Stream size : 8,52 Гбайт (95%)
Writing library : x264 core 152 r2851kMod ba24899
Encoding settings : cabac=1 / ref=5 / deblock=1:-3:-3 / analyse=0x3:0x133 / me=umh / subme=11 / psy=1 / fade_compensate=0.00 / psy_rd=1.00:0.05 / mixed_ref=1 / me_range=48 / chroma_me=1 / trellis=2 / 8x8dct=1 / cqm=0 / deadzone=21,11 / fast_pskip=0 / chroma_qp_offset=-3 / threads=24 / lookahead_threads=6 / sliced_threads=0 / nr=0 / decimate=0 / interlaced=0 / bluray_compat=0 / constrained_intra=0 / bframes=10 / b_pyramid=2 / b_adapt=2 / b_bias=0 / direct=3 / weightb=1 / open_gop=0 / weightp=2 / keyint=240 / keyint_min=23 / scenecut=40 / intra_refresh=0 / rc_lookahead=60 / rc=2pass / mbtree=0 / bitrate=13600 / ratetol=1.0 / qcomp=0.65 / qpmin=0 / qpmax=69 / qpstep=4 / cplxblur=20.0 / qblur=0.5 / vbv_maxrate=50000 / vbv_bufsize=62500 / nal_hrd=none / filler=0 / ip_ratio=1.30 / pb_ratio=1.20 / aq=3:0.80
Language : Russian
Default : Да
Forced : Нет
Аудио
ID : 2
Format : AC-3
Format/Info : Audio Coding 3
Commercial name : Dolby Digital
Codec ID : A_AC3
Duration : 1 ч. 29 м.
Bit rate mode : Постоянный
Bit rate : 640 Кбит/сек
Channel(s) : 6 каналов
Channel layout : L R C LFE Ls Rs
Sampling rate : 48,0 КГц
Frame rate : 31,250 кадров/сек (1536 SPF)
Compression mode : С потерями
Stream size : 411 Мбайт (4%)
Title : DD 640
Language : Russian
Service kind : Complete Main
Default : Да
Forced : Нет
Текст
ID : 3
Format : UTF-8
Codec ID : S_TEXT/UTF8
Codec ID/Info : UTF-8 Plain Text
Duration : 1 ч. 3 м.
Bit rate : 2 бит/сек
Count of elements : 52
Stream size : 1,09 Кбайт (0%)
Language : English
Default : Нет
Forced : Нет
Меню
00:00:00.000 : :en:Chapter 01
00:07:44.172 : :en:Chapter 02
00:15:26.843 : :en:Chapter 03
00:18:41.579 : :en:Chapter 04
00:22:40.859 : :en:Chapter 05
00:27:00.536 : :en:Chapter 06
00:32:48.300 : :en:Chapter 07
00:37:27.162 : :en:Chapter 08
00:41:57.181 : :en:Chapter 09
00:45:59.840 : :en:Chapter 10
00:49:04.900 : :en:Chapter 11
00:54:15.502 : :en:Chapter 12
01:00:04.476 : :en:Chapter 13
01:08:39.240 : :en:Chapter 14
01:13:13.180 : :en:Chapter 15
01:19:35.437 : :en:Chapter 16

Скриншоты

RelizMAN

Post 05-Dec-2019 22:50

[Quote]

Информация о фильме
Название: Королевский тур по Мексике
Оригинальное название: Mexico: The Royal Tour
Год выхода: 2011
Жанр: Документальный, путешествия, природа, флора, фауна
Режиссер: Джон Файст
О фильме:
Питер Гринберг присоединяется к президенту Мексики Фелипе Кальдерону, одному из самых динамичных глав государств в мире, чтобы продемонстрировать Мексику так, как ее никогда не видел ни один посетитель.

Страна: США
Студия: Check Six Productions
Продолжительность: 00:56:44
Перевод: Профессиональный (одноголосый закадровый) Видеофильм ТВ
Файл
Кодек: AVC/H.264
Качество: HDTV 1080i
Видео: 1920x1080 (16:9), 25 fps, AVC (H.264), [email protected], 9300 kbps, 25fps, 0.179 bit/pixel
Звук: Русский 48 kHz, MPEG Layer 2, 2 ch, ~192.00 kbps avg
Семпл

MediaInfo

Complete name : F:Наладки Королевский тур по Мексике.ts
Format : MPEG-TS
File size : 3.96 GiB
Duration : 56 min 44 s
Overall bit rate mode : Variable
Overall bit rate : 9 988 kb/s
Video
ID : 1926 (0x786)
Menu ID : 19004 (0x4A3C)
Format : AVC
Format/Info : Advanced Video Codec
Format profile : [email protected]
Format settings : CABAC / 3 Ref Frames
Format settings, CABAC : Yes
Format settings, Reference : 3 frames
Codec ID : 27
Duration : 56 min 44 s
Bit rate : 9 300 kb/s
Width : 1 920 pixels
Height : 1 080 pixels
Display aspect ratio : 16:9
Frame rate : 25.000 FPS
Color space : YUV
Chroma subsampling : 4:2:0
Bit depth : 8 bits
Scan type : Interlaced
Scan type, store method : Separated fields
Scan order : Top Field First
Bits/(Pixel*Frame) : 0.179
Stream size : 3.69 GiB (93%)
Color range : Limited
Color primaries : BT.709
Transfer characteristics : BT.709
Matrix coefficients : BT.709
Audio
ID : 1927 (0x787)
Menu ID : 19004 (0x4A3C)
Format : MPEG Audio
Format version : Version 1
Format profile : Layer 2
Codec ID : 3
Duration : 56 min 44 s
Bit rate mode : Constant
Bit rate : 192 kb/s
Channel(s) : 2 channels
Sampling rate : 48.0 kHz
Frame rate : 41.667 FPS (1152 SPF)
Compression mode : Lossy
Delay relative to video : -80 ms
Stream size : 77.9 MiB (2%)
Language : Russian
Релиз от: kyba

RelizMAN

Post 04-Dec-2019 23:50

[Quote]

Информация о фильме
Название: Королевский тур по Израилю
Оригинальное название: Israel: The Royal Tour / 2014
Год выхода: 2014
Жанр: Документальный, путешествия, история, природа
Режиссер: Джон Файст
О фильме:
Премьер-министр Нетаньяху предоставляет журналисту Питеру Гринбергу беспрецедентный доступ к этому историческому телевизионному специальному выпуску, посвященному истории. Это передовой, уникальный взгляд на Израиль глазами его лидера.

Страна: США
Студия: Check Six Productions
Продолжительность: 00:56:40
Перевод: Профессиональный (одноголосый закадровый) Видеофильм ТВ
Файл
Кодек: AVC/H.264
Качество: HDTV 1080i
Видео: 1920x1080 (16:9), 25 fps, AVC (H.264), [email protected], 9084 kbps, 25fps, 0.175 bit/pixel
Звук: Русский 48 kHz, MPEG Layer 2, 2 ch, ~192.00 kbps avg
Семпл

MediaInfo

Complete name : F:НаладкиКоролевский тур по Израилю.ts
Format : MPEG-TS
File size : 3.86 GiB
Duration : 56 min 41 s
Overall bit rate mode : Variable
Overall bit rate : 9 760 kb/s
Video
ID : 1926 (0x786)
Menu ID : 19004 (0x4A3C)
Format : AVC
Format/Info : Advanced Video Codec
Format profile : [email protected]
Format settings : CABAC / 3 Ref Frames
Format settings, CABAC : Yes
Format settings, Reference : 3 frames
Codec ID : 27
Duration : 56 min 40 s
Bit rate : 9 084 kb/s
Width : 1 920 pixels
Height : 1 080 pixels
Display aspect ratio : 16:9
Frame rate : 25.000 FPS
Color space : YUV
Chroma subsampling : 4:2:0
Bit depth : 8 bits
Scan type : Interlaced
Scan type, store method : Separated fields
Scan order : Top Field First
Bits/(Pixel*Frame) : 0.175
Stream size : 3.60 GiB (93%)
Color range : Limited
Color primaries : BT.709
Transfer characteristics : BT.709
Matrix coefficients : BT.709
Audio
ID : 1927 (0x787)
Menu ID : 19004 (0x4A3C)
Format : MPEG Audio
Format version : Version 1
Format profile : Layer 2
Codec ID : 3
Duration : 56 min 40 s
Bit rate mode : Constant
Bit rate : 192 kb/s
Channel(s) : 2 channels
Sampling rate : 48.0 kHz
Frame rate : 41.667 FPS (1152 SPF)
Compression mode : Lossy
Delay relative to video : -80 ms
Stream size : 77.8 MiB (2%)
Language : Russian
Релиз от: kyba

RelizMAN

Post 03-Dec-2019 22:50

[Quote]

Информация о фильме
Название: Королевский тур по Эквадору
Оригинальное название: Ecuador: The Royal Tour
Год выхода: 2016
Жанр: Документальный, путешествия, природа, флора, фауна
Режиссер: Джон Файст
О фильме:
«Королевский тур» - это революционная серия телевизионных спецпредложений, созданная и проведенная лауреатом премии «Эмми» и редактором CBS News Travel Питером Гринбергом, демонстрирующая страны так, как их никогда не видел ни один посетитель. Руководствуясь одними из самых динамичных и влиятельных глав государств, Питер путешествует вглубь каждой страны, чтобы предоставить зрителям полный доступ к необычным местам, историческим достопримечательностям и культурным событиям. В этом последнем выпуске Питер получил королевскую экскурсию от президента Эквадора Рафаэля Корреа. Целую неделю г-н Корреа стал главным гидом, демонстрируя визуальные жемчужины, которые может предложить его страна. Они взяли с собой четыре съемочных группы, которые плавали с пираньями в тропических лесах Амазонки, отправились на наблюдение за китами у побережья Манты, делали покупки как местный житель в сельском городке в Андах, вернулись в родной город президента Гуаякиль и в школу, которую он посещал. , посетили ферму плантации какао (она же шоколад) в Какао и занялись дайвингом ...

Страна: США
Студия: Check Six Productions
Продолжительность: 00:56:01
Перевод: Профессиональный (одноголосый закадровый) Видеофильм ТВ
Файл
Кодек: AVC/H.264
Качество: HDTV 1080i
Видео: 1920x1080 (16:9), 25 fps, AVC (H.264), [email protected], 9087 kbps, 25fps, 0.175 bit/pixel
Звук: Русский 48 kHz, MPEG Layer 2, 2 ch, ~192.00 kbps avg
Семпл

MediaInfo

Complete name : F:НаладкиКоролевский тур по Эквадору.ts
Format : MPEG-TS
File size : 3.82 GiB
Duration : 56 min 1 s
Overall bit rate mode : Variable
Overall bit rate : 9 764 kb/s
Video
ID : 1926 (0x786)
Menu ID : 19004 (0x4A3C)
Format : AVC
Format/Info : Advanced Video Codec
Format profile : [email protected]
Format settings : CABAC / 3 Ref Frames
Format settings, CABAC : Yes
Format settings, Reference : 3 frames
Codec ID : 27
Duration : 56 min 1 s
Bit rate : 9 087 kb/s
Width : 1 920 pixels
Height : 1 080 pixels
Display aspect ratio : 16:9
Frame rate : 25.000 FPS
Color space : YUV
Chroma subsampling : 4:2:0
Bit depth : 8 bits
Scan type : Interlaced
Scan type, store method : Separated fields
Scan order : Top Field First
Bits/(Pixel*Frame) : 0.175
Stream size : 3.56 GiB (93%)
Color range : Limited
Color primaries : BT.709
Transfer characteristics : BT.709
Matrix coefficients : BT.709
Audio
ID : 1927 (0x787)
Menu ID : 19004 (0x4A3C)
Format : MPEG Audio
Format version : Version 1
Format profile : Layer 2
Codec ID : 3
Duration : 56 min 1 s
Bit rate mode : Constant
Bit rate : 192 kb/s
Channel(s) : 2 channels
Sampling rate : 48.0 kHz
Frame rate : 41.667 FPS (1152 SPF)
Compression mode : Lossy
Delay relative to video : -80 ms
Stream size : 76.9 MiB (2%)
Language : Russian
Релиз от: kyba

RelizMAN

Post 03-Dec-2019 03:50

[Quote]

Информация о фильме
Название: Морские гиганты Азорских островов
Оригинальное название: Giants of the Atlantic Azores
Год выхода: 2016
Жанр: Документальный, природа, флора, фауна
Режиссер: Эрик Пролл
О фильме:
Гигантский подводный горный хребет, затерянный посреди бескрайнего океана. И только несколько пиков вздымаются над поверхностью, их называют драгоценной россыпью Атлантики - девять Азорских островов. Этот потрясающей красоты архипелаг - единственное, что связывает Европу и Америку. Азоры имеют богатейшую флору и фауну. Здесь хозяева морей встречаются, чтобы начать миграцию на Север. Когда-то голые вулканические породы теперь полны жизни, как над, так и под водой. Кашалоты, скаты мобула и синие акулы наслаждаются изобилием рыбы в каналах между островами. Их привлекают богатые местные рифы.
Страна: Австрия
Студия: ORF, National Geographic Channels, ARTE
Продолжительность: 00:52:04
Перевод: Профессиональный (одноголосый закадровый)
Профессиональный (одноголосый закадровый) СВ-Дубль
Файл
Кодек: AVC/H.264
Качество: HDTV 1080i
Видео: 1920x1080 (16:9), 25 fps, AVC (H.264), [email protected], 9159 kbps, 25fps, 0.177 bit/pixel
Звук:
Русский 48 kHz, MPEG Layer 2, 2 ch, ~192.00 kbps avg
Русский 48 kHz, AC3 Dolby Digital, 2/0 (L,R) ch, ~192.00 kbps avg
Субтитры: Русские, отключаемые
Семпл

MediaInfo

Complete name : F:НаладкиГиганты Атлантики_Азорские острова.mkv
Format : Matroska
Format version : Version 4
File size : 3.54 GiB
Duration : 52 min 4 s
Overall bit rate : 9 737 kb/s
Encoded date : UTC 2019-12-02 16:20:00
Writing application : mkvmerge v6.6.0 ('The Edge Of The In Between') built on Dec 1 2013 17:55:00
Writing library : libebml v1.3.0 + libmatroska v1.4.1
Video
ID : 1
Format : AVC
Format/Info : Advanced Video Codec
Format profile : [email protected]
Format settings : CABAC / 3 Ref Frames
Format settings, CABAC : Yes
Format settings, Reference : 3 frames
Codec ID : V_MPEG4/ISO/AVC
Duration : 52 min 4 s
Bit rate : 9 159 kb/s
Width : 1 920 pixels
Height : 1 080 pixels
Display aspect ratio : 16:9
Frame rate mode : Constant
Frame rate : 25.000 FPS
Color space : YUV
Chroma subsampling : 4:2:0
Bit depth : 8 bits
Scan type : Interlaced
Scan type, store method : Separated fields
Scan order : Top Field First
Bits/(Pixel*Frame) : 0.177
Stream size : 3.33 GiB (94%)
Default : Yes
Forced : No
Color range : Limited
Color primaries : BT.709
Transfer characteristics : BT.709
Matrix coefficients : BT.709
Audio #1
ID : 2
Format : MPEG Audio
Format version : Version 1
Format profile : Layer 2
Codec ID : A_MPEG/L2
Codec ID/Hint : MP2
Duration : 52 min 4 s
Bit rate mode : Constant
Bit rate : 192 kb/s
Channel(s) : 2 channels
Sampling rate : 48.0 kHz
Compression mode : Lossy
Stream size : 71.5 MiB (2%)
Language : Russian
Default : Yes
Forced : Yes
Audio #2
ID : 3
Format : AC-3
Format/Info : Audio Coding 3
Commercial name : Dolby Digital
Codec ID : A_AC3
Duration : 52 min 4 s
Bit rate mode : Constant
Bit rate : 192 kb/s
Channel(s) : 2 channels
Channel layout : L R
Sampling rate : 48.0 kHz
Frame rate : 31.250 FPS (1536 SPF)
Bit depth : 16 bits
Compression mode : Lossy
Stream size : 71.5 MiB (2%)
Title : СВ-Дубль
Language : Russian
Service kind : Complete Main
Default : No
Forced : No
Text
ID : 4
Format : UTF-8
Codec ID : S_TEXT/UTF8
Codec ID/Info : UTF-8 Plain Text
Title : СВ-Дубль
Language : Russian
Default : No
Forced : No

Скриншоты

Релиз от: kyba

RelizMAN

Post 03-Dec-2019 02:50

[Quote]

Информация о фильме
Название: Акварель
Оригинальное название: Aquarela
Год выхода: 2018
Жанр: Документальный, Видовой, Природа
Режиссер: Виктор Косаковский
О фильме:
Фильм погружает зрителя в путешествие по преобразующей красоте и необузданной мощи воды, человек по сравнению с которой - ничто. Вода — главный герой фильма, и она показана во всех своих проявлениях и во всем масштабе: от опасных замерзших вод Байкала и страдающего от урагана «Ирма» Майами до величественных ледников Гренландии и мощного водопада Анхель в Венесуэле.

Страна: Великобритания, Германия, Дания, США
Студия: Ma.Ja.De Filmproduktion, Aconite Productions
Продолжительность: 01:29:48
Перевод: Не требуется - озвученных комментариев нет.
Субтитры: Английские
Релиз от: NNMClub
Качество: BDRemux 1080p
Видео: AVC/H.264, 1920x1080, (16:9), ~33.8 Mbps, 23.976 fps
Аудио 1: TrueHD Atmos, 8 ch, 3480 Kbps
Аудио 2: AC-3, 6 ch, 640 Kbps

MediaInfo:

General
Unique ID : 293139166703779440242252981640996804434 (0xDC888CC66D445F32C6C7A75EB0D75752)
Complete name : F:Aquarela.2018.BDRemux.1080p.NNMClub.mkv
Format : Matroska
Format version : Version 4
File size : 23.8 GiB
Duration : 1 h 29 min
Overall bit rate mode : Variable
Overall bit rate : 38.0 Mb/s
Encoded date : UTC 2019-12-02 08:04:22
Writing application : mkvmerge v40.0.0 ('Old Town Road + Pony') 64-bit
Writing library : libebml v1.3.9 + libmatroska v1.5.2
Video
ID : 1
Format : AVC
Format/Info : Advanced Video Codec
Format profile : [email protected]
Format settings : CABAC / 2 Ref Frames
Format settings, CABAC : Yes
Format settings, Reference : 2 frames
Codec ID : V_MPEG4/ISO/AVC
Duration : 1 h 29 min
Bit rate mode : Variable
Bit rate : 33.8 Mb/s
Width : 1 920 pixels
Height : 1 080 pixels
Display aspect ratio : 16:9
Frame rate mode : Constant
Frame rate : 23.976 (24000/1001) FPS
Color space : YUV
Chroma subsampling : 4:2:0
Bit depth : 8 bits
Scan type : Progressive
Bits/(Pixel*Frame) : 0.679
Stream size : 21.2 GiB (89%)
Language : Russian
Default : No
Forced : No
Audio #1
ID : 2
Format : MLP FBA 16-ch
Format/Info : Meridian Lossless Packing FBA with 16-channel presentation
Commercial name : Dolby TrueHD with Dolby Atmos
Codec ID : A_TRUEHD
Duration : 1 h 29 min
Bit rate mode : Variable
Bit rate : 3 480 kb/s
Maximum bit rate : 5 553 kb/s
Channel(s) : 8 channels
Channel layout : L R C LFE Ls Rs Lb Rb
Sampling rate : 48.0 kHz
Frame rate : 1 200.000 FPS (40 SPF)
Compression mode : Lossless
Stream size : 2.18 GiB (9%)
Language : Russian
Default : No
Forced : No
Number of dynamic objects : 11
Bed channel count : 1 channel
Bed channel configuration : LFE
Audio #2
ID : 3
Format : AC-3
Format/Info : Audio Coding 3
Commercial name : Dolby Digital
Codec ID : A_AC3
Duration : 1 h 29 min
Bit rate mode : Constant
Bit rate : 640 kb/s
Channel(s) : 6 channels
Channel layout : L R C LFE Ls Rs
Sampling rate : 48.0 kHz
Frame rate : 31.250 FPS (1536 SPF)
Compression mode : Lossy
Stream size : 411 MiB (2%)
Language : Russian
Service kind : Complete Main
Default : No
Forced : No
Text
ID : 4
Format : UTF-8
Codec ID : S_TEXT/UTF8
Codec ID/Info : UTF-8 Plain Text
Duration : 1 h 3 min
Bit rate : 2 b/s
Count of elements : 52
Stream size : 1.09 KiB (0%)
Language : English
Default : No
Forced : No
Menu
00:00:00.000 : :Глава 01
00:07:44.172 : :Глава 02
00:15:26.843 : :Глава 03
00:18:41.579 : :Глава 04
00:22:40.859 : :Глава 05
00:27:00.536 : :Глава 06
00:32:48.300 : :Глава 07
00:37:27.162 : :Глава 08
00:41:57.181 : :Глава 09
00:45:59.840 : :Глава 10
00:49:04.900 : :Глава 11
00:54:15.502 : :Глава 12
01:00:04.476 : :Глава 13
01:08:39.240 : :Глава 14
01:13:13.180 : :Глава 15
01:19:35.437 : :Глава 16

Скриншоты

Vi$itReal

Post 01-Dec-2019 20:50

[Quote]

Название: Миллионы Пабло Эскобара
Оригинальное название: Finding Escobar’s Millions
Год выпуска: 2019
Жанр: Документальный, криминал, поиски
Выпущено: США, Discovery Communications, LLC.
О фильме: По официальным данным, самый богатый наркобарон в истории Пабло Эскобар при жизни обладал состоянием более 30 млрд долларов, однако не исключено, что денег у него было еще больше. Новая программа «Миллионы Пабло Эскобара» призвана пролить свет на эту тайну. Два бывших агента ЦРУ в сопровождении съемочной группы отправятся на поиски миллионов, спрятанных, если верить городским легендам, где-то в дебрях Центральной Америки. С собой они берут самую современную поисковую технику, в том числе радар, способный обнаруживать объекты под землей. И если деньги Эскобара будут найдены, Discovery Channel станет единственным каналом, который засвидетельствует этот исторический момент. Чем увенчается экспедиция, узнаем совсем скоро!

Качество: HDTVRip 720p
Видео: MPEG-4 AVC, ~ 4000 Кбит/с, 1280x720
Аудио: MP2, 2 ch, 192 Кбит/с
Продолжительность: 1 х ~ 00:44:00
Перевод: Профессиональный двухголосый

[color=navy]Скриншоты[/color]



[color=navy]Внимание! Раздача ведётся путём добавления новых серий![/color]

Внимание! Раздача ведётся путём добавления новых серий; при каждом добавлении создfётся новый торрент. Чтобы начать докачку новой серии, пользователям необходимо сделать следующее: (1) остановить скачивание, (2) удалить старый торрент у себя из клиента (старые серии удалять не надо), (3) скачать новый торрент и запустить его у себя в клиенте вместо старого, при этом указать клиенту путь в старую папку куда и должно происходить скачивание новых серий.
Ваш клиент при этом должен произвести хеширование (проверку) старой папки (если не производит сам - помогите ему сделать это), и будет докачивать только те серии которых у вас ещё нет. Старые серии при этом не удаляются, а продолжают раздаваться!
Eсли вы уже удалили старые серии, то предотвратить повторную закачку старых серий можно, отжав галочку в соответсвующих местах при запуске нового торрента.
Благодарю за постер ValkiriaGF
Релиз от:
 

Current time is: 11-Dec 14:00

All times are UTC + 3