Search found 500 matches

Author Message

RelizMAN

Post Yesterday 04:20

[Quote]

Название: Большое и Ричард Хаммонд
Оригинальное название: Richard Hammond's Big!
Год выпуска: 2020
Жанр: Документальный, инженерия, обзор
Выпущено: Великобритания, Original Productions
Режиссер: Алистер Смит
Ведущий: Ричард Хаммонд
О фильме: В новой программе ведущий Ричард Хаммонд, с детства увлекающийся инженерным делом, отправляется в кругосветное путешествие, чтобы познакомить нас с поразительными шедеврами инженерного искусства. Его задача — исследовать крупнейшие в мире сооружения и машины, узнать об их устройстве и о том, как они работают. В каждой серии Ричард беседует с инженерами, конструкторами, строителями и другими неизвестными героями, благодаря которым на свет появились эти супергиганты. От самого длинного в мире подземного железнодорожного туннеля до грузового корабля размером с четыре футбольных поля, Ричард расскажет обо всём самом БОЛЬШОМ, что создало человечество, потому что для инженеров и конструкторов этих мегапроектов размер имеет решающее значение.

Официальный сайт
Качество: HDTVRip
Видео: XviD, ~ 1600 Кбит/с, 720x400
Аудио: AC3, 2 ch, 192 Кбит/с
Продолжительность: 1 х ~ 00:44:00
Перевод: Профессиональный (многоголосый, закадровый)

[color=blue]Скриншоты[/color]



[color=blue]Название серий[/color]

01. Фольксваген.
02.
03.
04.
05.
06..

[color=blue]Внимание! Раздача ведётся путём добавления новых серий![/color]

Внимание! Раздача ведётся путём добавления новых серий; при каждом добавлении создfётся новый торрент. Чтобы начать докачку новой серии, пользователям необходимо сделать следующее: (1) остановить скачивание, (2) удалить старый торрент у себя из клиента (старые серии удалять не надо), (3) скачать новый торрент и запустить его у себя в клиенте вместо старого, при этом указать клиенту путь в старую папку куда и должно происходить скачивание новых серий.
Ваш клиент при этом должен произвести хеширование (проверку) старой папки (если не производит сам - помогите ему сделать это), и будет докачивать только те серии которых у вас ещё нет. Старые серии при этом не удаляются, а продолжают раздаваться!
Eсли вы уже удалили старые серии, то предотвратить повторную закачку старых серий можно, отжав галочку в соответсвующих местах при запуске нового торрента.
Благодарю за постер ValkiriaGF
Релиз от:

RelizMAN

Post 24-Feb-2020 16:05

[Quote]

Информация о фильме
Название: Путешествие волка
Оригинальное название: L'Odyssée du Loup
Год выхода: 2018
Жанр: Документальный, природа, флора, фауна
Режиссер: Венсан Стайгер
О фильме:
Путешествие волка, которого ученые назвали Слава, из румынских лесов, где он родился, в Кантабрийские горы Испании. Сербия, Босния, Хорватия, Словения, Австрия, Италия, Франция, Испания – больше трех тысяч километров пришлось преодолеть золотоглазому хищнику, прежде чем он нашел место, где смог поселиться.

Страна: Франция
Студия: Paprika Films
Продолжительность: 00:52:23
Перевод: Профессиональный (одноголосый закадровый) СВ-Дубль
Файл
Кодек: AVC/H.264
Качество: DVB
Видео: 720x576 (16:9) AVC (H.264) [email protected], ~ 3055 kbps, 25 fps
Звук: Русский 48 kHz, MPEG Layer 2, 2 ch, ~192.00 kbps avg
Субтитры: Субтитры: Русские, отключаемые
Семпл

MediaInfo

Релиз от: kyba

RelizMAN

Post 22-Feb-2020 19:35

[Quote]

Название: Аляска: семья из леса
Оригинальное название: Alaskan Bush People
Год выпуска: 2019
Жанр: Документальный, выживание, история
Выпущено: США, Discovery Channel
Режиссер: Т.Дж. Шанкс, Джейсон Берман, Эзра Эпвелл
В ролях: Билл Браун, Гэйб Браун, Мэтт Браун
О фильме: В глуши Аляски живет семья, все дети которой родились и выросли среди дикой природы. Билли Браун, его жена Эми и их семеро детей – пятеро сыновей и две дочери – удалились от цивилизации и почти не контактируют с другими людьми. Они даже выработали уникальный диалект и называют себя «волчьей стаей». Едва ли в наше время во всей Америке найдется вторая такая семья. После женитьбы Ноа в семействе появляется еще одна дочка. Как Брауны с ней уживутся, и уживутся ли вовсе?

Официальный сайт
Качество: HDTVRip
Видео: XviD, ~ 1540 Кбит/с, 720x400
Аудио: AC3, 2 ch, 192 Кбит/c
Продолжительность: 1 x ~ 00:44:00
Перевод: Профессиональный (многоголосый, закадровый)

[color=blue]Скриншоты[/color]



[color=blue]Внимание! Раздача ведётся путём добавления новых серий![/color]

Внимание! Раздача ведётся путём добавления новых серий; при каждом добавлении создfётся новый торрент. Чтобы начать докачку новой серии, пользователям необходимо сделать следующее: (1) остановить скачивание, (2) удалить старый торрент у себя из клиента (старые серии удалять не надо), (3) скачать новый торрент и запустить его у себя в клиенте вместо старого, при этом указать клиенту путь в старую папку куда и должно происходить скачивание новых серий.
Ваш клиент при этом должен произвести хеширование (проверку) старой папки (если не производит сам - помогите ему сделать это), и будет докачивать только те серии которых у вас ещё нет. Старые серии при этом не удаляются, а продолжают раздаваться!
Eсли вы уже удалили старые серии, то предотвратить повторную закачку старых серий можно, отжав галочку в соответсвующих местах при запуске нового торрента.
Благодарю за отличный постер ValkiriaGF
Релиз от:

RelizMAN

Post 17-Feb-2020 16:35

[Quote]

Название: Самогонщики
Оригинальное название: Moonshiners
Год выпуска: 2020
Жанр: Документальный, познавательный, криминал, расследование
Выпущено: США, Magilla Entertainment
Режиссер: Ноа Данофф, Брайан Гартон
В ролях: Джереми Шварц, Джош Оуэнс, Марк Роджерс, Тим Смит, Джефф Волдруп, Билл Кэнни, Стив Тикл, Джим Том Хедрик, Ланс Волдруп, Марк Рэмси
О фильме: Пока самогоноварение окончательно не ушло в прошлое, последние самогонщики Америки должны объединиться, чтобы вместе побороться за сохранение своего традиционного образа жизни. При том что спрос на «белый виски» высок как никогда, им становится всё труднее оставаться в тени. Самогонщик-ветеран Тикл возвращается в предгорья Южных Аппалачей, отсидев год в тюрьме, и подбивает своего друга Тима вместе заняться незаконным бизнесом.
Марк и Диггер начинают новый сезон самогоноварения, но делают рискованный ход, нанимая нового помощника. В условиях удвоившегося количества полицейских рейдов опасность грозит всей субкультуре самогонщиков. Как долго «подпольные» винокуры смогут безнаказанно гнать самодельный виски?

Официальный сайт
Качество: HDTVRip
Видео: XviD, ~ 1600 Кбит/с, 720x400
Аудио: AC3, 2 ch, 192 Кбит/с
Продолжительность: 1 x ~ 00:44:00
Перевод: Профессиональный (двухголосый, закадровый)

Скриншоты



Внимание! Раздача ведётся путём добавления новых серий!

Внимание! Раздача ведётся путём добавления новых серий; при каждом добавлении создfётся новый торрент. Чтобы начать докачку новой серии, пользователям необходимо сделать следующее: (1) остановить скачивание, (2) удалить старый торрент у себя из клиента (старые серии удалять не надо), (3) скачать новый торрент и запустить его у себя в клиенте вместо старого, при этом указать клиенту путь в старую папку куда и должно происходить скачивание новых серий.
Ваш клиент при этом должен произвести хеширование (проверку) старой папки (если не производит сам - помогите ему сделать это), и будет докачивать только те серии которых у вас ещё нет. Старые серии при этом не удаляются, а продолжают раздаваться!
Eсли вы уже удалили старые серии, то предотвратить повторную закачку старых серий можно, отжав галочку в соответсвующих местах при запуске нового торрента.
Релиз от:

RelizMAN

Post 15-Feb-2020 19:20

[Quote]

Информация о фильме
Название: История научной фантастики с Джеймсом Кэмероном
Оригинальное название: James Cameron's story of Science Fiction
Год выхода: 2018
Жанр: Документальный, искусство, кино
Режиссер: Джеймс Кэмерон
В ролях: Джеймс Кэмерон, Ридли Скотт, Стивен Спилберг, Джордж Лукас, Вупи Голдберг, Джефф Голдблюм, Джозеф Гордон-Левитт, Киану Ривз, Арнольд Шварценеггер, Люк Бессон, Боб Гейл, Милла Йовович, Кристофер Ллойд, Уилл Смит, Брюс Уиллис и др.
О фильме:
Документальный сериал рассказывает о культовых научно-фантастических книгах, фильмах и сериалах разных поколений. Речь пойдет как о пионерах жанра, таких как «Франкенштейн» или «Чужой», так и о самых последних фильмах и сериалах на эту тему. Джеймс Кэмерон выступает как ведущий и проводник в мир научной фантастики. Он беседует со знаменитыми режиссерами этого жанра: Стивеном Спилбергом, Джорджем Лукасом, Кристофером Ноланом, Ридли Скоттом. Вместе с актерами, художниками, писателями-фантастами, астронавтами и учеными они дискутируют на фундаментальные темы, которые поднимает жанр научной фантастики.

Страна: США
Студия: American Movie Classics (AMC), Earthship Productions, Left/Right
Продолжительность: 6 x ~ 00:40:32
Перевод: Профессиональный(многоголосый закадровый) СВ-Дубль
Файл
Кодек: AVC/H.264
Качество: DVB
Видео: 720x576 (16:9) AVC (H.264) [email protected], ~ 2027 kbps, 25 fps
Звук: Русский 48 kHz, MPEG Layer 2, 2 ch, ~192.00 kbps avg
Субтитры: Русские, отключаемые
Семпл

Содержание

01. Инопланетная жизнь / Alien Life
Жанр научной фантастики чаще других задает вопрос – одни ли мы во Вселенной? Что мы почувствуем, узнав о существовании других цивилизаций, и как мы поступим, столкнувшись с пришельцами лицом к лицу? Хорошая научная фантастика позволяет нам не просто ужаснуться инопланетным чудовищам, что хотят властвовать над нами, – она сталкивает нас со страхами нашего подсознания.
Вторжение пришельцев – отличная метафора темных уголков человеческой души. В этой серии "Истории научной фантастики с Джеймосом Кэмероном" известные режиссеры, актеры и писатели-фантасты рассуждают на тему страхов и угроз, волновавших человечество, и показывают, как эти темы находили отражение в научно-фантастических книгах и фильмах разных времен.
02. Дальний космос / Outer Space
50 лет назад Космос был для нас крайне враждебной средой, но человечество пошло по пути изучения Вселенной, и теперь Солнечная система и полеты на другие планеты уже не так недостижимы. Размах Вселенной потрясает и дает ход безграничному воображению. Мы понимаем, насколько мал человек по сравнению с бесконечным Космосом, но в то же время в нас на подсознательном уровне заложена тяга к опасности. Научная фантастика помогает людям не только мечтать о далеком космосе, но и привлекает внимание к реальным угрозам и проблемам, от решения которых в будущем зависит судьба всего человечества. Эта серия познакомит зрителей с такими шедеврами научно-фантастического жанра, как "Звездные войны", "Космическая Одиссея 2001 года", "Звездный путь" и многими другими фильмами и книгами, пробудившими интерес людей к космическим путешествиям.
03. Монстры / Monsters
Монстр – есть не что иное, как сплетение всех наших страхов. Где проходит граница между жанром ужасов и научной фантастикой? Ужасы уходят корнями в духовный мир, они исходят от веры человека в добро и зло и представляют собой смесь архетипов коллективного бессознательного. Но с появлением в Западной литературе новой темы – науки, появляется и новый жанр научной фантастики. И если раньше чудища уходили корнями в мифологию и фольклор, фантазии о монстрах новой эры подпитывают новые области знания – это и радиоактивность, и генная инженерия, и робототехника. Все начинается с истории о Франкенштейне – прародителе всех научно-фантастических монстров. На смену драконам приходят динозавры из "Парка Юрского периода", космические монстры испугали не одно поколение зрителей фильма "Чужой", а современные подростки знакомы с этим жанром прежде всего по сериалу "Очень странные дела". Как создавались эти образы в кино, и какую идею хотели донести авторы? Эта серия отвечает на вопрос, как "игра в Бога" с новыми технологиями может привести человечество к катастрофе. Монстры превосходят законы природы – эти сверхсущества заставляют нас сомневаться в том, что такое есть человек на самом деле.
04. Тёмное будущее / Dark Futures
Хорошая научная фантастика заставляет нас иначе взглянуть на реальность. Антиутопии помогают людям задуматься о важнейших социальных и политических проблемах их времени. Возможно, это мрачное будущее частично уже наступило, а мы и не заметили? В ХХ веке фашизм, развитие научных технологий и ряд других перемен подтолкнули писателей-фантастов к мыслям о неминуемом страшном будущем. Слежка как часть технологической системы, ограничивающей свободу человека, блестяще описана в романе "1984" Джорджа Оруэлла. Знаменитая кинотрилогия "Матрица" предсказала будущее, в котором люди подключаются к сети и теряют себя, веря в то, что им угодно, потому что так приятнее и безопаснее. Роман "Рассказ служанки" описывает мир будущего, где тоталитарное общество ущемляет права женщин, низводя их до одной лишь функции деторождения. Научная фантастика позволяет увидеть антиутопическое кошмарное будущее, но, тем не менее, в главных героях мы видим искру надежды.
05. Разумные машины / Intelligent Machines
Научная фантастика всегда обращалась к идее вышедших из-под контроля технологий. Роботы воплощали и наши мечты, и наши кошмары. Многих писателей и режиссеров интересовала тема восстания машин против людей. В воображении других авторов, таких как Айзек Азимов, роботы становились помощниками человека. Могут ли человек и робот мирно сосуществовать? Эта серия отвечает на вопрос, друзья нам роботы или враги.
06. Путешествия во времени / Time Travel
Идея путешествий во времени всегда была одной из центральных тем научной фантастики. Всем любопытно, что было в прошлом, и что ждет нас в будущем. Истории о путешествиях во времени дарят надежду, что мы откроем для себя новую хронологию событий, новые миры. Но как будет выглядеть альтернативное развитие событий, если изменить прошлое? После рассказа Рэя Брэдбери "И грянул гром" это явление получило название "эффекта бабочки" – любая мелочь или изменение в прошлом могут повлечь за собой самые непредсказуемые события в будущем. Ретроспектива научно-фантастических фильмов от "Назад в будущее" до "Дня сурка" наглядно продемонстрирует, как идея петли времени была популяризирована в кино.
Релиз от: kyba

RelizMAN

Post 14-Feb-2020 00:35

[Quote]

Информация о фильме
Название: Цинь Шихуанди, правитель вечной империи
Оригинальное название: Qin Shi Huang, King of Eternal Empire
Год выхода: 2019
Жанр: Документальный, история
Режиссер: Джонг Джэ-Ун
О фильме:
В сегодняшнем Китае 55 национальностей, а численность населения – миллиард триста миллионов человек. За минувшие две тысячи лет народ Китая не раз переживал кризис, но потом восстанавливался вновь. Сегодняшний Китай достиг величайшего экономического процветания в своей истории. По мнению, ученых системы и идеи, внедренные Цинь Шихуанди, до сих пор составляют основу его успеха. Поэтому нельзя познать Китай, не зная Цинь Шихуанди.
Страна: Южная Корея
Студия: EBS
Продолжительность: 2 x ~ 00:47:27
Перевод: Профессиональный (двухголосый закадровый) СВ-Дубль
Файл
Кодек: AVC/H.264
Качество: DVB
Видео: 720x576 (16:9) AVC (H.264) [email protected], ~ 2679 kbps, 25 fps
Звук: Русский 48 kHz, MPEG Layer 2, 2 ch, ~192.00 kbps avg
Субтитры: Русские, отключаемые
Семпл

Содержание

01. Чудо объединения.
Осенью двести двадцать первого года до нашей эры в Синьяне, столице царства Цинь состоялась самая значительная коронация в истории Китая. На трон восходил решительный и амбициозный правитель, недавно отметивший сорокалетие. Он объединил Китай, впервые в его истории, и завоевал территории, площадь которых в десять раз превосходила владения египетских фараонов. Он называл себя императором Цинь.
02. Мавзолей императора.
Этот человек провозгласил себя императором… Он заложил основы сегодняшнего Китая, создав законодательство, письменность и систему префектур. Но история была не на его стороне. О нём писали как о жестоком тиране, который хоронил людей заживо и строил грандиозные объекты – Великую Стену и собственный мавзолей. Жизнь этого императора вызывает много споров до сих пор. Император хотел навсегда остаться живым героем и легендой. Как он стал императором единой империи? И о какой вечной жизни он мечтал?
Релиз от: kyba

RelizMAN

Post 11-Feb-2020 00:35

[Quote]

Информация о фильме
Название: Как возводили Великую Китайскую стену
Оригинальное название: The Great Wall
Год выхода: 2020
Жанр: Документальный, история
Режиссер: Лян Жэньхун
О фильме:
На востоке Евразии от побережья Тихого океана до гор Памира проходит трансконтинентальная граница. На юго-востоке от неё – умеренный субтропический климат с сезоном дождей… На северо-западе – полузасушливые тропики. Двадцать три столетия на этих горах стоит выдающееся сооружение, созданное человеком. Это Великая Китайская стена.
Страна: Китай
Продолжительность: 00:49:59
Перевод: Профессиональный (одноголосый закадровый) СВ-Дубль
Файл
Кодек: AVC/H.264
Качество: DVB
Видео: 720x576 (16:9) AVC (H.264) [email protected], ~ 3112 kbps, 25 fps
Звук: Русский 48 kHz, MPEG Layer 2, 2 ch, ~192.00 kbps avg
Субтитры: Русские, отключаемые
Семпл

MediaInfo

Complete name : F:Наладки Как возводили Великую Китайскую стену.mkv
Format : Matroska
Format version : Version 4
File size : 1.18 GiB
Duration : 49 min 59 s
Overall bit rate : 3 371 kb/s
Encoded date : UTC 2020-02-10 17:03:07
Writing application : mkvmerge v6.6.0 ('The Edge Of The In Between') built on Dec 1 2013 17:55:00
Writing library : libebml v1.3.0 + libmatroska v1.4.1
Video
ID : 1
Format : AVC
Format/Info : Advanced Video Codec
Format profile : [email protected]
Format settings : CABAC / 4 Ref Frames
Format settings, CABAC : Yes
Format settings, Reference : 4 frames
Codec ID : V_MPEG4/ISO/AVC
Bit rate : 3 112 kb/s
Width : 720 pixels
Height : 576 pixels
Display aspect ratio : 16:9
Frame rate mode : Variable
Original frame rate : 25.000 FPS
Standard : Component
Color space : YUV
Chroma subsampling : 4:2:0
Bit depth : 8 bits
Scan type : Interlaced
Scan type, store method : Separated fields
Scan order : Top Field First
Default : Yes
Forced : No
Color range : Limited
Color primaries : BT.601 PAL
Transfer characteristics : BT.470 System B/G
Matrix coefficients : BT.470 System B/G
Audio
ID : 2
Format : MPEG Audio
Format version : Version 1
Format profile : Layer 2
Codec ID : A_MPEG/L2
Codec ID/Hint : MP2
Duration : 49 min 59 s
Bit rate mode : Constant
Bit rate : 192 kb/s
Channel(s) : 2 channels
Sampling rate : 48.0 kHz
Compression mode : Lossy
Stream size : 68.7 MiB (6%)
Language : Russian
Default : Yes
Forced : No
Text
ID : 3
Format : UTF-8
Codec ID : S_TEXT/UTF8
Codec ID/Info : UTF-8 Plain Text
Title : СВ-Дубль
Language : Russian
Default : No
Forced : No
Релиз от: kyba

RelizMAN

Post 08-Feb-2020 15:20

[Quote]

Информация о фильме
Название: Бегемоты – жизнь в воде
Оригинальное название: Hippos: Africa's River Giants
Год выхода: 2019
Жанр: Документальный, природа, флора, фауна
Режиссер: Бред Бестелинк
О фильме:
Бегемот – воплощенное противоречие. Большую часть времени он проводит в воде. Не хищник, но, в то же время, самое опасное животное в Африке, которого опасаются даже львы. Двухтонный гигант, способный бежать со скоростью оленя. С виду наивный и безмятежный, на самом деле коварен и агрессивен. Бегемоты шумны, враждебны, но в то же время смелы, чувствительные и забавны… И – очень хрупки, ведь их огромный организм не может жить без воды, которой в Африке немного. Эта история о бегемотах, обитающих в дельте реки Окаванго, удивительном симбиозе речного гиганта и водной экосистемы.
Страна: Великобритания
Студия: BBC Studios
Продолжительность: 00:52:38
Перевод: Профессиональный (одноголосый закадровый) СВ-Дубль
Файл
Кодек: AVC/H.264
Качество: DVB
Видео: 720x576 (16:9) AVC (H.264) [email protected], ~ 3707 kbps, 25 fps
Звук: Русский 48 kHz, MPEG Layer 2, 2 ch, ~192.00 kbps avg
Субтитры: Русские, отключаемые
Семпл

MediaInfo

Complete name : F:Наладки Бегемоты - жизнь в воде.mkv
Format : Matroska
Format version : Version 4
File size : 1.46 GiB
Duration : 52 min 38 s
Overall bit rate : 3 978 kb/s
Encoded date : UTC 2020-02-08 09:48:18
Writing application : mkvmerge v6.6.0 ('The Edge Of The In Between') built on Dec 1 2013 17:55:00
Writing library : libebml v1.3.0 + libmatroska v1.4.1
Video
ID : 1
Format : AVC
Format/Info : Advanced Video Codec
Format profile : [email protected]
Format settings : CABAC / 4 Ref Frames
Format settings, CABAC : Yes
Format settings, Reference : 4 frames
Codec ID : V_MPEG4/ISO/AVC
Bit rate : 3 707 kb/s
Width : 720 pixels
Height : 576 pixels
Display aspect ratio : 16:9
Frame rate mode : Variable
Original frame rate : 25.000 FPS
Standard : Component
Color space : YUV
Chroma subsampling : 4:2:0
Bit depth : 8 bits
Scan type : Interlaced
Scan type, store method : Separated fields
Scan order : Top Field First
Default : Yes
Forced : No
Color range : Limited
Color primaries : BT.601 PAL
Transfer characteristics : BT.470 System B/G
Matrix coefficients : BT.470 System B/G
Audio
ID : 2
Format : MPEG Audio
Format version : Version 1
Format profile : Layer 2
Codec ID : A_MPEG/L2
Codec ID/Hint : MP2
Duration : 52 min 38 s
Bit rate mode : Constant
Bit rate : 192 kb/s
Channel(s) : 2 channels
Sampling rate : 48.0 kHz
Compression mode : Lossy
Stream size : 72.3 MiB (5%)
Language : Russian
Default : Yes
Forced : No
Text
ID : 3
Format : UTF-8
Codec ID : S_TEXT/UTF8
Codec ID/Info : UTF-8 Plain Text
Title : СВ-Дубль
Language : Russian
Default : No
Forced : No

Скриншоты

Релиз от: kyba

RelizMAN

Post 05-Feb-2020 02:05

[Quote]

Информация о фильме
Название: Легендарный поход Ганнибала
Оригинальное название: Hannibal – A March on Rome
Год выхода: 2018
Жанр: Документальный, история
Режиссер: Карстен Гудшмидт
О фильме:
Ганнибал был одним из величайших героев древности. Уникальная военная операция сделала его имя бессмертным. Переход через Альпы, с огромной армией и легендарными боевыми слонами. Но ученые уже более двух тысяч лет спорят о том, где именно Ганнибал совершил переход через Альпы. Исследователи обнаружили новые данные, указывающие на его путь. Неужели карфагенский полководец выбрал еще более высокий и трудный маршрут, чем предполагали историки? Экспедиция отправляется на поиски подтверждения этой гипотезы и разгадки тайны, которая мучила историков несколько тысячелетий.
Страна: Германия
Студия: ZDF
Продолжительность: ~ 00:51:28
Перевод: Профессиональный (одноголосый закадровый) СВ-Дубль
Файл
Кодек: AVC/H.264
Качество: DVB
Видео: 720x576 (16:9) AVC (H.264) [email protected], ~ 2854 kbps, 25 fps
Звук: Русский 48 kHz, MPEG Layer 2, 2 ch, ~192.00 kbps avg
Субтитры: Русские, отключаемые
Семпл

MediaInfo

Complete name : F:Наладки Легендарный поход Ганнибала.mkv
Format : Matroska
Format version : Version 4
File size : 1.12 GiB
Duration : 51 min 28 s
Overall bit rate : 3 108 kb/s
Encoded date : UTC 2020-02-04 16:44:10
Writing application : mkvmerge v6.6.0 ('The Edge Of The In Between') built on Dec 1 2013 17:55:00
Writing library : libebml v1.3.0 + libmatroska v1.4.1
Video
ID : 1
Format : AVC
Format/Info : Advanced Video Codec
Format profile : [email protected]
Format settings : CABAC / 4 Ref Frames
Format settings, CABAC : Yes
Format settings, Reference : 4 frames
Codec ID : V_MPEG4/ISO/AVC
Bit rate : 2 854 kb/s
Width : 720 pixels
Height : 576 pixels
Display aspect ratio : 16:9
Frame rate mode : Variable
Original frame rate : 25.000 FPS
Standard : Component
Color space : YUV
Chroma subsampling : 4:2:0
Bit depth : 8 bits
Scan type : Interlaced
Scan type, store method : Separated fields
Scan order : Top Field First
Default : Yes
Forced : No
Color range : Limited
Color primaries : BT.601 PAL
Transfer characteristics : BT.470 System B/G
Matrix coefficients : BT.470 System B/G
Audio
ID : 2
Format : MPEG Audio
Format version : Version 1
Format profile : Layer 2
Codec ID : A_MPEG/L2
Codec ID/Hint : MP2
Duration : 51 min 28 s
Bit rate mode : Constant
Bit rate : 192 kb/s
Channel(s) : 2 channels
Sampling rate : 48.0 kHz
Compression mode : Lossy
Stream size : 70.7 MiB (6%)
Language : Russian
Default : Yes
Forced : No
Text
ID : 3
Format : UTF-8
Codec ID : S_TEXT/UTF8
Codec ID/Info : UTF-8 Plain Text
Title : СВ-Дубль
Language : Russian
Default : No
Forced : No
Релиз от: kyba

RelizMAN

Post 01-Feb-2020 19:20

[Quote]

Информация о фильме
Название: Блистательные стрекозы
Оригинальное название: Dragons and Damsels
Год выхода: 2019
Жанр: Документальный, природа, флора, фауна
Режиссер: Стив Николлс
О фильме:
Стрекозы живут на Земле с незапамятных времен. Они летают над реками и озерами уже 330 миллионов лет. Причину такого долгого существования на планете Земля можно найти, понаблюдав за жизнью стрекоз. Эти небольшие существа могут нам многое рассказать.
Страна: Австрия
Студия: Terra Mater Factual Studios
Продолжительность: 00:50:04
Перевод: Профессиональный (двухголосый закадровый) СВ-Дубль
Файл
Кодек: AVC/H.264
Качество: DVB
Видео: 720x576 (16:9) AVC (H.264) [email protected], ~ 2302 kbps, 25 fps
Звук: Русский 48 kHz, MPEG Layer 2, 2 ch, ~192.00 kbps avg
Субтитры: Русские, отключаемые
Семпл

MediaInfo

Complete name : F:Наладки Блистательные стрекозы.mkv
Format : Matroska
Format version : Version 4
File size : 911 MiB
Duration : 50 min 3 s
Overall bit rate : 2 545 kb/s
Encoded date : UTC 2020-02-01 09:58:20
Writing application : mkvmerge v6.6.0 ('The Edge Of The In Between') built on Dec 1 2013 17:55:00
Writing library : libebml v1.3.0 + libmatroska v1.4.1
Video
ID : 1
Format : AVC
Format/Info : Advanced Video Codec
Format profile : [email protected]
Format settings : CABAC / 4 Ref Frames
Format settings, CABAC : Yes
Format settings, Reference : 4 frames
Codec ID : V_MPEG4/ISO/AVC
Bit rate : 2 302 kb/s
Width : 720 pixels
Height : 576 pixels
Display aspect ratio : 16:9
Frame rate mode : Variable
Original frame rate : 25.000 FPS
Standard : Component
Color space : YUV
Chroma subsampling : 4:2:0
Bit depth : 8 bits
Scan type : Interlaced
Scan type, store method : Separated fields
Scan order : Top Field First
Default : Yes
Forced : No
Color range : Limited
Color primaries : BT.601 PAL
Transfer characteristics : BT.470 System B/G
Matrix coefficients : BT.470 System B/G
Audio
ID : 2
Format : MPEG Audio
Format version : Version 1
Format profile : Layer 2
Codec ID : A_MPEG/L2
Codec ID/Hint : MP2
Duration : 50 min 3 s
Bit rate mode : Constant
Bit rate : 192 kb/s
Channel(s) : 2 channels
Sampling rate : 48.0 kHz
Compression mode : Lossy
Stream size : 68.8 MiB (8%)
Language : Russian
Default : Yes
Forced : No
Text
ID : 3
Format : UTF-8
Codec ID : S_TEXT/UTF8
Codec ID/Info : UTF-8 Plain Text
Title : СВ-Дубль
Language : Russian
Default : No
Forced : No
Релиз от: kyba

RelizMAN

Post 31-Jan-2020 22:20

[Quote]

Информация о фильме
Название: Намедни, Живой Пушкин, Российская Империя, Война в Kрыму - всё в дыму, Птица-Гоголь, Хребет России, Русские евреи
Год выхода: 1997-2017
Жанр: документальный, исторический, историко-биографический
Режиссер: Джаник Файзиев, Алексей Попов, Станислав Сидоров, Антон Мегердичев, Юрий Мелюшин, Иван Скворцов, Игорь Жариков, Константин Баранов, Дмитрий Крылов, Вера Сторожевая, Антон Рудин, Сергей Нурмамед, Иван Скворцов, Андрей Лазарев
В ролях:
Леонид Парфенов, Земфира Рамазанова, Олег Табаков, Александр Калягин, Евгений Миронов, Лия Ахеджакова, Богдан Ступка (Птица-Гоголь)
Леонид Парфенов, Владимир Довжик, Екатерина Гусева, Олеся Судзиловская, Владимир Ершов, Алла Мещерякова, Инга Стрелкова, Сергей Попов, Нина Варварина, Владимир Мышкин, Рома Авраменко, Оля Попова (Живой Пушкин)
О фильме: Леонид Геннадьевич Парфёнов — советский и российский журналист, писатель, телеведущий, режиссёр и актёр, сценарист, общественный деятель. В раздаче выложены его авторские телепроекты на историческую и историко-биографическую тематику.

Намедни 1946-2003: Наша эра

Цикл документальных телевизионных передач по истории СССР и России во второй половине XX века и начале XXI века на телеканале «НТВ». Автор и ведущий — Леонид Парфёнов. Каждая серия посвящена событиям, людям и явлениям в СССР и России с 1946 по 2003 год.

Живой Пушкин

Проект, подготовленный к 200-летию со дня рождения поэта. Это документальный рассказ о жизни поэта и той эпохе, что вошла в историю под названием "пушкинской". От серии к серии жизнь Пушкина предстает перед нами в виде подлинной "энциклопедии русской жизни": воспоминания крепостных крестьян соседствуют с фрагментами писем Пушкина; ведущий рассказывает о дуэльном кодексе, о работе тайной полиции, правилах ссылки, традициях пития и рынке напитков, об Императорском театре и ярмарках невест… Фильм повествует о таких фактах, которые способны разрушить стереотипы, связанные с биографией и творчеством поэта, показать в новом свете его удивительную жизнь и раскрыть таинственные обстоятельства его смерти.

Российская Империя

Документальный сериал производства телекомпании НТВ, в котором представлен современный взгляд на историю российского государства с 1697 по 1917 год. Автор и ведущий — Леонид Парфёнов. Каждая из 16 частей посвящена периоду правления одного или нескольких монархов от Петра I до Николая II. Авторы проекта сознательно отказались от формата «занудной исторической лекции» — через века и границы Парфёнов в свойственной ему манере дерзко обращается непосредственно к материалу, ставшему достоянием истории. Все исторические свидетельства за кадром озвучивали народная артистка России Алла Демидова и тележурналист Елизавета Листова. Как и в других авторских проектах Леонида Парфёнова, в «Российской империи» широко используются современная на момент выхода компьютерная графика, а также спецэффекты, анимация и виртуальные географические карты.

Война в Kрыму - всё в дыму

9 сентября - день памяти русских воинов, павших при обороне Севастополя и в Kрымской войне 1853-1856 годов. После Kрымской войны осталась присказка «Война в Kрыму - все в дыму». Чтобы развеять этот дым Леонид Парфенов решил снять фильм-реконструкцию. Документальный фильм, получился «многослойный», многоножанровый и новаторский. «150 лет это, с одной стороны, довольно давно, а с другой, до этого времени еще можно «дотянуться рукой» - говорит автор. Никто не мог рассказать лучше о событиях и судьбоносных решениях того времени, как прямые потомки непосредственных участников Kрымской войны. В фильме есть взгляд историка, взгляд изнутри, а также истории людей того времени - карьеристов и «трудяг», которые обросли легендами - вдохновителями обороны Севастополя были известные адмиралы - полководцы: Нахимов, Корнилов, Истомин. Война прославила имена многих защитников города, известный хирург Пирогов, матрос Кошка, медсестра Даша Севастопольская. В фильме приняли участие пра-правнук Николая I Николай Романович Романов, пра-пра-правнук Фицроя Раглана Фицрой Раглан-младший и потомок Льва Толстого Владимир Ильич Толстой. «Эти люди сохранили черты породы, фамильные носы, лбы, жесты, и образ мыслей, именно им удалось сделать эту историю современной, они выступили связующим звеном между этим тысячелетием и тем», - рассказывает Леонид Парфенов. 13 сентября 1854г. считается началом 349-дневной обороны Севастополя. Оборона Севастополя носила активный характер. Об этом свидетельствуют постоянные вылазки в стан врага, сражения за оборонительными рубежами. Одно из наиболее кровопролитных сражений произошло в районе Балаклавы. 25 октября 1854 г. "Долина смерти" - так стали называть это место после сражения, в котором погибли представители самых аристократических родов Великобритании.

Птица-Гоголь

Эта биографическая картина к 200-летию Николая Васильевича Гоголя, снята в неповторимой авторской стилистике Леонида Парфенова. Документальный проект показывает автора «Мертвых душ», «Ревизора» и «Тараса Бульбы» вовсе не основателем реализма в русской литературе, а модным и актуальным писателем-авангардистом, рождавшем произведения доселе небывалые, исполненные волшебства и фантасмагорий. История жизни великого писателя предстает перед зрителем в сказочном, комфортном оформлении, постоянные путешествия Гоголя по миру, поиск своего угла, мы словно проживаем вместе с ним. Леонид Парфенов словно берет тебя за руку, сажает рядом с собой в "машину времени" и пошло-поехало, как на птице-тройке: Украина, Санкт-Петербург, Париж, Рим, Москва, и снова Рим, восхитительная "Северная Пальмира", "Первопрестольная, деревянная". Парфенов выдает свое главное телевизионное блюдо года и отличную биографию гения.

Хребет России

Проект Леонида Парфёнова и Алексея Иванова «Хребет России», представляет собой историко-географическое путешествие по Уралу. Одновременно, по заказу правительства Пермского края, Леонид Парфёнов и Алексей Иванов сняли презентационный фильм, посвященный всему Уральскому региону. За один год телеведущий Леонид Парфёнов и пермский писатель Алексей Иванов приняли участие в восьми экспедициях, преодолев 20 тысяч километров и посетив 112 городов и поселков всего Урала. Фильм повествует об истории покорения и освоения русскими Урала и Сибири в XV-XIX веках. Основной акцент авторы сделали на истории освоения предгорий и гор Уральского горного хребта на территории современного Пермского края, однако, съёмки фильма также проходили на территории Свердловской, Челябинской, Тюменской областей и республики Башкортостан. Фильм состоит из четырёх серий и выходил по вторникам. Повествование в фильме охватывает четыре с лишним столетия и завершается эпохой советских первых пятилеток и ГУЛАГа.

Русские евреи

В первом фильме трилогии ведущий сопровождает зрителя от Киева, «матери городов русских», где уже в XI веке имелся еврейский квартал, до столичного Петрограда 1917 года. При Екатерине II Россия стала страной с самым большим еврейским населением, а с XIX века «чужие всем и считающие всех чужими» инородцы преодолевают самоизоляцию. Фильм рассказывает о традиционном еврейском укладе жизни и о том, как порывали с ним будущие знаменитые финансисты и промышленники, ученые, деятели искусства, революционеры. О том, как в иностранные языки вошло русское слово pogrom, о «деле Бейлиса», о первой волне эмиграции. Об эсерах и большевиках, расшатавших царский строй, о ближайших соратниках Ленина, вершивших историю страны в октябре 1917 года. О дальнейшей судьбе и самоидентификации «русских евреев» в России и за ее пределами расскажут два следующих фильма трилогии.
Второй фильм запланированной трилогии охватывает тридцатилетие с 1918 по 1948 годы. Невиданное до того времени ни в одной стране мира яркое и массовое еврейское участие во всех сферах государственной политики и культуры. Второй после Ленина вождь Лев Троцкий — основной строитель Красной армии, и основной строитель красного тыла Яков Свердлов, ответственный за «установление советской власти на местах». Витебский комиссар по делам искусств Марк Шагал. Создатели нового киноязыка Сергей Эйзенштейн и Дзига Вертов, мастера фотографии Моисей Напельбаум и Аркадий Шайхет, прижизненные классики легкой музыки Матвей Блантер и Исаак Дунаевский.
С убийства в 1948 году госбезопасностью главы Еврейского антифашистского комитета Соломона Михоэлса начинаются новые времена во взаимоотношениях советской власти и евреев. Ликвидация ЕАК, расстрел его активистов и кампания борьбы с «безродными космополитами» оформляют новый государственный антисемитизм. «Дело врачей» — новый кровавый навет. Смерть Сталина отменит расправу, но былая официальная русско-еврейская гармония при социализме уже не восстановится.
Страна: Россия
Студия: НТВ, Первый канал, Студия "Намедни"
Продолжительность: 58 x 00:35:00-01:10:00 (Намедни); 9 x 00:50:00-03:10:00 (Российская Империя); 3 x 01:26:00-02:00:00 (Русские евреи); 02:31:25 (Война в Kрыму); 03:21:26 (Живой Пушкин); 02:28:36 (Птица-Гоголь); 02:50:24 (Хребет России)
Дополнительная информация: Вместо разделения на файлы-серии каждый фильм в раздаче объединён в один mkv-файл с внутренним разделением на части (через Главы). Там, где разделение на Главы уже было в DVD-исходнике, оно перенесено и в конечный mkv-файл.
Файл
Кодек: H.264
Качество: DVDRip-AVC, WEBRip-AVC, TVRip-AVC
Видео: MPEG-4 (AVC), ~ [email protected], 29.970 fps, ~ 1800 kbps, ~ 0.18 bit/pixel (Российская Империя)
MPEG-4 (AVC), ~ [email protected], 25 fps, ~ 1600 kbps, ~ 0.16 bit/pixel (Намедни (1961-2003 гг.))
MPEG-4 (AVC), [email protected], 25 fps, ~ 1700 kbps, ~ 0.18 bit/pixel (Война в Kрыму - Всё в дыму)
MPEG-4 (AVC), [email protected], 25 fps, ~ 1800 kbps, ~ 0.19 bit/pixel (Живой Пушкин)
MPEG-4 (AVC), [email protected], 25 fps, ~ 1900 kbps, ~ 0.25 bit/pixel (Птица-Гоголь)
MPEG-4 (AVC), [email protected], 25 fps, ~ 1600 kbps, ~ 0.19 bit/pixel (Хребет России)
MPEG-4 (AVC), 1024x576, 25 fps, ~ 1600 kbps, ~ 0.11 bit/pixel (Русские евреи, Намедни (1946-1960 гг.))
Звук: AC3, 2 ch, 192 kbps, 48.0 kHz

RelizMAN

Post 27-Jan-2020 01:35

[Quote]

Информация о фильме
Название: Звезда жизни и смерти
Год выхода: 2020
Жанр: Документальный, космос
Режиссер: Виктор Ющенко
О фильме:
На протяжении миллиардов лет оно ежедневно поднимается над горизонтом, пробуждая своим теплом и светом все живое на Земле. Принимая пищу или заводя двигатель автомобиля, мы используем продукт солнечных лучей: растения, нефть, газ, даже кислород, необходимый для дыхания, – результат фотосинтеза, невозможного без Солнца. И сами мы – его частица, его порождение. Но Солнце и безжалостно. В любой момент оно может нанести нам смертельный удар. И чем технологичнее общество, тем ощутимее он будет для человечества. Для выживания цивилизации мы должны понять законы Солнца, научиться предсказывать малейшие изменения на его поверхности и защищаться от его агрессии.
Страна: Россия
Студия: ГОЛД МЕДИУМ, ВГТРК
Продолжительность: 00:39:09
Перевод: Не требуется
Файл
Кодек: AVC/H.264
Качество: DVB
Видео: 720x576 (16:9) AVC (H.264) [email protected], ~ 2835 kbps, 25 fps
Звук: Русский 48 kHz, MPEG Layer 2, 2 ch, ~192.00 kbps avg
Субтитры: Русские, отключаемые
Семпл

MediaInfo

Complete name : F:НаладкиЗвезда жизни и смерти.mkv
Format : Matroska
Format version : Version 4
File size : 865 MiB
Duration : 39 min 9 s
Overall bit rate : 3 088 kb/s
Encoded date : UTC 2020-01-26 16:08:42
Writing application : mkvmerge v6.6.0 ('The Edge Of The In Between') built on Dec 1 2013 17:55:00
Writing library : libebml v1.3.0 + libmatroska v1.4.1
Video
ID : 1
Format : AVC
Format/Info : Advanced Video Codec
Format profile : [email protected]
Format settings : CABAC / 4 Ref Frames
Format settings, CABAC : Yes
Format settings, Reference : 4 frames
Codec ID : V_MPEG4/ISO/AVC
Duration : 39 min 9 s
Bit rate : 2 835 kb/s
Width : 720 pixels
Height : 576 pixels
Display aspect ratio : 16:9
Frame rate mode : Constant
Frame rate : 25.000 FPS
Standard : Component
Color space : YUV
Chroma subsampling : 4:2:0
Bit depth : 8 bits
Scan type : Interlaced
Scan type, store method : Separated fields
Scan order : Top Field First
Bits/(Pixel*Frame) : 0.273
Stream size : 794 MiB (92%)
Default : Yes
Forced : No
Color range : Limited
Color primaries : BT.601 PAL
Transfer characteristics : BT.470 System B/G
Matrix coefficients : BT.470 System B/G
Audio
ID : 2
Format : MPEG Audio
Format version : Version 1
Format profile : Layer 2
Codec ID : A_MPEG/L2
Codec ID/Hint : MP2
Duration : 39 min 9 s
Bit rate mode : Constant
Bit rate : 192 kb/s
Channel(s) : 2 channels
Sampling rate : 48.0 kHz
Compression mode : Lossy
Stream size : 53.8 MiB (6%)
Language : Russian
Default : Yes
Forced : No
Text
ID : 3
Format : UTF-8
Codec ID : S_TEXT/UTF8
Codec ID/Info : UTF-8 Plain Text
Title : СВ-Дубль
Language : Russian
Default : No
Forced : No

Скриншоты

Релиз от: kyba

RelizMAN

Post 25-Jan-2020 18:35

[Quote]

Информация о фильме
Название: Древний остров Борнео
Оригинальное название: Borneo – Earth’s Ancient Eden
Год выхода: 2019
Жанр: Документальный, природа, флора, фауна
Режиссер: Мэтт Хэмилтон
О фильме:
Рассказ о старейших на Земле влажных тропических лесах, о древнем острове, где живут огромные обезьяны и маленькие медведи, растения-убийцы и медузы-фермеры. Где продолжительность дня никогда не меняется, сила солнца никогда не ослабевает, и обильные дожди создают, казалось бы, идеальные условия для жизни. Но не заблуждайтесь. Захватывающее дух разнообразие острова рождено не изобилием, а крайне неблагоприятной обстановкой и напряжённой борьбой за существование, которая порождает причудливые виды и необычные отношения.
Страна: Австрия
Студия: Terra Mater Factual Studios
Продолжительность: 00:49:39
Перевод: Профессиональный (одноголосый закадровый) СВ-Дубль
Файл
Кодек: AVC/H.264
Качество: DVB
Видео: [email protected] (16:9) AVC (H.264) [email protected], ~ 3090 kbps, 25 fps
Звук: Русский 48 kHz, MPEG Layer 2, 2 ch, ~192.00 kbps avg
Субтитры: Русские, отключаемые
Семпл

MediaInfo

Complete name : F:НаладкиДревний остров Борнео.mkv
Format : Matroska
Format version : Version 4
File size : 1.16 GiB
Duration : 49 min 39 s
Overall bit rate : 3 348 kb/s
Encoded date : UTC 2020-01-25 10:10:41
Writing application : mkvmerge v6.6.0 ('The Edge Of The In Between') built on Dec 1 2013 17:55:00
Writing library : libebml v1.3.0 + libmatroska v1.4.1
Video
ID : 1
Format : AVC
Format/Info : Advanced Video Codec
Format profile : [email protected]
Format settings : CABAC / 4 Ref Frames
Format settings, CABAC : Yes
Format settings, Reference : 4 frames
Codec ID : V_MPEG4/ISO/AVC
Duration : 49 min 39 s
Bit rate : 3 090 kb/s
Width : 720 pixels
Height : 576 pixels
Display aspect ratio : 16:9
Frame rate mode : Constant
Frame rate : 25.000 FPS
Standard : Component
Color space : YUV
Chroma subsampling : 4:2:0
Bit depth : 8 bits
Scan type : Interlaced
Scan type, store method : Separated fields
Scan order : Top Field First
Bits/(Pixel*Frame) : 0.298
Stream size : 1.07 GiB (92%)
Default : Yes
Forced : No
Color range : Limited
Color primaries : BT.601 PAL
Transfer characteristics : BT.470 System B/G
Matrix coefficients : BT.470 System B/G
Audio
ID : 2
Format : MPEG Audio
Format version : Version 1
Format profile : Layer 2
Codec ID : A_MPEG/L2
Codec ID/Hint : MP2
Duration : 49 min 39 s
Bit rate mode : Constant
Bit rate : 192 kb/s
Channel(s) : 2 channels
Sampling rate : 48.0 kHz
Compression mode : Lossy
Stream size : 68.2 MiB (6%)
Language : Russian
Default : Yes
Forced : No
Text
ID : 3
Format : UTF-8
Codec ID : S_TEXT/UTF8
Codec ID/Info : UTF-8 Plain Text
Title : СВ-Дубль
Language : Russian
Default : No
Forced : No
Релиз от: kyba

RelizMAN

Post 18-Jan-2020 19:05

[Quote]

Информация о фильме
Название: Воспоминания слона
Оригинальное название: Memoirs of an Elephant
Год выхода: 2018
Жанр: Документальный, природа, флора, фауна
Режиссер: Жан-Марк Дофен
О фильме:
Когда ты старый слон, и тебе приходится доживать последние дни в одиночестве, тебе есть, что вспомнить: свое беззаботное детство, веселую юность и любящую семью.
Страна: Франция
Студия: AMPERSAND
Продолжительность: 00:50:33
Перевод: Профессиональный (одноголосый закадровый) СВ-Дубль
Файл
Кодек: AVC/H.264
Качество: DVB
Видео: [email protected] (16:9) AVC (H.264) [email protected], ~ 4998 kbps, 25 fps
Звук: Русский 48 kHz, MPEG Layer 2, 2 ch, ~192.00 kbps avg
Субтитры: Русские, отключаемые
Семпл

MediaInfo

Complete name : F:Наладки Воспоминания слона.mkv
Format : Matroska
Format version : Version 4
File size : 1.87 GiB
Duration : 50 min 33 s
Overall bit rate : 5 295 kb/s
Encoded date : UTC 2020-01-18 09:50:52
Writing application : mkvmerge v6.6.0 ('The Edge Of The In Between') built on Dec 1 2013 17:55:00
Writing library : libebml v1.3.0 + libmatroska v1.4.1
Video
ID : 1
Format : AVC
Format/Info : Advanced Video Codec
Format profile : [email protected]
Format settings : CABAC / 4 Ref Frames
Format settings, CABAC : Yes
Format settings, Reference : 4 frames
Codec ID : V_MPEG4/ISO/AVC
Bit rate : 4 998 kb/s
Width : 720 pixels
Height : 576 pixels
Display aspect ratio : 16:9
Frame rate mode : Variable
Original frame rate : 25.000 FPS
Standard : Component
Color space : YUV
Chroma subsampling : 4:2:0
Bit depth : 8 bits
Scan type : Interlaced
Scan type, store method : Separated fields
Scan order : Top Field First
Default : Yes
Forced : No
Color range : Limited
Color primaries : BT.601 PAL
Transfer characteristics : BT.470 System B/G
Matrix coefficients : BT.470 System B/G
Audio
ID : 2
Format : MPEG Audio
Format version : Version 1
Format profile : Layer 2
Codec ID : A_MPEG/L2
Codec ID/Hint : MP2
Duration : 50 min 33 s
Bit rate mode : Constant
Bit rate : 192 kb/s
Channel(s) : 2 channels
Sampling rate : 48.0 kHz
Compression mode : Lossy
Stream size : 69.4 MiB (4%)
Language : Russian
Default : Yes
Forced : No
Text
ID : 3
Format : UTF-8
Codec ID : S_TEXT/UTF8
Codec ID/Info : UTF-8 Plain Text
Language : Russian
Default : No
Forced : No
Релиз от: kyba

RelizMAN

Post 15-Jan-2020 05:35

[Quote]

Название: Секретные базы нацистов
Оригинальное название: Secret Nazi Bases
Год выпуска: 2019
Жанр: Документальный, история, инженерия, строительство
Выпущено: Канада, Discovery Channel
В ролях: Джеймс Макфи, Роб Белл, Патрик Ней
О фильме: Потерпев крах в 1945 году, нацисты оставили после себя множество неразгаданных тайн. Мрачные тоннели, огневые башни, фортификационные укрепления и узлы связи по всему миру до сих пор скрывают правду о страшных планах и амбициозных мечтах Гитлера. Какие секреты хранят бункеры и дозорные вышки на острове Гернси? Что делали войска немецкой армии в доме на Канарских островах? В этой программе вас ждут истории о самых необычных и засекреченных базах нацистов, а эксперты расскажут всё об их назначении и устройстве.

Официальный сайт
Качество: HDTVRip
Видео: XviD, ~ 1600 Кбит/с, 720x400
Аудио: AC3, 2 ch, 192 Кбит/с
Продолжительность: 1 x ~ 00:44:00
Перевод: Профессиональный (двухголосый, закадровый)

[color=blue]Скриншоты[/color]



[color=blue]Внимание! Раздача ведётся путём добавления новых серий![/color]

Внимание! Раздача ведётся путём добавления новых серий; при каждом добавлении создfётся новый торрент. Чтобы начать докачку новой серии, пользователям необходимо сделать следующее: (1) остановить скачивание, (2) удалить старый торрент у себя из клиента (старые серии удалять не надо), (3) скачать новый торрент и запустить его у себя в клиенте вместо старого, при этом указать клиенту путь в старую папку куда и должно происходить скачивание новых серий.
Ваш клиент при этом должен произвести хеширование (проверку) старой папки (если не производит сам - помогите ему сделать это), и будет докачивать только те серии которых у вас ещё нет. Старые серии при этом не удаляются, а продолжают раздаваться!
Eсли вы уже удалили старые серии, то предотвратить повторную закачку старых серий можно, отжав галочку в соответсвующих местах при запуске нового торрента.
Благодарю за постер ValkiriaGF
Релиз от:
 

Current time is: 27-Feb 11:20

All times are UTC + 3