Reply to topic
DL-List and Torrent activity [Update пиров]
Size:  390 MB   |    Registered:  1 year 4 months   |    Completed:  0 times
Seeders:  308  [  0 KB/s  ]   Leechers:  4  [  0 KB/s  ]  
 
     
 
 
Author Message

Vi$itReal ®

12

Post 19-Apr-2018 08:40

[Quote]

Scary Movie: Music That Inspired The Soundtrack? / Очень страшное кино
Жанр: Score
Год выпуска диска: 2000
Страна-производитель диска: США
Издатель (лейбл): TVT Soundtrax
Номер по каталогу: EPC 501045 2
Аудиокодек: FLAC (*.flac)
Тип рипа: tracks+.cue
Битрейт аудио: lossless
Продолжительность: 00:55:04
Источник: hosewater
Наличие сканов в содержимом раздачи: 96 dpi (non cd)
Треклист:
01. Fountains of Wayne - Too Cool For School (2:28)
02. The Bloodhound Gang - The Inevitable Return Of The Great White Dope (3:54)
03. Radford - Stay (3:56)
04. Save Ferris - The Only Way To Be (3:20)
05. Oleander - My Bad (3:23)
06. Silverchair - Punk Song #2 (2:46)
07. The Unband - Everybody Wants You (4:12)
08. Bender - Superfly (2:55)
09. Ramones - I Wanna Be Sedated (2:32)
10. Royce The 5'9' - Scary Movies (Sequel) (3:46)
11. Tupac Shakur feat. Top Dogg, Nate Dogg & Dru Down - All About U (4:35)
12. Black Eyed Peas - I Want Cha (4:37)
13. Public Enemy - What What (5:03)
14. Rah Digga, Rampage & Rock - Feel Me (3:50)
14. Rah Digga, Rampage & Rock - Feel Me (3:50)
15. Lifelong feat. Incident - I'm The Killer (Killer Rap) (3:57)-

Лог создания рипа (.log)

Exact Audio Copy V1.0 beta 3 from 29. August 2011
EAC extraction logfile from 13. February 2015, 18:34
Various / Scary Movie: Music That Inspired The Soundtrack
Used drive : hp DVD RAM UJ8C2 Adapter: 0 ID: 0
Read mode : SecureUtilize accurate stream : YesDefeat audio cache : YesMake use of C2 pointers : No
Read offset correction : 103Overread into Lead-In and Lead-Out : NoFill up missing offset samples with silence : YesDelete leading and trailing silent blocks : NoNull samples used in CRC calculations : YesUsed interface : Native Win32 interface for Win NT & 2000Gap handling : Appended to previous track
Used output format : User Defined EncoderSelected bitrate : 1024 kBit/sQuality : HighAdd ID3 tag : NoCommand line compressor : C:\Program Files (x86)\Exact Audio Copy\Flac\flac.exeAdditional command line options : -8 -V -T "ARTIST=%artist%" -T "TITLE=%title%" -T "ALBUM=%albumtitle%" -T "DATE=%year%" -T "TRACKNUMBER=%tracknr%" -T "GENRE=%genre%" -T "PERFORMER=%albuminterpret%" -T "COMPOSER=%composer%" %haslyrics%--tag-from-file=LYRICS="%lyricsfile%"%haslyrics% -T "ALBUMARTIST=%albumartist%" -T "DISCNUMBER=%cdnumber%" -T "TOTALDISCS=%totalcds%" -T "TOTALTRACKS=%numtracks%" -T "COMMENT=%comment%" %source% -o %dest%
TOC of the extracted CD
Track | Start | Length | Start sector | End sector --------------------------------------------------------- 1 | 0:00.00 | 2:27.57 | 0 | 11081 2 | 2:27.57 | 3:53.60 | 11082 | 28616 3 | 6:21.42 | 3:56.03 | 28617 | 46319 4 | 10:17.45 | 3:20.10 | 46320 | 61329 5 | 13:37.55 | 3:22.47 | 61330 | 76526 6 | 17:00.27 | 2:46.25 | 76527 | 89001 7 | 19:46.52 | 4:11.55 | 89002 | 107881 8 | 23:58.32 | 2:55.03 | 107882 | 121009 9 | 26:53.35 | 2:31.62 | 121010 | 132396 10 | 29:25.22 | 3:46.33 | 132397 | 149379 11 | 33:11.55 | 4:34.57 | 149380 | 169986 12 | 37:46.37 | 4:37.03 | 169987 | 190764 13 | 42:23.40 | 5:03.32 | 190765 | 213521 14 | 47:26.72 | 3:49.55 | 213522 | 230751 15 | 51:16.52 | 3:57.18 | 230752 | 248544
Track 1
Filename C:\EAC Rips\Various - Scary Movie (2000) [FLAC]\01 - Fountains of Wayne - Too Cool For School.wav
Pre-gap length 0:00:02.00
Peak level 98.7 % Extraction speed 2.1 X Track quality 100.0 % Test CRC 62191644 Copy CRC 62191644 Accurately ripped (confidence 3) [674E5FE0] (AR v2) Copy OK
Track 2
Filename C:\EAC Rips\Various - Scary Movie (2000) [FLAC]\02 - The Bloodhound Gang - The Inevitable Return Of The Great White Dope.wav
Peak level 98.8 % Extraction speed 2.5 X Track quality 100.0 % Test CRC BF144BAC Copy CRC BF144BAC Accurately ripped (confidence 3) [7C837437] (AR v2) Copy OK
Track 3
Filename C:\EAC Rips\Various - Scary Movie (2000) [FLAC]\03 - Radford - Stay.wav
Peak level 90.1 % Extraction speed 2.1 X Track quality 99.9 % Test CRC 8A992D31 Copy CRC 8A992D31 Accurately ripped (confidence 3) [4FAA772D] (AR v2) Copy OK
Track 4
Filename C:\EAC Rips\Various - Scary Movie (2000) [FLAC]\04 - Save Ferris - The Only Way To Be.wav
Peak level 98.8 % Extraction speed 2.9 X Track quality 100.0 % Test CRC BAD98F12 Copy CRC BAD98F12 Accurately ripped (confidence 3) [11376677] (AR v2) Copy OK
Track 5
Filename C:\EAC Rips\Various - Scary Movie (2000) [FLAC]\05 - Oleander - My Bad.wav
Peak level 98.7 % Extraction speed 3.1 X Track quality 100.0 % Test CRC A561A112 Copy CRC A561A112 Accurately ripped (confidence 3) [E933CAC1] (AR v2) Copy OK
Track 6
Filename C:\EAC Rips\Various - Scary Movie (2000) [FLAC]\06 - Silverchair - Punk Song #2.wav
Peak level 88.1 % Extraction speed 2.1 X Track quality 99.9 % Test CRC E07AB0BA Copy CRC E07AB0BA Accurately ripped (confidence 3) [59C13E16] (AR v2) Copy OK
Track 7
Filename C:\EAC Rips\Various - Scary Movie (2000) [FLAC]\07 - The Unband - Everybody Wants You.wav
Peak level 91.6 % Extraction speed 3.5 X Track quality 100.0 % Test CRC F3B89CCC Copy CRC F3B89CCC Accurately ripped (confidence 3) [A41467B9] (AR v2) Copy OK
Track 8
Filename C:\EAC Rips\Various - Scary Movie (2000) [FLAC]\08 - Bender - Superfly.wav
Peak level 88.1 % Extraction speed 3.5 X Track quality 100.0 % Test CRC ED564A9D Copy CRC ED564A9D Accurately ripped (confidence 3) [0C486B6B] (AR v2) Copy OK
Track 9
Filename C:\EAC Rips\Various - Scary Movie (2000) [FLAC]\09 - Ramones - I Wanna Be Sedated.wav
Peak level 97.7 % Extraction speed 3.5 X Track quality 100.0 % Test CRC 5402DAD3 Copy CRC 5402DAD3 Accurately ripped (confidence 3) [BA6C6CE7] (AR v2) Copy OK
Track 10
Filename C:\EAC Rips\Various - Scary Movie (2000) [FLAC]\10 - Royce The 5'9'' - Scary Movies (Sequel).wav
Peak level 98.8 % Extraction speed 3.9 X Track quality 100.0 % Test CRC B841695D Copy CRC B841695D Accurately ripped (confidence 3) [78AF60BB] (AR v2) Copy OK
Track 11
Filename C:\EAC Rips\Various - Scary Movie (2000) [FLAC]\11 - Tupac Shakur feat. Top Dogg, Nate Dogg & Dru Down - All About U.wav
Peak level 96.6 % Extraction speed 4.1 X Track quality 100.0 % Test CRC 5A3B9529 Copy CRC 5A3B9529 Accurately ripped (confidence 3) [C7E0C696] (AR v2) Copy OK
Track 12
Filename C:\EAC Rips\Various - Scary Movie (2000) [FLAC]\12 - Black Eyed Peas - I Want Cha.wav
Peak level 98.7 % Extraction speed 4.3 X Track quality 100.0 % Test CRC A609BF15 Copy CRC A609BF15 Accurately ripped (confidence 3) [14746A25] (AR v2) Copy OK
Track 13
Filename C:\EAC Rips\Various - Scary Movie (2000) [FLAC]\13 - Public Enemy - What What.wav
Peak level 98.8 % Extraction speed 3.5 X Track quality 99.9 % Test CRC 518E0E81 Copy CRC 518E0E81 Accurately ripped (confidence 3) [052B7456] (AR v2) Copy OK
Track 14
Filename C:\EAC Rips\Various - Scary Movie (2000) [FLAC]\14 - Rah Digga, Rampage & Rock - Feel Me.wav
Peak level 98.7 % Extraction speed 3.3 X Track quality 99.9 % Test CRC 68292482 Copy CRC 68292482 Accurately ripped (confidence 3) [5F6F2E04] (AR v2) Copy OK
Track 15
Filename C:\EAC Rips\Various - Scary Movie (2000) [FLAC]\15 - Lifelong feat. Incident - I'm The Killer (Killer Rap).wav
Peak level 98.7 % Extraction speed 4.7 X Track quality 100.0 % Test CRC 339E703B Copy CRC 339E703B Accurately ripped (confidence 3) [F3D0C100] (AR v2) Copy OK
All tracks accurately ripped
No errors occurred
End of status report
---- CUETools DB Plugin V2.1.3
[CTDB TOCID: nxA7WRT1TyefGz6e4nPX61bDDLU-] found, Submit result: nxA7WRT1TyefGz6e4nPX61bDDLU- has been confirmed[2783f504] (1/1) Accurately ripped
==== Log checksum 4C351A98C32C827A937FE181CC1489D7ED4BC6582BCC4CBCD846CFF083A2E2BB ====

Содержание индексной карты (.cue)

REM GENRE SoundtrackREM DATE 2000REM DISCID E20CF10FREM COMMENT "ExactAudioCopy v1.0b3"CATALOG 0000000000000PERFORMER "Various"TITLE "Scary Movie: Music That Inspired The Soundtrack"FILE "01 - Fountains of Wayne - Too Cool For School.wav" WAVE  TRACK 01 AUDIO    TITLE "Too Cool For School"    PERFORMER "Fountains of Wayne"    INDEX 01 00:00:00FILE "02 - The Bloodhound Gang - The Inevitable Return Of The Great White Dope.wav" WAVE  TRACK 02 AUDIO    TITLE "The Inevitable Return Of The Great White Dope"    PERFORMER "The Bloodhound Gang"    INDEX 01 00:00:00FILE "03 - Radford - Stay.wav" WAVE  TRACK 03 AUDIO    TITLE "Stay"    PERFORMER "Radford"    INDEX 01 00:00:00FILE "04 - Save Ferris - The Only Way To Be.wav" WAVE  TRACK 04 AUDIO    TITLE "The Only Way To Be"    PERFORMER "Save Ferris"    INDEX 01 00:00:00FILE "05 - Oleander - My Bad.wav" WAVE  TRACK 05 AUDIO    TITLE "My Bad"    PERFORMER "Oleander"    INDEX 01 00:00:00FILE "06 - Silverchair - Punk Song #2.wav" WAVE  TRACK 06 AUDIO    TITLE "Punk Song #2"    PERFORMER "Silverchair"    INDEX 01 00:00:00FILE "07 - The Unband - Everybody Wants You.wav" WAVE  TRACK 07 AUDIO    TITLE "Everybody Wants You"    PERFORMER "The Unband"    INDEX 01 00:00:00FILE "08 - Bender - Superfly.wav" WAVE  TRACK 08 AUDIO    TITLE "Superfly"    PERFORMER "Bender"    INDEX 01 00:00:00FILE "09 - Ramones - I Wanna Be Sedated.wav" WAVE  TRACK 09 AUDIO    TITLE "I Wanna Be Sedated"    PERFORMER "Ramones"    INDEX 01 00:00:00FILE "10 - Royce The 5'9'' - Scary Movies (Sequel).wav" WAVE  TRACK 10 AUDIO    TITLE "Scary Movies (Sequel)"    PERFORMER "Royce The 5'9'"    INDEX 01 00:00:00FILE "11 - Tupac Shakur feat. Top Dogg, Nate Dogg & Dru Down - All About U.wav" WAVE  TRACK 11 AUDIO    TITLE "All About U"    PERFORMER "Tupac Shakur feat. Top Dogg, Nate Dogg & Dru Down"    INDEX 01 00:00:00FILE "12 - Black Eyed Peas - I Want Cha.wav" WAVE  TRACK 12 AUDIO    TITLE "I Want Cha"    PERFORMER "Black Eyed Peas"    INDEX 01 00:00:00FILE "13 - Public Enemy - What What.wav" WAVE  TRACK 13 AUDIO    TITLE "What What"    PERFORMER "Public Enemy"    INDEX 01 00:00:00FILE "14 - Rah Digga, Rampage & Rock - Feel Me.wav" WAVE  TRACK 14 AUDIO    TITLE "Feel Me"    PERFORMER "Rah Digga, Rampage & Rock"    INDEX 01 00:00:00FILE "15 - Lifelong feat. Incident - I'm The Killer (Killer Rap).wav" WAVE  TRACK 15 AUDIO    TITLE "I'm The Killer (Killer Rap)"    PERFORMER "Lifelong feat. Incident"    INDEX 01 00:00:00
[doutdess.net].t262196.torrent
Torrent: Registered [ 2018-04-19 08:40 ] · E8E523067B7C1ECC9F6A76F0E0C0711389286546

6 KB

Status: checked
Completed: 0 times
Size: 390 MB
(Score) Scary Movie: Music That Inspired The Soundtrack? / Очень страшное кино - 2000, FLAC (tracks+.cue), lossless скачать торрент бесплатно и без регистрации

[Profile] [PM]
Forum Topic Author Size
Саундтреки к играм lossless (Score) Scratches Original Soundtrack (Cellar of Rats) - 2006, FLAC (tracks), lossless RelizMAN 222 MB
Display posts:    

Current time is: 25-Aug 22:57

All times are UTC + 3



You cannot post new topics in this forum
You cannot reply to topics in this forum
You cannot edit your posts in this forum
You cannot delete your posts in this forum
You cannot vote in polls in this forum
You cannot attach files in this forum
You can download files in this forum