Reply to topic
DL-List and Torrent activity [Update пиров]
Size:  1.04 GB   |    Registered:  1 year 4 months   |    Completed:  0 times
Seeders:  646  [  0 KB/s  ]   Leechers:  39  [  0 KB/s  ]  
 
     
 
 
Author Message

Vi$itReal ®

12

Post 18-Apr-2018 19:45

[Quote]

Rundfunk-Sinfonieorchester Berlin - Strauss: Also sprach Zarathustra \ Mahler: Totenfeier Формат записи/Источник записи: [TR24][OF]
Наличие водяных знаков: Нет
Год издания/переиздания диска: 2017
Жанр: Orchestral
Издатель (лейбл): PentaTone
Продолжительность: 01:04:43
Наличие сканов в содержимом раздачи: Буклет PDF + обложка
Треклист:
01 - Richard Strauss - Also sprach Zarathustra, Op. 30, TrV 176 (32:53)
02 - Gustav Mahler - Totenfeier (22:56)
03 - Gustav Mahler - Sinfonisches Präludium (Symphonic Prelude) (reconstructed by A. Gürsching) (8:53)
Контейнер: FLAC (*.flac)
Тип рипа: tracks
Разрядность: 24/96
Формат: PCM
Количество каналов: 2.0
Источник: обмен http://www.eclassical.com/labels/pentatone/strauss-also-sprach-zarathustra-mahler-totenfeier.html-Оркестр: Rundfunk-Sinfonieorchester Berlin
Композитор: Richard Strauss, Gustav Mahler, Albrecht Gürsching
Дирижер: Vladimir Jurowski

Лог проверки качества

foobar2000 1.3.8 / Замер динамического диапазона (DR) 1.1.1Дата отчёта:  2018-04-18 20:03:27
--------------------------------------------------------------------------------Анализ: Rundfunk-Sinfonieorchester Berlin / Strauss: Also sprach Zarathustra - Mahler: Totenfeier--------------------------------------------------------------------------------
DR Пики RMS Продолжительность трека--------------------------------------------------------------------------------DR17 -1.85 дБ -25.77 дБ 32:53 01-Also sprach Zarathustra, Op. 30, TrV 176DR16 -0.54 дБ -25.72 дБ 22:56 02-TotenfeierDR14 -4.60 дБ -24.18 дБ 8:53 03-Sinfonisches Präludium (Symphonic Prelude) (reconstructed by A. Gürsching)--------------------------------------------------------------------------------
Количество треков: 3Реальные значения DR: DR16
Частота: 96000 ГцКаналов: 2Разрядность: 24Битрейт: 2346 кбит/сКодек: FLAC================================================================================

Скриншот спектра частот

[doutdess.net].t262110.torrent
Torrent: Registered [ 2018-04-18 19:45 ] · 8E6AE3B07CCA76BF869B80353CC7BCF5A02E8EF3

11 KB

Status: checked
Completed: 0 times
Size: 1.04 GB
[TR24][OF] Rundfunk-Sinfonieorchester Berlin (Conductor Vladimir Jurowski) - R. Strauss: Also sprach Zarathustra \\ G. Mahler: Totenfeier - 2017 (Orchestral) скачать торрент бесплатно и без регистрации

[Profile] [PM]
Forum Topic Author Size
Классика в современной обработке, Classical Crossover lossy и lossless [TR24][OF] (Hi-Res)Marion Treupel-Franck - Voice of the Soul - Flute Music by Jean Daniel Braun - 2017, FLAC (tracks) lossless, (Classical, Baroque Era) Vi$itReal 678 MB
Этническая музыка Индии lossless [TR24][OF] (Indian Classical, Sitar, World Music) [WEB] Anoushka Shankar - Home - 2015, FLAC (tracks), lossless RelizMAN 598 MB
Саундтреки к играм lossless [TR24][OF] (Score) [WEB] Sudden Strike 4 (Original Game Soundtrack) (by Peter Antovszki) - 2017, FLAC (tracks), lossless RelizMAN 424 MB
Hi-Res stereo и Многоканальная музыка Саундтреки [TR24][OF] 2Cellos - Score - 2017 (Symphonic Rock) RelizMAN 608 MB
Hi-Res stereo классика и классика в современной обработке [TR24][OF] A French Baroque Diva: Arias for Marie Fel by Rameau, Lacoste, Lalande, Rousseau, Fiocco, Mondonville (Carolyn Sampson, Ex Cathedra & Jeffrey Skidmore) - 2014 (Baroque, Opera, Vocal,... Vi$itReal 1.37 GB
Hi-Res stereo классика и классика в современной обработке [TR24][OF] A Sousa Celebration - Royal Scottish National Orchestra, Kristjan Jarvi - 2017 (Classical) Vi$itReal 1.21 GB
Hi-Res stereo классика и классика в современной обработке [TR24][OF] A Vaughan Williams Christmas - Chapel Choir Of The Royal Hospital Chelsea, William Vann - 2018 (Classical) Vi$itReal 1.18 GB
Hi-Res stereo классика и классика в современной обработке [TR24][OF] A. Vivaldi: Dorilla in Tempe, RV 709 (Romina Basso, Serena Malfi, Marina de Liso, Lucia Cirillo, Sonia Prina|Coro della Radiotelevisione Svizzera I Barocchisti, Diego Fasolis) - 2017... Vi$itReal 2.88 GB
Display posts:    

Current time is: 23-Aug 18:09

All times are UTC + 3



You cannot post new topics in this forum
You cannot reply to topics in this forum
You cannot edit your posts in this forum
You cannot delete your posts in this forum
You cannot vote in polls in this forum
You cannot attach files in this forum
You can download files in this forum