Reply to topic
DL-List and Torrent activity [Update пиров]
Size:  2.57 GB   |    Registered:  1 year 4 months   |    Completed:  5 times
Seeders:  742  [  0 KB/s  ]   Leechers:  19  [  0 KB/s  ]  
 
     
 
 
Author Message

RelizMAN ®

11

Post 18-Apr-2018 19:45

[Quote]

Rachmaninov - Symphony No. 2 in E minor, Op. 27 - Royal Concertgebouw Orchestra, Mariss Jansons
Формат записи/Источник записи: [SACD-R][OF]
Наличие водяных знаков: Нет
Год издания/переиздания диска: 2016
Жанр: Classical
Издатель (лейбл): RCO Live
Продолжительность: 00:55:48
Наличие сканов в содержимом раздачи: Только обложка альбома
Треклист:
Rachmaninov: Symphony No. 2 in E minor, Op. 27
I. Largo - Allegro moderato (Live) 18:34
II. Allegro molto (Live) 9:58
III. Adagio (Live) 13:59
IV. Allegro vivace (Live) 13:17
Контейнер: ISO (*.iso)
Тип рипа: image
Разрядность: 64(2,8 MHz/1 Bit)
Формат: DST64
Количество каналов: 5.1 + 2

Лог проверки качества

foobar2000 1.3.17 / Dynamic Range Meter 1.1.1log date: 2018-04-12 19:05:10
--------------------------------------------------------------------------------Analyzed: Mariss Jansons & Royal Concertgebouw Orchestra / Rachmaninoff - Symphony No. 2--------------------------------------------------------------------------------
DR Peak RMS Duration Track--------------------------------------------------------------------------------DR16 -5.15 dB -29.47 dB 18:35 01-Rachmaninoff - Symphony No. 2 - Largo - Allegro moderatoDR16 -6.21 dB -30.05 dB 9:58 02-Rachmaninoff - Symphony No. 2 - Allegro moltoDR15 -6.95 dB -32.16 dB 13:59 03-Rachmaninoff - Symphony No. 2 - AdagioDR16 -4.31 dB -27.54 dB 13:18 04-Rachmaninoff - Symphony No. 2 - Allegro vivace--------------------------------------------------------------------------------
Number of tracks: 4Official DR value: DR16
Samplerate: 2822400 Hz / PCM Samplerate: 88200 HzChannels: 5Bits per sample: 1Bitrate: 14112 kbpsCodec: DST64================================================================================
--------------------------------------------------------------------------------Analyzed: Mariss Jansons & Royal Concertgebouw Orchestra / Rachmaninoff - Symphony No. 2--------------------------------------------------------------------------------
DR Peak RMS Duration Track--------------------------------------------------------------------------------DR17 -4.04 dB -27.63 dB 18:35 01-Rachmaninoff - Symphony No. 2 - Largo - Allegro moderatoDR17 -4.83 dB -28.45 dB 9:58 02-Rachmaninoff - Symphony No. 2 - Allegro moltoDR14 -7.70 dB -30.44 dB 13:59 03-Rachmaninoff - Symphony No. 2 - AdagioDR16 -3.97 dB -25.84 dB 13:18 04-Rachmaninoff - Symphony No. 2 - Allegro vivace--------------------------------------------------------------------------------
Number of tracks: 4Official DR value: DR16
Samplerate: 2822400 Hz / PCM Samplerate: 88200 HzChannels: 2Bits per sample: 1Bitrate: 5645 kbpsCodec: DST64================================================================================
Доп. информация: https://www.prestoclassical.co.uk/classical/products/8124490--rachmaninov-symphon...inor-op-27#about
Источник (релизер): SACD Ripped via BDP-80FD
Оркестр: Royal Concertgebouw Orchestra
Композитор: Sergei Rachmaninoff
Дирижер: Mariss Jansons
[doutdess.net].t262109.torrent
Torrent: Registered [ 2018-04-18 19:45 ] · CE1A51A8A10DF3FFE8C8308D84832F005DAE5C91

26 KB

Status: checked
Completed: 5 times
Size: 2.57 GB
[SACD-R][OF] Rachmaninov - Symphony No. 2 in E minor, Op. 27 (Royal Concertgebouw Orchestra, Mariss Jansons) - 2016 (Classical) скачать торрент бесплатно и без регистрации

[Profile] [PM]
Forum Topic Author Size
Hi-Res stereo классика и классика в современной обработке [SACD-R][OF] (Andre) André Cluytens, Orchestre de la Société des Concerts du Concervatoire - Georges Bizet: L\'Arlésienne Suites Nos. 1 & 2, Carmen Suite - 1965/2011... Vi$itReal 1.84 GB
Hi-Res stereo классика и классика в современной обработке [SACD-R][OF] (Classical, Double Bass, Organ) Gary Karr - Adagio D\'Albinoni - 2014 (Beethoven, Franck, Handel, J.S. Bach) - 2014 Vi$itReal 1.64 GB
Многоканальная музыка классика и классика в современной обработке [SACD-R][OF] (Parkanyi Quartet) Párkányi Quartet - Claude Debussy & Maurice Ravel: String Quartets - 2004 (Classical; Chamber; Strings) RelizMAN 2.92 GB
Многоканальная музыка классика и классика в современной обработке [SACD-R][OF] (Prazak) Pražák Quartet - Дмитрий Шостакович / Dmitri Shostakovich: String Quartets No. 14 & 15 - 2014 (Classical; Chamber; Strings) RelizMAN 3.88 GB
Многоканальная музыка классика и классика в современной обработке [SACD-R][OF] Alan Civil, Sir Neville Marriner, Academy St. Martin in The Fields - Mozart: The 4 Horn Concertos - 1972/2002 (Orchestral, Horn) RelizMAN 3.22 GB
Hi-Res stereo классика и классика в современной обработке [SACD-R][OF] Alban Berg & Bela Bartok – Violin Concertos (Isaac Stern, New York Philharmonic, Leonard Bernstein) - 2013 (Classical/Orchestral/Violin) Vi$itReal 1.09 GB
Hi-Res stereo классика и классика в современной обработке [SACD-R][OF] Alban Berg Quartett - Haydn: Emperor Quartet, Mozart: Hunt Quartet - 2014 (Classical; Chamber) Vi$itReal 2.13 GB
Многоканальная музыка классика и классика в современной обработке [SACD-R][OF] Alexei & Michael Utkins / Алексей и Михаил Уткины, Hermitage Chamber Orchestra / Камерный Оркестр "Эрмитаж" - Dimitry Shostakovich: Preludes & Ballet Suites - 2006... RelizMAN 3.32 GB
Display posts:    

Current time is: 25-Aug 22:45

All times are UTC + 3



You cannot post new topics in this forum
You cannot reply to topics in this forum
You cannot edit your posts in this forum
You cannot delete your posts in this forum
You cannot vote in polls in this forum
You cannot attach files in this forum
You can download files in this forum