Reply to topic
DL-List and Torrent activity [Update пиров]
Size:  448 MB   |    Registered:  13 days   |    Completed:  0 times
Seeders:  634  [  0 KB/s  ]   Leechers:  52  [  0 KB/s  ]  
 
     
 
 
Author Message

RelizMAN ®

11

Post 14-Jan-2020 16:30

[Quote]

Porpora, Galuppi, Hasse - Le Grazie Veneziane: Music from the Ospedali
Жанр: Classical sacred
Страна-производитель диска: Made in Germany
Год издания диска: 2009
Издатель (лейбл): Carus
Номер по каталогу: CARUS83264
Дата записи: 2009
Аудиокодек: FLAC
Тип рипа: image+.cue
Битрейт аудио: lossless
Продолжительность: 72:43 / 01:12:43
Источник: релизер
сайт-источник/ник/другое: basso profundo, подарок; Caterina Sforza - тяжелейшая работа с cue, доп. сканы
Наличие сканов в содержимом раздачи: да, два полных авторских буклета jpeg и pdf, 23 стр.
Треклист:
Nicola Porpora
De profundis, for chorus & orchestra
1. De profundis clamavi
2. Fiant aures tuae intendentes
3. Si iniquitates observabis Domine
4. Quia apud te
5. Sustinuit anima mea
6. A custodia matutina
7. Quia apud Dominum
8. Gloria Patri
9. Sicut erat
Johann Adolf Hasse
Laudate pueri in A major (Psalm 112), for soprano, mezzo-soprano, chorus & orchestra
10. Laudate pueri
11. A solis ortu
12. Excelsus super omnes gentes
13. Quis sicut Dominus
15. Qui habitare facit
16. Gloria Patri
17. Sicut erat
Baldassare Galuppi
Dixit Dominus (Psalm 110)
18. Dixit Dominus
19. Tecum principium
20. Juravit Dominus
21. Dominus a dextris tuis
22. Judicabit in nationibus
23. De torrente
24. Gloria Patri

Исполнители

Baldassare Galuppi, Johann Adolf Hasse, Nicola Porpora
Le Grazie Veneziane: Music from the Ospedali
Maria Grazia Schiavo (soprano in 06-07, 10, 12-13, 15, 17, 21)Emanuela Galli (soprano in 02, 06, 10-11, 17, 23)José Maria Lo Monaco (alto in 03, 05, 12, 16, 19, 21)
Vocal Concert DresdenDresdner Instrumental-ConcertPeter Kopp (dir.)
Release Date: 8th Sep 2008Audio CD (June 9, 2009)

Лог создания рипа

Exact Audio Copy V1.3 from 2. September 2016
EAC extraction logfile from 13. January 2020, 16:05
Vocal Concert Dresden / Le Grazie Veneziane
Used drive : HL-DT-STBD-RE WH16NS40 Adapter: 1 ID: 0
Read mode : SecureUtilize accurate stream : YesDefeat audio cache : YesMake use of C2 pointers : No
Read offset correction : 6Overread into Lead-In and Lead-Out : NoFill up missing offset samples with silence : YesDelete leading and trailing silent blocks : NoNull samples used in CRC calculations : YesUsed interface : Native Win32 interface for Win NT & 2000
Used output format : User Defined EncoderSelected bitrate : 1024 kBit/sQuality : HighAdd ID3 tag : NoCommand line compressor : C:\Program Files (x86)\Exact Audio Copy\FLAC\FLAC.EXEAdditional command line options : -6 -V -T "ARTIST=%artist%" -T "TITLE=%title%" -T "ALBUM=%albumtitle%" -T "DATE=%year%" -T "TRACKNUMBER=%tracknr%" -T "GENRE=%genre%" -T "COMMENT=%comment%" -T "BAND=%albuminterpret%" -T "ALBUMARTIST=%albuminterpret%" -T "COMPOSER=%composer%" %haslyrics%--tag-from-file=LYRICS="%lyricsfile%"%haslyrics% -T "DISCNUMBER=%cdnumber%" -T "TOTALDISCS=%totalcds%" -T "TOTALTRACKS=%numtracks%" %hascover%--picture="%coverfile%"%hascover% %source% -o %dest%
TOC of the extracted CD
Track | Start | Length | Start sector | End sector --------------------------------------------------------- 1 | 0:00.00 | 1:41.38 | 0 | 7612 2 | 1:41.38 | 4:07.59 | 7613 | 26196 3 | 5:49.22 | 2:44.08 | 26197 | 38504 4 | 8:33.30 | 1:36.54 | 38505 | 45758 5 | 10:10.09 | 3:09.41 | 45759 | 59974 6 | 13:19.50 | 2:41.61 | 59975 | 72110 7 | 16:01.36 | 3:03.59 | 72111 | 85894 8 | 19:05.20 | 0:49.47 | 85895 | 89616 9 | 19:54.67 | 1:49.49 | 89617 | 97840 10 | 21:44.41 | 4:21.57 | 97841 | 117472 11 | 26:06.23 | 2:42.05 | 117473 | 129627 12 | 28:48.28 | 4:09.49 | 129628 | 148351 13 | 32:58.02 | 4:35.68 | 148352 | 169044 14 | 37:33.70 | 1:39.16 | 169045 | 176485 15 | 39:13.11 | 3:13.69 | 176486 | 191029 16 | 42:27.05 | 3:30.36 | 191030 | 206815 17 | 45:57.41 | 3:06.51 | 206816 | 220816 18 | 49:04.17 | 2:20.03 | 220817 | 231319 19 | 51:24.20 | 4:02.29 | 231320 | 249498 20 | 55:26.49 | 2:31.21 | 249499 | 260844 21 | 57:57.70 | 4:14.64 | 260845 | 279958 22 | 62:12.59 | 2:38.57 | 279959 | 291865 23 | 64:51.41 | 5:29.07 | 291866 | 316547 24 | 70:20.48 | 2:23.06 | 316548 | 327278
Range status and errors
Selected range
Filename C:\Users\Grant\Desktop\Vocal Concert Dresden - Le Grazie Veneziane.wav
Peak level 97.7 % Extraction speed 8.2 X Range quality 100.0 % Test CRC DFB626D9 Copy CRC DFB626D9 Copy OK
No errors occurred
AccurateRip summary
Track 1 accurately ripped (confidence 3) [03272838] (AR v2)Track 2 accurately ripped (confidence 3) [EB748727] (AR v2)Track 3 accurately ripped (confidence 3) [13977B90] (AR v2)Track 4 accurately ripped (confidence 3) [F1467B56] (AR v2)Track 5 accurately ripped (confidence 3) [7C3A96E8] (AR v2)Track 6 accurately ripped (confidence 3) [F47C52A4] (AR v2)Track 7 accurately ripped (confidence 3) [5A3BAE1C] (AR v2)Track 8 accurately ripped (confidence 3) [B3BED5E5] (AR v2)Track 9 accurately ripped (confidence 3) [8FAA55B5] (AR v2)Track 10 accurately ripped (confidence 3) [DCFEA18E] (AR v2)Track 11 accurately ripped (confidence 3) [FCFFB2AF] (AR v2)Track 12 accurately ripped (confidence 3) [9AE4E528] (AR v2)Track 13 accurately ripped (confidence 3) [52891A10] (AR v2)Track 14 accurately ripped (confidence 3) [A60924DF] (AR v2)Track 15 accurately ripped (confidence 3) [DE7A7828] (AR v2)Track 16 accurately ripped (confidence 3) [A609C77F] (AR v2)Track 17 accurately ripped (confidence 3) [0C7B05EC] (AR v2)Track 18 accurately ripped (confidence 3) [6D02CF73] (AR v2)Track 19 accurately ripped (confidence 3) [12F8B03D] (AR v2)Track 20 accurately ripped (confidence 3) [BBE8596F] (AR v2)Track 21 accurately ripped (confidence 3) [E987994B] (AR v2)Track 22 accurately ripped (confidence 3) [909C1ECB] (AR v2)Track 23 accurately ripped (confidence 3) [677C7AA9] (AR v2)Track 24 accurately ripped (confidence 3) [587B0A48] (AR v2)
All tracks accurately ripped
End of status report
---- CUETools DB Plugin V2.1.6
[CTDB TOCID: Lrmwxqh_RHeq4wKKwfUg.ePUQ.o-] foundSubmit result: Lrmwxqh_RHeq4wKKwfUg.ePUQ.o- has been confirmedTrack | CTDB Status 1 | (4/4) Accurately ripped 2 | (4/4) Accurately ripped 3 | (4/4) Accurately ripped 4 | (4/4) Accurately ripped 5 | (4/4) Accurately ripped 6 | (4/4) Accurately ripped 7 | (4/4) Accurately ripped 8 | (4/4) Accurately ripped 9 | (4/4) Accurately ripped 10 | (4/4) Accurately ripped 11 | (4/4) Accurately ripped 12 | (4/4) Accurately ripped 13 | (4/4) Accurately ripped 14 | (4/4) Accurately ripped 15 | (4/4) Accurately ripped 16 | (4/4) Accurately ripped 17 | (4/4) Accurately ripped 18 | (4/4) Accurately ripped 19 | (4/4) Accurately ripped 20 | (4/4) Accurately ripped 21 | (4/4) Accurately ripped 22 | (4/4) Accurately ripped 23 | (4/4) Accurately ripped 24 | (4/4) Accurately ripped
==== Log checksum 33B9825A6E3D58B289E81FE224462A8F18C93E7817B26E760C153F8703BC00C8 ====

Содержание индексной карты (.CUE)

REM GENRE ClassicalREM DATE 2008REM DISCID 5F110B18REM COMMENT "ExactAudioCopy v1.3"PERFORMER "Maria Grazia Schiavo (soprano in 06-07, 10, 12-13, 15, 17, 21), Emanuela Galli (soprano in 02, 06, 10-11, 17, 23), José Maria Lo Monaco (alto in 03, 05, 12, 16, 19, 21), Vocal Concert Dresden, Dresdner Instrumental-Concert, Peter Kopp (dir.)"TITLE "Le Grazie Veneziane: Music from the Ospedali"REM COMPOSER "Nicola Antonio Porpora (1686-1768), Johann Adolf Hasse (1699-1783), Baldassare Galuppi (1706-1785)"FILE "Vocal Concert Dresden - Le Grazie Veneziane.flac" WAVE  TRACK 01 AUDIO    TITLE "Porpora - DE PROFUNDIS, for chorus & orchestra: De profundis clamavi ad te Domine (Vivace; Coro)"    PERFORMER "Vocal Concert Dresden, Dresdner Instrumental-Concert, Peter Kopp"    REM COMPOSER "Nicola Antonio Porpora"    FLAGS DCP    INDEX 01 00:00:00  TRACK 02 AUDIO    TITLE "Porpora - De profundis: Fiant aures tuae intendentes (Andante; Soprano)"    PERFORMER "Dresdner Instrumental-Concert, Peter Kopp & Emanuela Galli"    REM COMPOSER "Nicola Antonio Porpora"    FLAGS DCP    INDEX 01 01:41:38  TRACK 03 AUDIO    TITLE "Porpora - De profundis: Si iniquitates observabis Domine (Vivace; Alto)"    PERFORMER "Dresdner Instrumental-Concert, Peter Kopp & José Maria Lo Monaco"    REM COMPOSER "Nicola Antonio Porpora"    FLAGS DCP    INDEX 01 05:49:22  TRACK 04 AUDIO    TITLE "Porpora - De profundis: Quia apud te propitiatio est (Andante; Coro)"    PERFORMER "Vocal Concert Dresden, Dresdner Instrumental-Concert, Peter Kopp"    REM COMPOSER "Nicola Antonio Porpora"    FLAGS DCP    INDEX 01 08:33:30  TRACK 05 AUDIO    TITLE "Porpora - De profundis: Sustinuit anima mea in verbum eius (Lento; Alto)"    PERFORMER "Dresdner Instrumental-Concert, Peter Kopp & José Maria Lo Monaco"    REM COMPOSER "Nicola Antonio Porpora"    FLAGS DCP    INDEX 01 10:10:09  TRACK 06 AUDIO    TITLE "Porpora - De profundis: A custodia matutina asque ad noctem (Duetto; Soprani)"    PERFORMER "Dresdner Instrumental-Concert, Peter Kopp & Maria Grazia Schiavo, Emanuela Galli"    REM COMPOSER "Nicola Antonio Porpora"    FLAGS DCP    INDEX 01 13:19:50  TRACK 07 AUDIO    TITLE "Porpora - De profundis: Quia apud Dominum misericordia (Andante; Soprano)"    PERFORMER "Dresdner Instrumental-Concert, Peter Kopp & Maria Grazia Schiavo"    REM COMPOSER "Nicola Antonio Porpora"    FLAGS DCP    INDEX 01 16:01:36  TRACK 08 AUDIO    TITLE "Porpora - De profundis: Gloria Patri, et Filio, et Spiritui Sancto (Allegro; Coro)"    PERFORMER "Vocal Concert Dresden, Dresdner Instrumental-Concert, Peter Kopp"    REM COMPOSER "Nicola Antonio Porpora"    FLAGS DCP    INDEX 01 19:05:20  TRACK 09 AUDIO    TITLE "Porpora - De profundis: Sicut erat in principio, et nunc et semper (Allegro; Coro)"    PERFORMER "Vocal Concert Dresden, Dresdner Instrumental-Concert, Peter Kopp"    REM COMPOSER "Nicola Antonio Porpora"    FLAGS DCP    INDEX 01 19:54:67  TRACK 10 AUDIO    TITLE "Hasse - LAUDATE PUERI in A major (Psalm 112), for soprano, mezzo-soprano, chorus & orchestra: Laudate pueri Dominum (Allegro; Coro, Soprani)"    PERFORMER "Vocal Concert Dresden, Dresdner Instrumental-Concert, Peter Kopp & Maria Grazia Schiavo, Emanuela Galli"    REM COMPOSER "Johann Adolf Hasse"    FLAGS DCP    INDEX 01 21:44:41  TRACK 11 AUDIO    TITLE "Hasse - Laudate pueri: A solis ortu usque ad occassum (Allegro Moderato; Soprano)"    PERFORMER "Dresdner Instrumental-Concert, Peter Kopp & Emanuela Galli"    REM COMPOSER "Johann Adolf Hasse"    FLAGS DCP    INDEX 01 26:06:23  TRACK 12 AUDIO    TITLE "Hasse - Laudate pueri: Excelsus super omnes gentes Dominus (Allegro; Duetto, Soprano, Alto)"    PERFORMER "Dresdner Instrumental-Concert, Peter Kopp & Maria Grazia Schiavo, José Maria Lo Monaco"    REM COMPOSER "Johann Adolf Hasse"    FLAGS DCP    INDEX 01 28:48:28  TRACK 13 AUDIO    TITLE "Hasse - Laudate pueri: Quis sicut Dominus Deus Noster (Grave; Soprano)"    PERFORMER "Dresdner Instrumental-Concert, Peter Kopp & Maria Grazia Schiavo"    REM COMPOSER "Johann Adolf Hasse"    FLAGS DCP    INDEX 01 32:58:02  TRACK 14 AUDIO    TITLE "Hasse - Laudate pueri: Suscitans a terra in opem (Andante; Coro)"    PERFORMER "Vocal Concert Dresden, Dresdner Instrumental-Concert, Peter Kopp"    REM COMPOSER "Johann Adolf Hasse"    FLAGS DCP    INDEX 01 37:33:70  TRACK 15 AUDIO    TITLE "Hasse - Laudate pueri: Qui habitare facit sterilem in domo (Allegro giocoso; Soprano)"    PERFORMER "Dresdner Instrumental-Concert, Peter Kopp & Maria Grazia Schiavo"    REM COMPOSER "Johann Adolf Hasse"    FLAGS DCP    INDEX 01 39:13:11  TRACK 16 AUDIO    TITLE "Hasse - Laudate pueri: Gloria Patri, gloria Filio et Spiritui Sancto (Allegro; Alto)"    PERFORMER "Dresdner Instrumental-Concert, Peter Kopp & José Maria Lo Monaco"    REM COMPOSER "Johann Adolf Hasse"    FLAGS DCP    INDEX 01 42:27:05  TRACK 17 AUDIO    TITLE "Hasse - Laudate pueri: Sicut erat in principio, et nunc et semper (Allegro; Soprani, Coro)"    PERFORMER "Vocal Concert Dresden, Dresdner Instrumental-Concert, Peter Kopp & Maria Grazia Schiavo, Emanuela Galli"    REM COMPOSER "Johann Adolf Hasse"    FLAGS DCP    INDEX 01 45:57:41  TRACK 18 AUDIO    TITLE "Galuppi - DIXIT DOMINUS (Psalm 110): Dixit Dominus Domino meo (Allegro; Coro)"    PERFORMER "Vocal Concert Dresden, Dresdner Instrumental-Concert, Peter Kopp"    REM COMPOSER "Baldassare Galuppi"    FLAGS DCP    INDEX 01 49:04:17  TRACK 19 AUDIO    TITLE "Galuppi - Dixit Dominus: Tecum principium in die virtutis tuae (Aria; Alto)"    PERFORMER "Dresdner Instrumental-Concert, Peter Kopp & José Maria Lo Monaco"    REM COMPOSER "Baldassare Galuppi"    FLAGS DCP    INDEX 01 51:24:20  TRACK 20 AUDIO    TITLE "Galuppi - Dixit Dominus: Juravit Dominus, et non paenitebit (Coro)"    PERFORMER "Vocal Concert Dresden, Dresdner Instrumental-Concert, Peter Kopp"    REM COMPOSER "Baldassare Galuppi"    FLAGS DCP    INDEX 01 55:26:49  TRACK 21 AUDIO    TITLE "Galuppi - Dixit Dominus: Dominus a dextris tuis (Allegro; Duetto, Soprano, Alto)"    PERFORMER "Dresdner Instrumental-Concert, Peter Kopp & Maria Grazia Schiavo, José Maria Lo Monaco"    REM COMPOSER "Baldassare Galuppi"    FLAGS DCP    INDEX 01 57:57:70  TRACK 22 AUDIO    TITLE "Galuppi - Dixit Dominus: Judicabit in nationibus, implebit ruinas (Largo; Coro)"    PERFORMER "Vocal Concert Dresden, Dresdner Instrumental-Concert, Peter Kopp"    REM COMPOSER "Baldassare Galuppi"    FLAGS DCP    INDEX 01 62:12:59  TRACK 23 AUDIO    TITLE "Galuppi - Dixit Dominus: De torrente in via bibet (Aria, Andante spiritoso; Soprano)"    PERFORMER "Dresdner Instrumental-Concert, Peter Kopp & Emanuela Galli"    REM COMPOSER "Baldassare Galuppi"    FLAGS DCP    INDEX 01 64:51:41  TRACK 24 AUDIO    TITLE "Galuppi - Dixit Dominus: Gloria Patri, et Filio, et Spiritui Sancto (Allegro; Coro)"    PERFORMER "Vocal Concert Dresden, Dresdner Instrumental-Concert, Peter Kopp"    REM COMPOSER "Baldassare Galuppi"    FLAGS DCP    INDEX 01 70:20:48

Review

AllMusic Review by Uncle Dave Lewis  [-]Music lovers with a general understanding of Antonio Vivaldi's life are aware that he worked most of his career as a music master at the Ospedali in Venice, an institution that was part hospital and part school for orphaned (or wayward) girls. However, few might know that the term "Ospedali" refers to four Venetian institutions of that kind, the Ospedale della Pietà (where Vivaldi worked), the Ospedale dei Mendicanti, the Ospedale degli Incurabili, and finally the Ospedali dei Derelitti, this last-named facility also referred to the "Ospedaletto." All four of these hospitals provided extensive musical training to young women and provided shelter until they married or entered a convent; some simply never left the Ospedali. Founded in the early sixteenth century, the Venetian Ospedali system went broke and shut down around 1780, but along the way they employed scores of the best musicians and composers; manuscripts of some 1300 works written for use by the Ospedali have been cataloged. Carus-Verlag's La Grazie Veneziane: Music from the Ospedali, featuring sopranos Maria Grazia Schiavo and Emanuela Galli, alto José Maria Lo Monaco (a woman), a Dresden-based female choir, and period band under the direction of Peter Kopp, only presents three works from among this sizable bequest, but the recording is among the very best yet made based in this particular historic subgenre, which is so important to the history of women in Western music.
Although the Ospedali did have women who composed in addition to performing, the three composers represented here all had strong, long-lasting ties to these institutions. Nicola Porpora was employed by the Ospedali over a span of some 30 years; Johann Adolf Hasse -- though better known as a prominent opera composer for the Habsburg court -- held posts at three of the Ospedali, whereas Galuppi held down at least two. In some cases these composers recycled their Ospedali compositions for standard forces and/or recast them into other works; Porpora was once the subject of scorn for transforming an existing work for use at the Ospedali, a charge he denied. All three of the works heard here are cast in their Ospedali incarnations with their high-lying, SSAA voice parts intact. All three motets are equally enchanting, with Galuppi's being perhaps the most immediate but the others no less ravishing; with Hasse, his operatic music can be monotonous and shallow sometimes, but he is not so here. The Galuppi Dixit Dominus is the most often recorded of these works, but among previous entries there are no serious contenders to this one, as the singing and orchestral playing are transparent, enthusiastic, and enlivening throughout. The Hasse has had one previous recording, also on Carus-Verlag, but the Porpora is completely new to disc. Carus-Verlag's recording is mildly reverberant, but crystal clear, and the performances are solid. Combined with the tasteful, attractive choice of cover image, La Grazie Veneziane is a glorious outing that practically recommends itself.
[doutdess.net].t380463.torrent
Torrent: Registered [ 2020-01-14 16:30 ] · D0A32AB75FE089F25EE3449E8CF134AFF498C0C0

19 KB

Status: checked
Completed: 0 times
Size: 448 MB
(Classical sacred) Porpora, Galuppi, Hasse - Le Grazie Veneziane: Music from the Ospedali - 2009, FLAC (image+.cue) lossless скачать торрент бесплатно и без регистрации

[Profile] [PM]
Forum Topic Author Size
Вокальная музыка в lossless ((classical/operetta)) Schönes bleibt. Unvergessene Tenöre bei WDR 4 / Прекрасное остаётся - 2000, FLAC (image+.cue) lossless Vi$itReal 401 MB
Вокальная и хоровая музыка lossy (Classical (Lieder)) (Lieder) Norman Bailey - Songs of Hugo Wolf - 1979, MP3 (tracks) 320 kbps RelizMAN 120 MB
Концерт для инструмента с оркестром в lossless (Classical ) Top 20 CDs for your Classical Music Collection - ClassicalCDguide.com: 02 - W. A. Mozart - Great Piano Concertos N 20 - 25 (1997) APE (tracks), 450-566 kb/s RelizMAN 582 MB
Концерт для инструмента с оркестром в lossless (Classical ) Top 20 CDs for your Classical Music Collection - ClassicalCDguide.com: 04 - Bach: Die Brandenburgische Konzerte - Orchestra of the Age of Enlightenment 2 CD (1999) APE (tracks), 610-769... RelizMAN 462 MB
Оркестровая музыка в lossless (Classical ) Top 20 CDs for your Classical Music Collection - ClassicalCDguide.com: 06 - Igor Stravinsky; Petroushka, Le Sacre du Printemps - Columbia Symphony Orchestra (Sony 1990) APE (tracks),... Vi$itReal 274 MB
Камерная инструментальная музыка в lossless (Classical ) Top 20 CDs for your Classical Music Collection - ClassicalCDguide.com: 07 - Franz Schubert - \'Trout\' Quintet & \'Death and the Maiden\' - Amadeus Quartet (DG ... Vi$itReal 343 MB
Камерная инструментальная музыка в lossless (Classical ) Top 20 CDs for your Classical Music Collection - ClassicalCDguide.com: 10 - Georges Bizet; Carmen - Sir Thomas Beecham, de Los Angeles, Gedda, Michau, Blanc (EMI 2000) аре (по-треково),... Vi$itReal 745 MB
Камерная инструментальная музыка в lossless (Classical ) Top 20 CDs for your Classical Music Collection - ClassicalCDguide.com: 12 - Франц Шуберт - Симфония No. 3, Unfinished 39; - Carlos Kleiber и Wiener Philharmoniker (DG 1... Vi$itReal 186 MB
Display posts:    

Current time is: 28-Jan 06:29

All times are UTC + 3



You cannot post new topics in this forum
You cannot reply to topics in this forum
You cannot edit your posts in this forum
You cannot delete your posts in this forum
You cannot vote in polls in this forum
You cannot attach files in this forum
You can download files in this forum