Reply to topic
DL-List and Torrent activity [Update пиров]
Size:  2.39 GB   |    Registered:  23 days   |    Completed:  3 times
Seeders:  827  [  3 KB/s  ]   Leechers:  26  [  0 KB/s  ]  
 
     
 
 
Author Message

Vi$itReal ®

12

Post 26-Jan-2020 04:35

[Quote]

Orff : Carmina Burana
Riccardo Muti, Philharmonia Orchestra
- Формат записи/Источник записи: [SACD-R][OF]
Наличие водяных знаков: Нет
Год издания/переиздания диска: 1979/2018
Жанр: Classical/Orchestral/Choral/Vocal
Издатель (лейбл): EMI / Tower
Продолжительность: 00:59:17
Наличие сканов в содержимом раздачи: Да (сканы)-Arleen Augér, soprano
Jonathan Summers, tenor
John van Kesteren, baritone
Philharmonia Chorus, Southend Boy's Choir, Philharmonia Orchestra
Riccardo Muti, conductor-Доп. информация: Tower TDSA-87
Recorded 2-4 & 30 March 1979, Abbey Road Studio, London
Engineer – Peter Brown
Mastered by Kazuie Sugimoto
Producer – John Mordler
Источник (релизер): WEB
https://www.discogs.com/ru/Orff-Arleen-Auger-Jonathan-Summers-John-Van-Kesteren-P...release/14348564-Контейнер: ISO (*.iso)
Тип рипа: image
Разрядность: 64(2,8 MHz/1 Bit)
Формат: DSD
Количество каналов: 2.0-

Треклист

Треклист:
01. O Fortuna
02. O Fortune plango vulnera
03. Veris leta facies
04. Omnia sol temperat
05. Ecce gratum
06. Tanz
07. Floret silva
08. Chramer, gip die varwe mir
09. Reie - Swaz hie gat umbe - Chume, chum geselle min - Swaz hie gat umbe
10. Were diu werlt alle min
11. Estuans interius
12. Olim lacus colueram
13. Ego sum abbas
14. In taberna quando sumus
15. Amor volat undique
16. Dies, nox et omnia
17. Stetit puella
18. Circa mea pectora
19. Si puer cum puellula
20. Veni, veni, venias
21. In trutina
22. Tempus est iocundum
23. Dulcissime
24. Ave formosissima
25. Orff: Introduction, Fortuna Imperatrix Mundi, No. 1 Chorus "O Fortuna"

Лог DR

foobar2000 1.3.13 / Замер динамического диапазона (DR) 1.1.1Дата отчёта:  2020-01-25 17:21:00
--------------------------------------------------------------------------------Анализ: Riccardo Muti / Orff : Carmina Burana--------------------------------------------------------------------------------
DR Пики RMS Продолжительность трека--------------------------------------------------------------------------------DR10 -6.13 дБ -20.05 дБ 2:42 01-Carmina Burana: O FortunaDR10 -6.26 дБ -23.49 дБ 2:34 02-Carmina Burana : O Fortune plango vulneraDR15 -25.23 дБ -47.71 дБ 4:07 03-Carmina Burana : Veris leta faciesDR14 -26.13 дБ -46.17 дБ 2:12 04-Carmina Burana : Omnia sol temperatDR10 -8.73 дБ -25.18 дБ 2:35 05-Carmina Burana : Ecce gratumDR12 -7.28 дБ -25.29 дБ 1:43 06-Carmina Burana : TanzDR14 -10.23 дБ -30.93 дБ 3:14 07-Carmina Burana : Floret silvaDR12 -20.37 дБ -41.45 дБ 3:15 08-Carmina Burana : Chramer, gip die varwe mirDR12 -7.34 дБ -27.27 дБ 4:16 09-Carmina Burana : Reie - Swaz hie gat umbe - Chume, chum geselle min - Swaz hie gat umbeDR10 -6.13 дБ -20.78 дБ 0:52 10-Carmina Burana : Were diu werlt alle minDR13 -6.12 дБ -23.59 дБ 2:13 11-Carmina Burana : Estuans interiusDR14 -9.94 дБ -30.12 дБ 3:24 12-Carmina Burana : Olim lacus colueramDR12 -6.77 дБ -25.13 дБ 1:29 13-Carmina Burana : Ego sum abbasDR11 -6.65 дБ -22.42 дБ 3:07 14-Carmina Burana : In taberna quando sumusDR14 -22.18 дБ -42.80 дБ 3:23 15-Carmina Burana : Amor volat undiqueDR12 -26.46 дБ -43.63 дБ 2:25 16-Carmina Burana : Dies, nox et omniaDR12 -18.94 дБ -36.35 дБ 1:43 17-Carmina Burana : Stetit puellaDR12 -7.92 дБ -24.63 дБ 1:58 18-Carmina Burana : Circa mea pectoraDR12 -19.27 дБ -38.04 дБ 1:02 19-Carmina Burana : Si puer cum puellulaDR9 -9.45 дБ -24.52 дБ 0:57 20-Carmina Burana : Veni, veni, veniasDR12 -23.32 дБ -41.15 дБ 2:23 21-Carmina Burana : In trutinaDR10 -7.33 дБ -23.63 дБ 2:10 22-Carmina Burana : Tempus est iocundumDR11 -19.05 дБ -37.46 дБ 0:43 23-Carmina Burana : DulcissimeDR10 -6.57 дБ -18.27 дБ 2:04 24-Carmina Burana : Ave formosissimaDR9 -6.12 дБ -19.75 дБ 2:43 25-Orff: Carmina Burana: Introduction, Fortuna Imperatrix Mundi, No. 1 Chorus "O Fortuna"--------------------------------------------------------------------------------
Количество треков: 25Реальные значения DR: DR12
Частота: 2822400 Гц / Частота PCM: 88200 ГцКаналов: 2Разрядность: 24Битрейт: 5645 кбит/сКодек: DSD64================================================================================
[doutdess.net].t382855.torrent
Torrent: Registered [ 2020-01-26 04:35 ] · 741EFC7D313716705C1EF3CD640E022A7C01C17E

97 KB

Status: checked
Completed: 3 times
Size: 2.39 GB
[SACD-R][OF] Orff : Carmina Burana (Riccardo Muti, Philharmonia Orchestra) - 1979/2018 (Classical/Orchestral/Choral/Vocal) скачать торрент бесплатно и без регистрации

[Profile] [PM]
Forum Topic Author Size
Hi-Res stereo классика и классика в современной обработке [SACD-R][OF] (Andre) André Cluytens, Orchestre de la Société des Concerts du Concervatoire - Georges Bizet: L\'Arlésienne Suites Nos. 1 & 2, Carmen Suite - 1965/2011... Vi$itReal 1.84 GB
Hi-Res stereo классика и классика в современной обработке [SACD-R][OF] (Classical, Double Bass, Organ) Gary Karr - Adagio D\'Albinoni - 2014 (Beethoven, Franck, Handel, J.S. Bach) - 2014 Vi$itReal 1.64 GB
Многоканальная музыка классика и классика в современной обработке [SACD-R][OF] (Parkanyi Quartet) Párkányi Quartet - Claude Debussy & Maurice Ravel: String Quartets - 2004 (Classical; Chamber; Strings) RelizMAN 2.92 GB
Многоканальная музыка классика и классика в современной обработке [SACD-R][OF] (Prazak) Pražák Quartet - Дмитрий Шостакович / Dmitri Shostakovich: String Quartets No. 14 & 15 - 2014 (Classical; Chamber; Strings) RelizMAN 3.88 GB
Hi-Res stereo классика и классика в современной обработке [SACD-R][OF] 4 Great Operas (Esoteric Boxset): Mozart - Le Nozze di Figaro; Rossini - Il Barbiere di Siviglia; Verdi - La Traviata; Puccini - La Boheme (Various Artist) (Limited edition) - 2013... Vi$itReal 21.64 GB
Hi-Res stereo классика и классика в современной обработке [SACD-R][OF] 5 Great Operas (Esoteric Boxset): Mozart: Die Zauberflote; Weber: Der Freischutz; Verdi: Il Trovatore; Mascagni: Cavalleria Rusticana; Leoncavallo: I Pagliacci (Various Artist)(Limited... Vi$itReal 23.13 GB
Hi-Res stereo классика и классика в современной обработке [SACD-R][OF] Aage Kvalbein & Iver Kleive - Til Trøst - Meditasjoner for cello og piano - 2008/2017 (Classical) Vi$itReal 805 MB
Многоканальная музыка классика и классика в современной обработке [SACD-R][OF] Alan Civil, Sir Neville Marriner, Academy St. Martin in The Fields - Mozart: The 4 Horn Concertos - 1972/2002 (Orchestral, Horn) RelizMAN 3.22 GB
Display posts:    

Current time is: 18-Feb 07:18

All times are UTC + 3



You cannot post new topics in this forum
You cannot reply to topics in this forum
You cannot edit your posts in this forum
You cannot delete your posts in this forum
You cannot vote in polls in this forum
You cannot attach files in this forum
You can download files in this forum