Reply to topic
DL-List and Torrent activity [Update пиров]
Size:  253 MB   |    Registered:  5 days   |    Completed:  0 times
Seeders:  516  [  0 KB/s  ]   Leechers:  46  [  0 KB/s  ]  
 
     
 
 
Author Message

RelizMAN ®

11

Post 14-Jan-2020 20:50

[Quote]

Mozart - Davide penitente & Exsultate jubilate (Neville Marriner)
Жанр: Classical sacred
Страна-производитель диска: Made in West Germany
Год издания диска: 1987
Издатель (лейбл): Philips ‎; Серии: Philips Digital Classics
Номер по каталогу: 420 952-2
Дата записи: 1987
Аудиокодек: FLAC
Тип рипа: image+.cue
Битрейт аудио: lossless
Продолжительность: 01:00:07
Источник: релизер
сайт-источник/ник/другое: Contrarian, подарок; Caterina Sforza - тяжелейшая работа с cue, доп. сканы
Наличие сканов в содержимом раздачи: да, полный авторский буклет pdf, 31 стр.
Треклист:
Davide Penitente, K. 469
1 Coro: Alzai Le Flebili Voci Al Signor 6:48
2 Coro: Cantiam Le Glorie E Le Lodi 2:17
3 Aria: Lungi Le Cure Ingrate 4:30
4 Coro: Sei Pur Sempre Benigno 1:30
5 Duetto: Sorgi, O Signore 2:30
6 Aria: A Te, Fra Tanti Affanni 6:47
7 Coro: Se Vuoi, Puniscimi 5:25
8 Aria: Fra L'Oscure Ombre Funeste 6:11
9 Terzetto: Tutte Le Mie Speranze 4:09
10 Coro: Chi In Dio Sol Spera 5:11
Exsultate, Jubilate, K. 165
11 Exsultate, Jubilate 4:24
12 Fulget Amica Dies 0:59
13 Tu Virginum Corona 6:55
14 Alleluja 2:28

Исполнители

Wolfgang Amadeus Mozart (1756-1791)
Davide penitente, K. 469Exsultate, jubilate. K. 165
Margaret Marshall (soprano)Iris Vermillion (mezzo-soprano)Hans-Peter Blochwitz (tenor)
Südfunk-chorLászló Heltay (chorus master)Radio-Sinfonieorchester StuttgartNeville Marriner (dir.)

Лог создания рипа

Exact Audio Copy V1.3 from 2. September 2016
EAC extraction logfile from 8. January 2020, 18:17
Sir Neville Marriner, et. al. / Cantata "Davide penitente" K. 469 - Motetto "Exsultate, jubilate" K. 165 - Neville Marriner
Used drive : ASUS BW-16D1X-U Adapter: 1 ID: 1
Read mode : SecureUtilize accurate stream : YesDefeat audio cache : YesMake use of C2 pointers : No
Read offset correction : 667Overread into Lead-In and Lead-Out : NoFill up missing offset samples with silence : YesDelete leading and trailing silent blocks : NoNull samples used in CRC calculations : YesUsed interface : Native Win32 interface for Win NT & 2000
Used output format : User Defined EncoderSelected bitrate : 1024 kBit/sQuality : HighAdd ID3 tag : NoCommand line compressor : C:\Program Files (x86)\Exact Audio Copy\FLAC\FLAC.EXEAdditional command line options : -6 -V -T "ARTIST=%artist%" -T "TITLE=%title%" -T "ALBUM=%albumtitle%" -T "DATE=%year%" -T "TRACKNUMBER=%tracknr%" -T "GENRE=%genre%" -T "COMMENT=%comment%" -T "BAND=%albuminterpret%" -T "ALBUMARTIST=%albuminterpret%" -T "COMPOSER=%composer%" %haslyrics%--tag-from-file=LYRICS="%lyricsfile%"%haslyrics% -T "DISCNUMBER=%cdnumber%" -T "TOTALDISCS=%totalcds%" -T "TOTALTRACKS=%numtracks%" %hascover%--picture="%coverfile%"%hascover% %source% -o %dest%
TOC of the extracted CD
Track | Start | Length | Start sector | End sector --------------------------------------------------------- 1 | 0:00.33 | 6:48.15 | 33 | 30647 2 | 6:48.48 | 2:17.60 | 30648 | 40982 3 | 9:06.33 | 4:30.00 | 40983 | 61232 4 | 13:36.33 | 1:30.00 | 61233 | 67982 5 | 15:06.33 | 2:31.00 | 67983 | 79307 6 | 17:37.33 | 6:47.05 | 79308 | 109837 7 | 24:24.38 | 5:24.45 | 109838 | 134182 8 | 29:49.08 | 6:11.10 | 134183 | 162017 9 | 36:00.18 | 4:09.15 | 162018 | 180707 10 | 40:09.33 | 5:13.00 | 180708 | 204182 11 | 45:22.33 | 4:23.50 | 204183 | 223957 12 | 49:46.08 | 0:58.70 | 223958 | 228377 13 | 50:45.03 | 6:54.55 | 228378 | 259482 14 | 57:39.58 | 2:27.50 | 259483 | 270557
Range status and errors
Selected range
Filename D:\A-upload\Sir Neville Marriner, et. al. - Mozart - Davide penitente & 'Exsultate, jubilate - Neville Marriner.wav
Peak level 97.7 % Extraction speed 7.9 X Range quality 100.0 % Test CRC 0416AF2F Copy CRC 0416AF2F Copy OK
No errors occurred
AccurateRip summary
Track 1 accurately ripped (confidence 6) [9B88593F] (AR v2)Track 2 accurately ripped (confidence 6) [9DC4ACF3] (AR v2)Track 3 accurately ripped (confidence 6) [AC25912F] (AR v2)Track 4 accurately ripped (confidence 6) [C64C9597] (AR v2)Track 5 accurately ripped (confidence 6) [E2325F01] (AR v2)Track 6 accurately ripped (confidence 6) [B891B669] (AR v2)Track 7 accurately ripped (confidence 6) [0D3773AD] (AR v2)Track 8 accurately ripped (confidence 6) [3B51F274] (AR v2)Track 9 accurately ripped (confidence 6) [48A83B78] (AR v2)Track 10 accurately ripped (confidence 6) [B385E135] (AR v2)Track 11 accurately ripped (confidence 6) [B93B44B0] (AR v2)Track 12 accurately ripped (confidence 6) [32C6020E] (AR v2)Track 13 accurately ripped (confidence 5) [367C7008] (AR v2)Track 14 accurately ripped (confidence 5) [7803A63B] (AR v2)
All tracks accurately ripped
End of status report
---- CUETools DB Plugin V2.1.6
[CTDB TOCID: XmgHzw7TWVIMobsID_6d.KOdWxs-] foundSubmit result: XmgHzw7TWVIMobsID_6d.KOdWxs- has been confirmedTrack | CTDB Status 1 | (14/14) Accurately ripped 2 | (14/14) Accurately ripped 3 | (14/14) Accurately ripped 4 | (14/14) Accurately ripped 5 | (14/14) Accurately ripped 6 | (14/14) Accurately ripped 7 | (14/14) Accurately ripped 8 | (14/14) Accurately ripped 9 | (14/14) Accurately ripped 10 | (14/14) Accurately ripped 11 | (12/14) Accurately ripped 12 | (12/14) Accurately ripped 13 | (12/14) Accurately ripped 14 | (14/14) Accurately ripped
==== Log checksum 9143D6ED51087D2F0A29F62CA573B51A7FDF1CE4C6AAF1197203E9A6567647D6 ====

Содержание индексной карты (.CUE)

REM GENRE ClassicalREM DATE 1987REM DISCID C50E170EREM COMMENT "ExactAudioCopy v1.3"PERFORMER "Südfunk-chor, László Heltay (chorus master), Radio-Sinfonieorchester Stuttgart, Neville Marriner (dir.) ; Margaret Marshall (soprano), Iris Vermillion (mezzo-soprano), Hans-Peter Blochwitz (tenor)"TITLE "Cantata “Davide penitente” K. 469 & Motetto “Exsultate, jubilate” K. 165"REM COMPOSER "Wolfgang Amadeus Mozart (1756-1791)"FILE "Mozart - Davide penitente & Exsultate, jubilate - Neville Marriner.flac" WAVE  TRACK 01 AUDIO    TITLE "DAVIDE PENITENTE, K. 469, Cantata - No. 1 Coro (e soprano I): Alzai le flebili voci al Signor"    PERFORMER "Südfunk-chor, Radio-Sinfonieorchester Stuttgart, Neville Marriner & Margaret Marshall"    REM COMPOSER "Wolfgang Amadeus Mozart"    REM INDEX 00 00:00:00    INDEX 01 00:00:33  TRACK 02 AUDIO    TITLE "Davide Penitente - No. 2 Coro: Cantiam le glorie e le lodi"    PERFORMER "Südfunk-chor, Radio-Sinfonieorchester Stuttgart, Neville Marriner"    REM COMPOSER "Wolfgang Amadeus Mozart"    INDEX 01 06:48:48  TRACK 03 AUDIO    TITLE "Davide Penitente - No. 3 Aria (soprano II): Lungi le cure ingrate"    PERFORMER "Radio-Sinfonieorchester Stuttgart, Neville Marriner & Iris Vermillion"    REM COMPOSER "Wolfgang Amadeus Mozart"    REM INDEX 00 09:05:33    INDEX 01 09:06:33  TRACK 04 AUDIO    TITLE "Davide Penitente - No. 4 Coro: Sii pur sempre benigno, oh Dio"    PERFORMER "Südfunk-chor, Radio-Sinfonieorchester Stuttgart, Neville Marriner"    REM COMPOSER "Wolfgang Amadeus Mozart"    INDEX 01 13:36:33  TRACK 05 AUDIO    TITLE "Davide Penitente - No. 5 Duetto (soprano I e II): Sorgi, o Signore, e spargi i tuoi nemici"    PERFORMER "Radio-Sinfonieorchester Stuttgart, Neville Marriner & Margaret Marshall, Iris Vermillion"    REM COMPOSER "Wolfgang Amadeus Mozart"    INDEX 01 15:06:33  TRACK 06 AUDIO    TITLE "Davide Penitente - No. 6 Aria (tenore): A te, fra tanti affanni"    PERFORMER "Radio-Sinfonieorchester Stuttgart, Neville Marriner & Hans-Peter Blochwitz"    REM COMPOSER "Wolfgang Amadeus Mozart"    REM INDEX 00 17:36:33    INDEX 01 17:37:33  TRACK 07 AUDIO    TITLE "Davide Penitente - No. 7 Coro (cori I e II): Se vuoi, puniscimi"    PERFORMER "Südfunk-chor, Radio-Sinfonieorchester Stuttgart, Neville Marriner"    REM COMPOSER "Wolfgang Amadeus Mozart"    INDEX 01 24:24:38  TRACK 08 AUDIO    TITLE "Davide Penitente - No. 8 Aria (soprano I): Tra l’oscure ombre funeste"    PERFORMER "Radio-Sinfonieorchester Stuttgart, Neville Marriner & Margaret Marshall"    REM COMPOSER "Wolfgang Amadeus Mozart"    INDEX 01 29:49:08  TRACK 09 AUDIO    TITLE "Davide Penitente - No. 9 Terzetto (soprano I e II, tenore): Tutte le mie speranze"    PERFORMER "Radio-Sinfonieorchester Stuttgart, Neville Marriner & Margaret Marshall, Iris Vermillion, Hans-Peter Blochwitz"    REM COMPOSER "Wolfgang Amadeus Mozart"    INDEX 01 36:00:18  TRACK 10 AUDIO    TITLE "Davide Penitente - No. 10 Coro (e soli): Chi in Dio sol spera"    PERFORMER "Südfunk-chor, Radio-Sinfonieorchester Stuttgart, Neville Marriner & Margaret Marshall, Iris Vermillion, Hans-Peter Blochwitz"    REM COMPOSER "Wolfgang Amadeus Mozart"    INDEX 01 40:09:33  TRACK 11 AUDIO    TITLE "EXULTATE, JUBILATE, K. 165, Motet - I. Exsultate, jubilate"    PERFORMER "Radio-Sinfonieorchester Stuttgart, Neville Marriner & Margaret Marshall"    REM COMPOSER "Wolfgang Amadeus Mozart"    REM INDEX 00 45:20:35    INDEX 01 45:22:33  TRACK 12 AUDIO    TITLE "Exsultate, jubilate - II. Fulget amica dies"    PERFORMER "Radio-Sinfonieorchester Stuttgart, Neville Marriner & Margaret Marshall"    REM COMPOSER "Wolfgang Amadeus Mozart"    INDEX 01 49:46:08  TRACK 13 AUDIO    TITLE "Exsultate, jubilate - III. Tu virginum corono"    PERFORMER "Radio-Sinfonieorchester Stuttgart, Neville Marriner & Margaret Marshall"    REM COMPOSER "Wolfgang Amadeus Mozart"    INDEX 01 50:45:03  TRACK 14 AUDIO    TITLE "Exsultate, jubilate - IV. Alleluja"    PERFORMER "Radio-Sinfonieorchester Stuttgart, Neville Marriner & Margaret Marshall"    REM COMPOSER "Wolfgang Amadeus Mozart"    INDEX 01 57:39:58
30 релизов за 3.5 дня (больше, чем весь трекер сделал в Классике с начала января), но никакой реакции.
Сижу на энергетиках, занимаюсь больной матерью, которая практически не ходит.
Любая свободная минутка - садишься за релизы (хотя и нет сил).
[doutdess.net].t380505.torrent
Torrent: Registered [ 2020-01-14 20:50 ] · 4A23EB4118588DD3432E16FB8CC5C835D172FBFD

21 KB

Status: checked
Completed: 0 times
Size: 253 MB
(Classical sacred) Mozart - Davide penitente & Exsultate jubilate (Margaret Marshall, Sudfunk-chor, Radio-Sinfonieorchester Stuttgart, Neville Marriner) - 1987, FLAC (image+.cue) lossless скачать торрент бесплатно и без регистрации

[Profile] [PM]
Forum Topic Author Size
Вокальная музыка в lossless ((classical/operetta)) Schönes bleibt. Unvergessene Tenöre bei WDR 4 / Прекрасное остаётся - 2000, FLAC (image+.cue) lossless Vi$itReal 401 MB
Вокальная и хоровая музыка lossy (Classical (Lieder)) (Lieder) Norman Bailey - Songs of Hugo Wolf - 1979, MP3 (tracks) 320 kbps RelizMAN 120 MB
Концерт для инструмента с оркестром в lossless (Classical ) Top 20 CDs for your Classical Music Collection - ClassicalCDguide.com: 02 - W. A. Mozart - Great Piano Concertos N 20 - 25 (1997) APE (tracks), 450-566 kb/s RelizMAN 582 MB
Концерт для инструмента с оркестром в lossless (Classical ) Top 20 CDs for your Classical Music Collection - ClassicalCDguide.com: 04 - Bach: Die Brandenburgische Konzerte - Orchestra of the Age of Enlightenment 2 CD (1999) APE (tracks), 610-769... RelizMAN 462 MB
Оркестровая музыка в lossless (Classical ) Top 20 CDs for your Classical Music Collection - ClassicalCDguide.com: 06 - Igor Stravinsky; Petroushka, Le Sacre du Printemps - Columbia Symphony Orchestra (Sony 1990) APE (tracks),... Vi$itReal 274 MB
Камерная инструментальная музыка в lossless (Classical ) Top 20 CDs for your Classical Music Collection - ClassicalCDguide.com: 07 - Franz Schubert - \'Trout\' Quintet & \'Death and the Maiden\' - Amadeus Quartet (DG ... Vi$itReal 343 MB
Камерная инструментальная музыка в lossless (Classical ) Top 20 CDs for your Classical Music Collection - ClassicalCDguide.com: 10 - Georges Bizet; Carmen - Sir Thomas Beecham, de Los Angeles, Gedda, Michau, Blanc (EMI 2000) аре (по-треково),... Vi$itReal 745 MB
Камерная инструментальная музыка в lossless (Classical ) Top 20 CDs for your Classical Music Collection - ClassicalCDguide.com: 12 - Франц Шуберт - Симфония No. 3, Unfinished 39; - Carlos Kleiber и Wiener Philharmoniker (DG 1... Vi$itReal 186 MB
Display posts:    

Current time is: 20-Jan 20:20

All times are UTC + 3



You cannot post new topics in this forum
You cannot reply to topics in this forum
You cannot edit your posts in this forum
You cannot delete your posts in this forum
You cannot vote in polls in this forum
You cannot attach files in this forum
You can download files in this forum