Reply to topic
DL-List and Torrent activity [Update пиров]
Size:  323 MB   |    Registered:  1 year 4 months   |    Completed:  0 times
Seeders:  69  [  0 KB/s  ]   Leechers:  13  [  0 KB/s  ]  
 
     
 
 
Author Message

Vi$itReal ®

12

Post 19-Apr-2018 23:50

[Quote]

Khandoshkin - Virtuoso Violin Music at the Court of Catherine the Great
Жанр: Classical chamber
Страна-производитель диска: Made in Canada
Год издания диска: 2006
Издатель (лейбл): Naxos
Номер по каталогу: NX 0028
Дата записи: 2005
Аудиокодек: FLAC
Тип рипа: tracks+.cue
Битрейт аудио: lossless
Продолжительность: 70'17
Источник: релизер
сайт-источник/ник/другое: Bodtje, подарок; Caterina Sforza - работа с cue, правка файлов, доп. сканы
Наличие сканов в содержимом раздачи: да
Треклист:
Violin Sonata in G minor, Op. 3, No. 1
01 .I. Marcia: Maestoso 5:11
02 .II. Allegro assai 4:49
03. III. Andante con variazioni 9:58
Solo: Anastasia Khitruk
Violin Sonata in E flat major, Op. 3, No. 2
04. I. Andante 5:15
05. II. Tempo di minuetto 3:47
06. III. Rondo - Allegro 4:08
Solo: Anastasia Khitruk
Violin Sonata in D major, Op. 3, No. 3
07. I. Andante maestoso 6:12
08. II. Minuetto grazioso 5:12
09. III. Allegro vivace 1:45
Solo: Anastasia Khitruk
6 Old Russian Songs
10. No. 1. Along the bridge, this bridge 5:15
11. No. 2. Is this my fate, this fate? 3:15
12. No. 3. Little dove why do you sit so sadly? 5:11
13. No. 4. What happened and why? 3:00
14. No. 5. Once I gathered golden sheaves 2:58
15. No. 6. Once I was a young man 4:07
Записано на студии «Мелодия»

Исполнители

Ivan Yevstafyevich Khandoshkin (1747-1804)
Virtuoso Violin Music at the Court of Catherine the Great
Anastasia Khitruk (violin)Dmitry Yakubovsky (viola)Kyrill Yevtushenko (cello)
Recorded at the Melodiya studio in St. Catherine's Church, Saint-Petersburg, Russia, in May 2005Audio CD (2 May 2006)

Лог создания рипа

Exact Audio Copy V1.3 from 2. September 2016
EAC extraction logfile from 18. April 2018, 20:33
Anastasia Khitruk / Ivan Yevstafyevich Khandoshkin: Virtuoso Violin Music at the Court of Catherine the Great
Used drive : TSSTcorpDVDWBD SE-406AB Adapter: 1 ID: 2
Read mode : SecureUtilize accurate stream : YesDefeat audio cache : YesMake use of C2 pointers : No
Read offset correction : 6Overread into Lead-In and Lead-Out : NoFill up missing offset samples with silence : YesDelete leading and trailing silent blocks : NoNull samples used in CRC calculations : YesUsed interface : Native Win32 interface for Win NT & 2000Gap handling : Appended to previous track
Used output format : User Defined EncoderSelected bitrate : 768 kBit/sQuality : HighAdd ID3 tag : NoCommand line compressor : C:\Program Files (x86)\Exact Audio Copy\FLAC\FLAC.EXEAdditional command line options : -8 -e -p -V -T "ARTIST=%artist%" -T "TITLE=%title%" -T "ALBUM=%albumtitle%" -T "DATE=%year%" -T "TRACKNUMBER=%tracknr%" -T "GENRE=%genre%" -T "PERFORMER=%albuminterpret%" -T "COMPOSER=%composer%" %haslyrics%--tag-from-file=LYRICS="%lyricsfile%"%haslyrics% -T "ALBUMARTIST=%albumartist%" -T "DISCNUMBER=%cdnumber%" -T "TOTALDISCS=%totalcds%" -T "TOTALTRACKS=%numtracks%" -T "COMMENT=%comment%" %source% -o %dest%
TOC of the extracted CD
Track | Start | Length | Start sector | End sector --------------------------------------------------------- 1 | 0:00.00 | 5:12.36 | 0 | 23435 2 | 5:12.36 | 4:49.32 | 23436 | 45142 3 | 10:01.68 | 9:58.70 | 45143 | 90062 4 | 20:00.63 | 5:15.29 | 90063 | 113716 5 | 25:16.17 | 3:47.71 | 113717 | 130812 6 | 29:04.13 | 4:08.52 | 130813 | 149464 7 | 33:12.65 | 6:12.40 | 149465 | 177404 8 | 39:25.30 | 5:12.39 | 177405 | 200843 9 | 44:37.69 | 1:45.00 | 200844 | 208718 10 | 46:22.69 | 5:15.58 | 208719 | 232401 11 | 51:38.52 | 3:15.14 | 232402 | 247040 12 | 54:53.66 | 5:10.69 | 247041 | 270359 13 | 60:04.60 | 3:00.63 | 270360 | 283922 14 | 63:05.48 | 2:58.58 | 283923 | 297330 15 | 66:04.31 | 4:10.44 | 297331 | 316124
Track 1
Filename K:\Rips\01 - Ivan Khandoshkin - Sonatas (3) for solo violin, Op. 3- Sonata No. 1 in G minor- Marcia- Maestoso.wav
Pre-gap length 0:00:02.00
Peak level 48.4 % Extraction speed 2.0 X Track quality 100.0 % Test CRC 89B23F6D Copy CRC 89B23F6D Accurately ripped (confidence 1) [3B3C01D9] (AR v1) Copy OK
Track 2
Filename K:\Rips\02 - Ivan Khandoshkin - Sonatas (3) for solo violin, Op. 3- Sonata No. 1 in G minor- Allegro assai.wav
Peak level 54.7 % Extraction speed 1.5 X Track quality 100.0 % Test CRC 4DC0520F Copy CRC 4DC0520F Accurately ripped (confidence 1) [8E83E374] (AR v1) Copy OK
Track 3
Filename K:\Rips\03 - Ivan Khandoshkin - Sonatas (3) for solo violin, Op. 3- Sonata No. 1 in G minor- Andante con variazioni.wav
Peak level 65.0 % Extraction speed 2.6 X Track quality 99.9 % Test CRC FC5B4A90 Copy CRC FC5B4A90 Accurately ripped (confidence 1) [710A5885] (AR v1) Copy OK
Track 4
Filename K:\Rips\04 - Ivan Khandoshkin - Sonatas (3) for solo violin, Op. 3- Sonata No. 2 in E flat major- Andante.wav
Pre-gap length 0:00:04.49
Peak level 36.5 % Extraction speed 2.3 X Track quality 99.9 % Test CRC B86F6E33 Copy CRC B86F6E33 Accurately ripped (confidence 1) [112E704F] (AR v1) Copy OK
Track 5
Filename K:\Rips\05 - Ivan Khandoshkin - Sonatas (3) for solo violin, Op. 3- Sonata No. 2 in E flat major- Tempo di minuetto.wav
Peak level 38.0 % Extraction speed 3.4 X Track quality 100.0 % Test CRC E8DA680C Copy CRC E8DA680C Accurately ripped (confidence 1) [A4E0D605] (AR v1) Copy OK
Track 6
Filename K:\Rips\06 - Ivan Khandoshkin - Sonatas (3) for solo violin, Op. 3- Sonata No. 2 in E flat major- Rondo- Allegro.wav
Peak level 47.3 % Extraction speed 3.0 X Track quality 100.0 % Test CRC BC0287D6 Copy CRC BC0287D6 Accurately ripped (confidence 1) [E452C047] (AR v1) Copy OK
Track 7
Filename K:\Rips\07 - Ivan Khandoshkin - Sonatas (3) for solo violin, Op. 3- Sonata No. 3 in D major- Andante maestoso.wav
Pre-gap length 0:00:04.22
Peak level 44.1 % Extraction speed 3.3 X Track quality 100.0 % Test CRC A8D22DB0 Copy CRC A8D22DB0 Accurately ripped (confidence 1) [EB4D406B] (AR v1) Copy OK
Track 8
Filename K:\Rips\08 - Ivan Khandoshkin - Sonatas (3) for solo violin, Op. 3- Sonata No. 3 in D major- Minuetto grazioso.wav
Peak level 34.8 % Extraction speed 3.6 X Track quality 100.0 % Test CRC C8FE0CAF Copy CRC C8FE0CAF Accurately ripped (confidence 1) [192B6EF7] (AR v1) Copy OK
Track 9
Filename K:\Rips\09 - Ivan Khandoshkin - Sonatas (3) for solo violin, Op. 3- Sonata No. 3 in D major- Allegro vivace.wav
Peak level 56.8 % Extraction speed 2.5 X Track quality 100.0 % Test CRC 2C067330 Copy CRC 2C067330 Accurately ripped (confidence 1) [34A772FC] (AR v1) Copy OK
Track 10
Filename K:\Rips\10 - Ivan Khandoshkin - Six Old Russian Songs, for violin- Along the bridge, this bridge.wav
Pre-gap length 0:00:03.60
Peak level 58.4 % Extraction speed 2.4 X Track quality 100.0 % Test CRC 3738D098 Copy CRC 3738D098 Accurately ripped (confidence 1) [8CCD5DC1] (AR v1) Copy OK
Track 11
Filename K:\Rips\11 - Ivan Khandoshkin - Six Old Russian Songs, for violin- Is this my fate, this fate.wav
Pre-gap length 0:00:03.69
Peak level 72.0 % Extraction speed 2.0 X Track quality 99.9 % Test CRC 603F74E7 Copy CRC 603F74E7 Accurately ripped (confidence 1) [A8C06366] (AR v1) Copy OK
Track 12
Filename K:\Rips\12 - Ivan Khandoshkin - Six Old Russian Songs, for violin- Little dove, why do you sit so sadly.wav
Pre-gap length 0:00:04.25
Peak level 89.7 % Extraction speed 2.6 X Track quality 100.0 % Test CRC 82F979A4 Copy CRC 82F979A4 Accurately ripped (confidence 1) [9D9360B1] (AR v1) Copy OK
Track 13
Filename K:\Rips\13 - Ivan Khandoshkin - Six Old Russian Songs, for violin- What happened and why.wav
Pre-gap length 0:00:04.28
Peak level 61.7 % Extraction speed 2.4 X Track quality 100.0 % Test CRC B7739B77 Copy CRC B7739B77 Accurately ripped (confidence 1) [2538E19A] (AR v1) Copy OK
Track 14
Filename K:\Rips\14 - Ivan Khandoshkin - Six Old Russian Songs, for violin- Once I gathered golden sheaves.wav
Pre-gap length 0:00:04.43
Peak level 71.8 % Extraction speed 2.5 X Track quality 100.0 % Test CRC 1D0ECC8C Copy CRC 1D0ECC8C Accurately ripped (confidence 1) [B45BA0C7] (AR v1) Copy OK
Track 15
Filename K:\Rips\15 - Ivan Khandoshkin - Six Old Russian Songs, for violin- Once I was a young man.wav
Pre-gap length 0:00:04.17
Peak level 69.3 % Extraction speed 2.6 X Track quality 100.0 % Test CRC EE529C23 Copy CRC EE529C23 Accurately ripped (confidence 1) [D8581B2C] (AR v1) Copy OK
All tracks accurately ripped
No errors occurred
End of status report
---- CUETools DB Plugin V2.1.6
[CTDB TOCID: 2krVQkHxfkYr6utJCdujwPAfgd4-] foundSubmit result: 2krVQkHxfkYr6utJCdujwPAfgd4- has been confirmedTrack | CTDB Status 1 | (3/3) Accurately ripped 2 | (3/3) Accurately ripped 3 | (3/3) Accurately ripped 4 | (3/3) Accurately ripped 5 | (3/3) Accurately ripped 6 | (3/3) Accurately ripped 7 | (3/3) Accurately ripped 8 | (3/3) Accurately ripped 9 | (3/3) Accurately ripped 10 | (3/3) Accurately ripped 11 | (3/3) Accurately ripped 12 | (3/3) Accurately ripped 13 | (3/3) Accurately ripped 14 | (3/3) Accurately ripped 15 | (3/3) Accurately ripped
==== Log checksum 405587B15DFB134092F332306C2BAECCF1C6CB2EC66FE6FA95B6FE673B5F8241 ====

Содержание индексной карты (.CUE)

REM GENRE "Chamber Music"REM DATE 2006REM DISCID E610770FREM COMMENT "ExactAudioCopy v1.3"PERFORMER "Anastasia Khitruk (violin), Dmitry Yakubovsky (viola), Kyrill Yevtushenko (cello)"TITLE "Ivan Yevstafyevich Khandoshkin: Virtuoso Violin Music at the Court of Catherine the Great"REM COMPOSER "Ivan Yevstafyevich Khandoshkin (1747-1804)"FILE "01 - Sonatas (3) for solo violin, Op. 3- Sonata No. 1 in G minor- Marcia- Maestoso.flac" WAVE  TRACK 01 AUDIO    TITLE "Sonatas (3) for solo violin, Op. 3: Sonata No. 1 in G minor: Marcia: Maestoso"    PERFORMER "Anastasia Khitruk"    REM COMPOSER "Ivan Yevstafyevich Khandoshkin (1747-1804)"    INDEX 01 00:00:00FILE "02 - Sonatas (3) for solo violin, Op. 3- Sonata No. 1 in G minor- Allegro assai.flac" WAVE  TRACK 02 AUDIO    TITLE "Sonatas (3) for solo violin, Op. 3: Sonata No. 1 in G minor: Allegro assai"    PERFORMER "Anastasia Khitruk"    REM COMPOSER "Ivan Yevstafyevich Khandoshkin (1747-1804)"    INDEX 01 00:00:00FILE "03 - Sonatas (3) for solo violin, Op. 3- Sonata No. 1 in G minor- Andante con variazioni.flac" WAVE  TRACK 03 AUDIO    TITLE "Sonatas (3) for solo violin, Op. 3: Sonata No. 1 in G minor: Andante con variazioni"    PERFORMER "Anastasia Khitruk"    REM COMPOSER "Ivan Yevstafyevich Khandoshkin (1747-1804)"    INDEX 01 00:00:00  TRACK 04 AUDIO    TITLE "Sonatas (3) for solo violin, Op. 3: Sonata No. 2 in E flat major: Andante"    PERFORMER "Anastasia Khitruk"    REM COMPOSER "Ivan Yevstafyevich Khandoshkin (1747-1804)"    INDEX 00 09:54:21FILE "04 - Sonatas (3) for solo violin, Op. 3- Sonata No. 2 in E flat major- Andante.flac" WAVE    INDEX 01 00:00:00FILE "05 - Sonatas (3) for solo violin, Op. 3- Sonata No. 2 in E flat major- Tempo di minuetto.flac" WAVE  TRACK 05 AUDIO    TITLE "Sonatas (3) for solo violin, Op. 3: Sonata No. 2 in E flat major: Tempo di Tempo di minuetto"    PERFORMER "Anastasia Khitruk"    REM COMPOSER "Ivan Yevstafyevich Khandoshkin (1747-1804)"    INDEX 01 00:00:00FILE "06 - Sonatas (3) for solo violin, Op. 3- Sonata No. 2 in E flat major- Rondo- Allegro.flac" WAVE  TRACK 06 AUDIO    TITLE "Sonatas (3) for solo violin, Op. 3: Sonata No. 2 in E flat major: Rondo: Allegro"    PERFORMER "Anastasia Khitruk"    REM COMPOSER "Ivan Yevstafyevich Khandoshkin (1747-1804)"    INDEX 01 00:00:00  TRACK 07 AUDIO    TITLE "Sonatas (3) for solo violin, Op. 3: Sonata No. 3 in D major: Andante maestoso"    PERFORMER "Anastasia Khitruk"    REM COMPOSER "Ivan Yevstafyevich Khandoshkin (1747-1804)"    INDEX 00 04:04:30FILE "07 - Sonatas (3) for solo violin, Op. 3- Sonata No. 3 in D major- Andante maestoso.flac" WAVE    INDEX 01 00:00:00FILE "08 - Sonatas (3) for solo violin, Op. 3- Sonata No. 3 in D major- Minuetto grazioso.flac" WAVE  TRACK 08 AUDIO    TITLE "Sonatas (3) for solo violin, Op. 3: Sonata No. 3 in D major: Minuetto grazioso"    PERFORMER "Anastasia Khitruk"    REM COMPOSER "Ivan Yevstafyevich Khandoshkin (1747-1804)"    INDEX 01 00:00:00FILE "09 - Sonatas (3) for solo violin, Op. 3- Sonata No. 3 in D major- Allegro vivace.flac" WAVE  TRACK 09 AUDIO    TITLE "Sonatas (3) for solo violin, Op. 3: Sonata No. 3 in D major: Allegro vivace"    PERFORMER "Anastasia Khitruk"    REM COMPOSER "Ivan Yevstafyevich Khandoshkin (1747-1804)"    INDEX 01 00:00:00  TRACK 10 AUDIO    TITLE "Six Old Russian Songs, for violin: Along the bridge, this bridge"    PERFORMER "Kyrill Yevtushenko/Dmitry Yakubovsky/Anastasia Khitruk"    REM COMPOSER "Ivan Yevstafyevich Khandoshkin (1747-1804)"    INDEX 00 01:41:15FILE "10 - Six Old Russian Songs, for violin- Along the bridge, this bridge.flac" WAVE    INDEX 01 00:00:00  TRACK 11 AUDIO    TITLE "Six Old Russian Songs, for violin: Is this my fate, this fate?"    PERFORMER "Kyrill Yevtushenko/Dmitry Yakubovsky/Anastasia Khitruk"    REM COMPOSER "Ivan Yevstafyevich Khandoshkin (1747-1804)"    INDEX 00 05:11:64FILE "11 - Six Old Russian Songs, for violin- Is this my fate, this fate.flac" WAVE    INDEX 01 00:00:00  TRACK 12 AUDIO    TITLE "Six Old Russian Songs, for violin: Little dove, why do you sit so sadly?"    PERFORMER "Kyrill Yevtushenko/Dmitry Yakubovsky/Anastasia Khitruk"    REM COMPOSER "Ivan Yevstafyevich Khandoshkin (1747-1804)"    INDEX 00 03:10:64FILE "12 - Six Old Russian Songs, for violin- Little dove, why do you sit so sadly.flac" WAVE    INDEX 01 00:00:00  TRACK 13 AUDIO    TITLE "Six Old Russian Songs, for violin: What happened and why?"    PERFORMER "Kyrill Yevtushenko/Dmitry Yakubovsky/Anastasia Khitruk"    REM COMPOSER "Ivan Yevstafyevich Khandoshkin (1747-1804)"    INDEX 00 05:06:41FILE "13 - Six Old Russian Songs, for violin- What happened and why.flac" WAVE    INDEX 01 00:00:00  TRACK 14 AUDIO    TITLE "Six Old Russian Songs, for violin: Once I gathered golden sheaves"    PERFORMER "Kyrill Yevtushenko/Dmitry Yakubovsky/Anastasia Khitruk"    REM COMPOSER "Ivan Yevstafyevich Khandoshkin (1747-1804)"    INDEX 00 02:56:20FILE "14 - Six Old Russian Songs, for violin- Once I gathered golden sheaves.flac" WAVE    INDEX 01 00:00:00  TRACK 15 AUDIO    TITLE "Six Old Russian Songs, for violin: Once I was a young man"    PERFORMER "Kyrill Yevtushenko/Dmitry Yakubovsky/Anastasia Khitruk"    REM COMPOSER "Ivan Yevstafyevich Khandoshkin (1747-1804)"    INDEX 00 02:54:41FILE "15 - Six Old Russian Songs, for violin- Once I was a young man.flac" WAVE    INDEX 01 00:00:00
[doutdess.net].t262318.torrent
Torrent: Registered [ 2018-04-19 23:50 ] · 50C358CB827A2A63CB7B5F1856498F052310B26C

16 KB

Status: checked
Completed: 0 times
Size: 323 MB
(Classical chamber) Khandoshkin/Хандошкин - Virtuoso Violin Music at the Court of Catherine the Great (Anastasia Khitruk/Хитрюк, Dmitry Yakubovsky/Якубовский, Kyrill Yevtushenko/Евтушенко) - 2006, FLAC (tracks+.cue) lossless скачать торрент бесплатно и без регистрации

[Profile] [PM]
Forum Topic Author Size
Вокальная музыка в lossless ((classical/operetta)) Schönes bleibt. Unvergessene Tenöre bei WDR 4 / Прекрасное остаётся - 2000, FLAC (image+.cue) lossless Vi$itReal 401 MB
Вокальная и хоровая музыка lossy (Classical (Lieder)) (Lieder) Norman Bailey - Songs of Hugo Wolf - 1979, MP3 (tracks) 320 kbps RelizMAN 120 MB
Концерт для инструмента с оркестром в lossless (Classical ) Top 20 CDs for your Classical Music Collection - ClassicalCDguide.com: 02 - W. A. Mozart - Great Piano Concertos N 20 - 25 (1997) APE (tracks), 450-566 kb/s RelizMAN 582 MB
Концерт для инструмента с оркестром в lossless (Classical ) Top 20 CDs for your Classical Music Collection - ClassicalCDguide.com: 04 - Bach: Die Brandenburgische Konzerte - Orchestra of the Age of Enlightenment 2 CD (1999) APE (tracks), 610-769... RelizMAN 462 MB
Оркестровая музыка в lossless (Classical ) Top 20 CDs for your Classical Music Collection - ClassicalCDguide.com: 06 - Igor Stravinsky; Petroushka, Le Sacre du Printemps - Columbia Symphony Orchestra (Sony 1990) APE (tracks),... Vi$itReal 274 MB
Камерная инструментальная музыка в lossless (Classical ) Top 20 CDs for your Classical Music Collection - ClassicalCDguide.com: 07 - Franz Schubert - \'Trout\' Quintet & \'Death and the Maiden\' - Amadeus Quartet (DG ... Vi$itReal 343 MB
Камерная инструментальная музыка в lossless (Classical ) Top 20 CDs for your Classical Music Collection - ClassicalCDguide.com: 10 - Georges Bizet; Carmen - Sir Thomas Beecham, de Los Angeles, Gedda, Michau, Blanc (EMI 2000) аре (по-треково),... Vi$itReal 745 MB
Камерная инструментальная музыка в lossless (Classical ) Top 20 CDs for your Classical Music Collection - ClassicalCDguide.com: 12 - Франц Шуберт - Симфония No. 3, Unfinished 39; - Carlos Kleiber и Wiener Philharmoniker (DG 1... Vi$itReal 186 MB
Display posts:    

Current time is: 25-Aug 23:12

All times are UTC + 3



You cannot post new topics in this forum
You cannot reply to topics in this forum
You cannot edit your posts in this forum
You cannot delete your posts in this forum
You cannot vote in polls in this forum
You cannot attach files in this forum
You can download files in this forum