Reply to topic
DL-List and Torrent activity [Update пиров]
Size:  1.64 GB   |    Registered:  1 year 4 months   |    Completed:  0 times
Seeders:  620  [  0 KB/s  ]   Leechers:  39  [  0 KB/s  ]  
 
     
 
 
Author Message

RelizMAN ®

11

Post 19-Apr-2018 21:40

[Quote]

Georg Philipp Telemann - Concertos and Chamber Music (vol 1 - 5) Musica Alta Ripa
Жанр: Baroque
Производитель диска: Germany
Аудио кодек: FLAC
Тип рипа: image+.cue
Битрейт аудио: lossless- Musica Alta Ripa
Gregor Hollmann, Rudolf Innig, Bernward Lohr, Ludger Rémy - harpsichord; Karl Kaiser - flute; Anne Röhrig - violin
-

Volume 1

Georg Philipp Telemann - Concertos and Chamber Music Vol. 1
Год выпуска диска: 2004
Продолжительность: 01:05:497

Tracklist

Sonata TWV 43:F1
for 2 violins, viola and B.c.
Concerto TWV 51:C1
for recorder, 2 violins, viola and B.c.
Overture TWV 55:fis
for 2 violins, viola and B.c.
Quadro TWV:43:g 4
for recorder, violin, viola and B.c.
Concerto TWV 51:G 9
for viola solo, 2 violins, viola and B.c.

отчёт ЕАС

Exact Audio Copy V0.99 prebeta 3 from 28. July 2007
Archivo Log de extracciones desde 8. Febrero 2008, 14:09
L'Orfeo Barockorchester, Michi Gaigg / Holzbauer Sinfonien
Usar unidad : HL-DT-STDVD-ROM GDR8163B Adapter: 0 ID: 0
Modo de Lectura : Seguro
Utilizar Corriente Exacta : Sн
Descartar Audio cachй : Sн
Utilizar los punteros C2 : No
Correcciуn de Desplazamiento de Lectura : 102
Sobreleer tanto en Lead-In como en Lead-Out : No
Rellenar las muestras faltantes con silencios : Sн
Eliminar silencios inicial y final : No
Se han usado muestras nulas en los cбlculos CRC : Sн
Interfaz usada : Interfaz propio de Win32 para Windowns NT y 2000
Formato de Salida utilizado : Rutinas WAV Internas
Formato de Muestreo : 44.100 Hz; 16 Bit; Estйreo
TOC del CD extraido
Pista | Inicio | Duraciуn | Sector inicial | Sector final
-------------------------------------------------------------
1 | 0:00.00 | 6:28.42 | 0 | 29141
2 | 6:28.42 | 6:30.25 | 29142 | 58416
3 | 12:58.67 | 4:01.68 | 58417 | 76559
4 | 17:00.60 | 2:01.65 | 76560 | 85699
5 | 19:02.50 | 3:44.45 | 85700 | 102544
6 | 22:47.20 | 1:33.30 | 102545 | 109549
7 | 24:20.50 | 3:48.02 | 109550 | 126651
8 | 28:08.52 | 3:37.45 | 126652 | 142971
9 | 31:46.22 | 2:27.25 | 142972 | 154021
10 | 34:13.47 | 2:00.25 | 154022 | 163046
11 | 36:13.72 | 3:33.55 | 163047 | 179076
12 | 39:47.52 | 2:25.33 | 179077 | 189984
13 | 42:13.10 | 7:10.24 | 189985 | 222258
14 | 49:23.34 | 3:53.46 | 222259 | 239779
15 | 53:17.05 | 5:06.20 | 239780 | 262749
16 | 58:23.25 | 5:30.12 | 262750 | 287511
Gama de estados y errores
Seleccionar gama
Nombre de Archivo C:\Documents and Settings\Jose\Mis documentos\Publicaciones\APE CUE COVERS\CDImagen.wav
Nivel Pico 100.0 %
Gama de Calidad 100.0 %
Copiar CRC 6BAAF457
Copia OK
Sin Errores
Resumen AccurateRip
Pista 1 no presente en la base de datos
Pista 2 no presente en la base de datos
Pista 3 no presente en la base de datos
Pista 4 no presente en la base de datos
Pista 5 no presente en la base de datos
Pista 6 no presente en la base de datos
Pista 7 no presente en la base de datos
Pista 8 no presente en la base de datos
Pista 9 no presente en la base de datos
Pista 10 no presente en la base de datos
Pista 11 no presente en la base de datos
Pista 12 no presente en la base de datos
Pista 13 no presente en la base de datos
Pista 14 no presente en la base de datos
Pista 15 no presente en la base de datos
Pista 16 no presente en la base de datos
Ninguna de las pistas estб presente en la base de datos AccurateRip
Final del Informe
------------------------------------------------------------
Exact Audio Copy V0.99 prebeta 3 from 28. July 2007
Archivo Log de extracciones desde 16. Febrero 2008, 10:59
Musica Alta Ripa / Telemann - Konzerte und Kammermusik Vol01
Usar unidad : SONY DVD RW DRU-190A Adapter: 0 ID: 1
Modo de Lectura : Seguro
Utilizar Corriente Exacta : Sн
Descartar Audio cachй : Sн
Utilizar los punteros C2 : No
Correcciуn de Desplazamiento de Lectura : 0
Sobreleer tanto en Lead-In como en Lead-Out : No
Rellenar las muestras faltantes con silencios : Sн
Eliminar silencios inicial y final : No
Se han usado muestras nulas en los cбlculos CRC : Sн
Interfaz usada : Interfaz propio de Win32 para Windowns NT y 2000
Formato de Salida utilizado : Rutinas WAV Internas
Formato de Muestreo : 44.100 Hz; 16 Bit; Estйreo
TOC del CD extraido
Pista | Inicio | Duraciуn | Sector inicial | Sector final
-------------------------------------------------------------
1 | 0:00.00 | 1:41.12 | 0 | 7586
2 | 1:41.12 | 3:00.55 | 7587 | 21141
3 | 4:41.67 | 1:57.20 | 21142 | 29936
4 | 6:39.12 | 2:23.13 | 29937 | 40674
5 | 9:02.25 | 3:29.67 | 40675 | 56416
6 | 12:32.17 | 3:42.65 | 56417 | 73131
7 | 16:15.07 | 5:02.73 | 73132 | 95854
8 | 21:18.05 | 4:18.52 | 95855 | 115256
9 | 25:36.57 | 6:59.55 | 115257 | 146736
10 | 32:36.37 | 1:54.48 | 146737 | 155334
11 | 34:31.10 | 1:16.42 | 155335 | 161076
12 | 35:47.52 | 1:22.20 | 161077 | 167246
13 | 37:09.72 | 1:41.68 | 167247 | 174889
14 | 38:51.65 | 2:42.42 | 174890 | 187081
15 | 41:34.32 | 1:43.05 | 187082 | 194811
16 | 43:17.37 | 0:59.03 | 194812 | 199239
17 | 44:16.40 | 2:04.45 | 199240 | 208584
18 | 46:21.10 | 1:51.65 | 208585 | 216974
19 | 48:13.00 | 4:36.45 | 216975 | 237719
20 | 52:49.45 | 3:06.22 | 237720 | 251691
21 | 55:55.67 | 2:39.38 | 251692 | 263654
22 | 58:35.30 | 3:39.05 | 263655 | 280084
23 | 62:14.35 | 3:32.65 | 280085 | 296049
Gama de estados y errores
Seleccionar gama
Nombre de Archivo C:\Documents and Settings\Jose\Mis documentos\Publicaciones\APE CUE COVERS\CDImagen.wav
Nivel Pico 99.5 %
Gama de Calidad 100.0 %
Copiar CRC 36189CBA
Copia OK
Sin Errores
Final del Informe

Volume 2

Georg Philipp Telemann - Concertos and Chamber Music Vol. 2
Год выпуска диска: 2004
Продолжительность: 01:02:43

Tracklist

Concerto TWV 43:d2 D minor / ré mineur / d-Moll
for 2 violins, viola and B. c.
Concerto TWV 52:F1 F major / fa majeur / F-Dur
for recorder, bassoon, 2 violins, viola and B. c.
Sonata TWV 44:32 F minor / fa mineur / f-Moll
for 2 violins, 2 violas and B.c.
Sonata TWV 41:D6 D major / ré majeur / D-Dur
for Violoncello and B. c.
Overture TWV 55:h4 B minor / si mineur / h-Moll
for violin solo, 2 violins, viola and B. c.

отчёт ЕАС

Exact Audio Copy V0.99 prebeta 3 from 28. July 2007
Archivo Log de extracciones desde 23. Febrero 2008, 10:41
Georg Philipp Telemann / Telemann: Konzerte und Kammermusik Vol02
Usar unidad : SONY DVD RW DRU-190A Adapter: 0 ID: 1
Modo de Lectura : Seguro
Utilizar Corriente Exacta : Sн
Descartar Audio cachй : Sн
Utilizar los punteros C2 : No
Correcciуn de Desplazamiento de Lectura : 0
Sobreleer tanto en Lead-In como en Lead-Out : No
Rellenar las muestras faltantes con silencios : Sн
Eliminar silencios inicial y final : No
Se han usado muestras nulas en los cбlculos CRC : Sн
Interfaz usada : Interfaz propio de Win32 para Windowns NT y 2000
Formato de Salida utilizado : Rutinas WAV Internas
Formato de Muestreo : 44.100 Hz; 16 Bit; Estйreo
TOC del CD extraido
Pista | Inicio | Duraciуn | Sector inicial | Sector final
-------------------------------------------------------------
1 | 0:00.00 | 2:31.32 | 0 | 11356
2 | 2:31.32 | 2:15.18 | 11357 | 21499
3 | 4:46.50 | 2:06.12 | 21500 | 30961
4 | 6:52.62 | 2:49.40 | 30962 | 43676
5 | 9:42.27 | 4:25.50 | 43677 | 63601
6 | 14:08.02 | 4:16.60 | 63602 | 82861
7 | 18:24.62 | 4:24.38 | 82862 | 102699
8 | 22:49.25 | 3:43.67 | 102700 | 119491
9 | 26:33.17 | 1:20.65 | 119492 | 125556
10 | 27:54.07 | 1:48.70 | 125557 | 133726
11 | 29:43.02 | 2:01.58 | 133727 | 142859
12 | 31:44.60 | 1:57.47 | 142860 | 151681
13 | 33:42.32 | 1:55.70 | 151682 | 160376
14 | 35:38.27 | 2:44.63 | 160377 | 172739
15 | 38:23.15 | 2:08.32 | 172740 | 182371
16 | 40:31.47 | 1:57.05 | 182372 | 191151
17 | 42:28.52 | 5:30.08 | 191152 | 215909
18 | 47:58.60 | 2:10.40 | 215910 | 225699
19 | 50:09.25 | 1:27.57 | 225700 | 232281
20 | 51:37.07 | 2:51.45 | 232282 | 245151
21 | 54:28.52 | 2:35.53 | 245152 | 256829
22 | 57:04.30 | 3:08.45 | 256830 | 270974
23 | 60:13.00 | 2:30.00 | 270975 | 282224
Gama de estados y errores
Seleccionar gama
Nombre de Archivo C:\Documents and Settings\Jose\Mis documentos\Publicaciones\Telemann Overtures Sonatas & Concertos II Musica Alta Ripa APE CUE COVERS\CDImagen.wav
Nivel Pico 94.6 %
Gama de Calidad 100.0 %
Copiar CRC 13F52B3C
Copia OK
Sin Errores
Final del Informe

Volume 3

Georg Philipp Telemann - Concertos and Chamber Music Vol. 3
Год выпуска диска: 2005
Продолжительность: 00:58:13

Tracklist

Concerto TWV 43:D4 D major / ré majeur / D-Dur
for 2 violins, viola and B. c.
Concerto di camera TWV 43:g3 G minor / sol mineur / g-Moll
for recorder, 2 violins and B. c.
Sonatina TWV 41: c2 C minor / ut mineur / c-Moll
for bassoon and B.c.
Overture TWV 55:F2 F D major / fa majeur / F-Dur
for 2 violas and B. c.
Sonatina TWV 41: a4 A minor / la mineur / a-Moll
for recorder and B.c.
Sonate corellisante TWV 42:h3 B minor / si mineur / h-Moll
for 2 violins and B.c.

отчёт ЕАС

EAC extraction logfile from 14. January 2007, 14:06 for CD
Musica Alta Ripa / Telemann - Overtures, Sonatas & Concertos
Used drive : HL-DT-STDVD-ROM GDR8163B Adapter: 0 ID: 0
Read mode : Secure with NO C2, accurate stream, disable cache
Combined read/write offset correction : 0
Overread into Lead-In and Lead-Out : No
Used output format : Internal WAV Routines
44.100 Hz; 16 Bit; Stereo
Other options :
Fill up missing offset samples with silence : Yes
Delete leading and trailing silent blocks : No
Native Win32 interface for Win NT & 2000
Range status and errors
Selected range
Filename C:\Documents and Settings\Jose\Mis documentos\Mi mъsica\Subida\Telemann - Overtures, Sonatas & Concertos - Musica Alta Ripa.wav
Peak level 83.5 %
Range quality 99.9 %
CRC A0997D95
Copy OK
No errors occured
End of status report
------------------------------------------------------------
EAC extraction logfile from 14. January 2007, 14:06 for CD
Musica Alta Ripa / Telemann - Overtures, Sonatas & Concertos
Used drive : HL-DT-STDVD-ROM GDR8163B Adapter: 0 ID: 0
Read mode : Secure with NO C2, accurate stream, disable cache
Combined read/write offset correction : 0
Overread into Lead-In and Lead-Out : No
Used output format : Internal WAV Routines
44.100 Hz; 16 Bit; Stereo
Other options :
Fill up missing offset samples with silence : Yes
Delete leading and trailing silent blocks : No
Native Win32 interface for Win NT & 2000
Range status and errors
Selected range
Filename C:\Documents and Settings\Jose\Mis documentos\Mi mъsica\Subida\Telemann - Overtures, Sonatas & Concertos - Musica Alta Ripa.wav
Peak level 83.5 %
Range quality 99.9 %
CRC A0997D95
Copy OK
No errors occured
End of status report

Volume 4

Georg Philipp Telemann - Concertos and Chamber Music Vol. 4
Год выпуска диска: 2006
Продолжительность: 01:00:32

Tracklist

Concerto TWV 43:G5
G major / sol majeur / G-Dur for 2 violins, viola and B. c.
Ouverture TWV 55:E2
E major / mi majeur / E-Dur for Oboe d‘amore, 2 violins, viola and B. c
Concerto TWV 52:B1
B fl at major / si bémol majeur / B-Dur for 2 recorders, 2 violins, viola and B. c.
Sonata TWV 41:D1
D major / ré majeur / D-Dur for violin and B. c.
Concerto TWV 43:a3
A minor / la mineur / a-Moll for recorder, oboe, violin and B. c.

спектр

Volume 5

Georg Philipp Telemann - Concertos and Chamber Music Vol. 5
Год выпуска диска: 2007
Продолжительность: 01:05:31

Tracklist

Concerto TWV 43:A4
A major / la majeur / A-Dur for 2 violins, viola and B. c.
Sonata TWV 42:d10
D minor / ré mineur / d-Moll for recorder, violin and B.c.
Ouverture TWV 55:g8
G minor / sol mineur / g-Moll for 2 violins solo, 2 violins in ripieno and B. c
Quadro TWV 43:G6
G major / sol majeur / G-Dur for recorder, oboe, violin and B.c.
Sonata TWV 40:203
C major / utmajeur / C-Dur for for 4 violins without bass
Partia 5 TWV 41:e1
E minor / mi mineur / e-Moll for recorder and B. c.

отчёт ЕАС

Exact Audio Copy V0.99 prebeta 3 from 28. July 2007
Archivo Log de extracciones desde 7. Marzo 2008, 22:57
Les Agremens / Gossec: Symphonies Oeuvre XII
Usar unidad : SONY DVD RW DRU-190A Adapter: 0 ID: 1
Modo de Lectura : Seguro
Utilizar Corriente Exacta : Sн
Descartar Audio cachй : Sн
Utilizar los punteros C2 : No
Correcciуn de Desplazamiento de Lectura : 0
Sobreleer tanto en Lead-In como en Lead-Out : No
Rellenar las muestras faltantes con silencios : Sн
Eliminar silencios inicial y final : No
Se han usado muestras nulas en los cбlculos CRC : Sн
Interfaz usada : Interfaz propio de Win32 para Windowns NT y 2000
Formato de Salida utilizado : Rutinas WAV Internas
Formato de Muestreo : 44.100 Hz; 16 Bit; Estйreo
TOC del CD extraido
Pista | Inicio | Duraciуn | Sector inicial | Sector final
-------------------------------------------------------------
1 | 0:00.00 | 5:02.60 | 0 | 22709
2 | 5:02.60 | 4:58.15 | 22710 | 45074
3 | 10:01.00 | 3:28.60 | 45075 | 60734
4 | 13:29.60 | 4:58.65 | 60735 | 83149
5 | 18:28.50 | 4:41.53 | 83150 | 104277
6 | 23:10.28 | 4:35.63 | 104278 | 124965
7 | 27:46.16 | 6:46.24 | 124966 | 155439
8 | 34:32.40 | 3:35.51 | 155440 | 171615
9 | 38:08.16 | 4:35.24 | 171616 | 192264
10 | 42:43.40 | 7:13.33 | 192265 | 224772
11 | 49:56.73 | 5:50.52 | 224773 | 251074
12 | 55:47.50 | 3:22.48 | 251075 | 266272
Gama de estados y errores
Seleccionar gama
Nombre de Archivo C:\Documents and Settings\Jose\Mis documentos\Publicaciones\APE CUE COVERS\CDimagen.wav
Nivel Pico 71.5 %
Gama de Calidad 100.0 %
Copiar CRC B94F93BA
Copia OK
Sin Errores
Final del Informe
[doutdess.net].t262303.torrent
Torrent: Registered [ 2018-04-19 21:40 ] · 27FA56D0179B635A6CC656443439F8D7507EE32C

22 KB

Status: checked
Completed: 0 times
Size: 1.64 GB
(Baroque) Georg Philipp Telemann - Concertos and Chamber Music (vol 1 - 5) Musica Alta Ripa, FLAC (image+.cue), lossless скачать торрент бесплатно и без регистрации

[Profile] [PM]
Forum Topic Author Size
Концерт для инструмента с оркестром в lossless (Baroque) A.Vivaldi - Le Quattro Stagioni [The Four Seasons] (The Drottningholm Baroque Ensemble, N.-E.Sparf) - 1984, APE (image+.cue), lossless RelizMAN 231 MB
Концерт для инструмента с оркестром в lossless (Baroque) A.Vivaldi, J.S. Bach, A. Marcello, G. Telemann, Concertos for oboe and orchestra, Vladimir Kurlin - 2000, FLAC (image+.cue) lossless RelizMAN 305 MB
Вокальная музыка в lossless (Baroque) Antonia Bembo ‎- Produzioni Armoniche (Maria Jonas, Convoce.Coeln) (Giuseppe Maria Jacchini, Robert de Visee, Elisabeth Claude Jacquet De La Guerre) - 2006, FLAC (image+.cue) lossless Vi$itReal 301 MB
Оркестровая музыка в lossless (baroque) BACH YEHUDI MENUHIN Brandenburg concertos Nos. 1-6 (44-16) - 1994, FLAC (image+.cue) lossless Vi$itReal 581 MB
Камерная инструментальная музыка в lossless (baroque) Bach, Johann Sebastian - Sonatas with viola da gamba & harpsichord (Cassandra Luckhardt, Pieter Dirksen, Alfredo Bernardini) - 2009, FLAC (image+.cue) lossless Vi$itReal 515 MB
Концерт для инструмента с оркестром в lossless (baroque) Bach, Johann Sebastian - The Complete Harpsichord Concertos (Christophe Rousset, Academy of Ancient Music, Christopher Hogwood) - 1998, FLAC (image+.cue) lossless RelizMAN 834 MB
Концерт для инструмента с оркестром в lossless (baroque) Galuppi, Baldassare - Musiche Veneziane (4 Concerti a quattro, Harpsichord Concerto, 2 Sinfonie) (English Chamber Orchestra, Jorg Ewald Dahler, Paul Angerer) - 2011, FLAC (image+.cue)... RelizMAN 281 MB
Полные собрания сочинений и многодисковые издания lossy (Baroque) Gerard Lesne - French and Italian Cantatas (Du Buisson, Clerambault, Courbois, Bernier, Stuck, A. Scarlatti, Caldara, Bononcini, Handel) (5CD) - 2008, MP3 (tracks) 320 kbps Vi$itReal 765 MB
Display posts:    

Current time is: 23-Aug 18:22

All times are UTC + 3



You cannot post new topics in this forum
You cannot reply to topics in this forum
You cannot edit your posts in this forum
You cannot delete your posts in this forum
You cannot vote in polls in this forum
You cannot attach files in this forum
You can download files in this forum