Reply to topic
DL-List and Torrent activity [Update пиров]
Size:  2.52 GB   |    Registered:  30 days   |    Completed:  4 times
Seeders:  537  [  0 KB/s  ]   Leechers:  3  [  0 KB/s  ]  
 
     
 
 
Author Message

Vi$itReal ®

12

Post 18-Jan-2020 23:25

[Quote]

Frédéric Chopin: Polonaises
Maurizio Polini, piano- Формат записи/Источник записи: [SACD-R][OF]
Наличие водяных знаков: Нет
Год издания/переиздания диска: 1975/2011
Жанр: Classical
Издатель (лейбл): Deutsche Grammophon ‎/ Japan SHM UCGG-9007
Продолжительность: 01:02:17
Наличие сканов в содержимом раздачи: Да (сканы)-Треклист:
Frédéric Chopin (1810-1849)
01. Polonaise No.1 cis-moll op.26 No.1 (8:28)
02. Polonaise No.2 es-moll op.26 No.2 (8:42)
03. Polonaise No.3 A-dur op.40 No.1 (5:28)
04. Polonaise No.4 c-moll op.40 No.2 (8:07)
05. Polonaise No.5 fis-moll op.44 (11:02)
06. Polonaise No.6 As-dur op.53 (7:11)
07. Polonaise No.7 As-dur op.61 "Polonaise-Fantaisie" (13:19)-Контейнер: ISO (*.iso)
Тип рипа: image
Разрядность: 64(2,8 MHz/1 Bit)
Формат: DSD
Количество каналов: 2.0

DR14

foobar2000 1.3.17 / Dynamic Range Meter 1.1.1log date: 2020-01-18 13:46:31
--------------------------------------------------------------------------------Analyzed: Maurizio Pollini / Frédéric Chopin: Polonaises--------------------------------------------------------------------------------
DR Peak RMS Duration Track--------------------------------------------------------------------------------DR15 -6.48 dB -28.80 dB 8:28 01-Polonaise No.1 cis-moll op.26 No.1DR13 -6.36 dB -26.40 dB 8:42 02-Polonaise No.2 es-moll op.26 No.2DR13 -6.09 dB -22.49 dB 5:28 03-Polonaise No.3 A-dur op.40 No.1DR15 -6.31 dB -27.32 dB 8:07 04-Polonaise No.4 c-moll op.40 No.2DR14 -6.30 dB -25.29 dB 11:02 05-Polonaise No.5 fis-moll op.44DR13 -6.24 dB -23.34 dB 7:11 06-Polonaise No.6 As-dur op.53DR15 -7.36 dB -28.64 dB 13:19 07-Polonaise No.7 As-dur op.61 "Polonaise-Fantaisie"--------------------------------------------------------------------------------
Number of tracks: 7Official DR value: DR14
Samplerate: 2822400 Hz / PCM Samplerate: 44100 HzChannels: 2Bits per sample: 1Bitrate: 5645 kbpsCodec: DSD64================================================================================

Скриншот спектра частот

Доп. информация:
His interpretation of "Polonaise-Fantasie" is incandescent with deep poetry.The performance of each song is almost perfect. (Gramophone 1976)
Pollini's performances are thoroughly controlled and full of delicate poetry. It naturally leads the listener to the world of Polonaise. (Penguin Guide 1977)
[2011 DSD Master produced by Emil Berliner Studios, Germany]
Recorded in Vienna, November 1975

Источник (релизер): https://www.cdjapan.co.jp/product/UCGG-9007
[doutdess.net].t381433.torrent
Torrent: Registered [ 2020-01-18 23:25 ] · 205CAC9BB10721C0555AA181B683DAF1BA0B42FC

101 KB

Status: checked
Completed: 4 times
Size: 2.52 GB
[SACD-R][OF] Frédéric Chopin - Polonaises (Maurizio Polini) - 1975/2011 (Classical, Romantic) скачать торрент бесплатно и без регистрации

[Profile] [PM]
Forum Topic Author Size
Hi-Res stereo классика и классика в современной обработке [SACD-R][OF] (Andre) André Cluytens, Orchestre de la Société des Concerts du Concervatoire - Georges Bizet: L\'Arlésienne Suites Nos. 1 & 2, Carmen Suite - 1965/2011... Vi$itReal 1.84 GB
Hi-Res stereo классика и классика в современной обработке [SACD-R][OF] (Classical, Double Bass, Organ) Gary Karr - Adagio D\'Albinoni - 2014 (Beethoven, Franck, Handel, J.S. Bach) - 2014 Vi$itReal 1.64 GB
Многоканальная музыка классика и классика в современной обработке [SACD-R][OF] (Parkanyi Quartet) Párkányi Quartet - Claude Debussy & Maurice Ravel: String Quartets - 2004 (Classical; Chamber; Strings) RelizMAN 2.92 GB
Многоканальная музыка классика и классика в современной обработке [SACD-R][OF] (Prazak) Pražák Quartet - Дмитрий Шостакович / Dmitri Shostakovich: String Quartets No. 14 & 15 - 2014 (Classical; Chamber; Strings) RelizMAN 3.88 GB
Hi-Res stereo классика и классика в современной обработке [SACD-R][OF] 4 Great Operas (Esoteric Boxset): Mozart - Le Nozze di Figaro; Rossini - Il Barbiere di Siviglia; Verdi - La Traviata; Puccini - La Boheme (Various Artist) (Limited edition) - 2013... Vi$itReal 21.64 GB
Hi-Res stereo классика и классика в современной обработке [SACD-R][OF] 5 Great Operas (Esoteric Boxset): Mozart: Die Zauberflote; Weber: Der Freischutz; Verdi: Il Trovatore; Mascagni: Cavalleria Rusticana; Leoncavallo: I Pagliacci (Various Artist)(Limited... Vi$itReal 23.13 GB
Hi-Res stereo классика и классика в современной обработке [SACD-R][OF] Aage Kvalbein & Iver Kleive - Til Trøst - Meditasjoner for cello og piano - 2008/2017 (Classical) Vi$itReal 805 MB
Многоканальная музыка классика и классика в современной обработке [SACD-R][OF] Alan Civil, Sir Neville Marriner, Academy St. Martin in The Fields - Mozart: The 4 Horn Concertos - 1972/2002 (Orchestral, Horn) RelizMAN 3.22 GB
Display posts:    

Current time is: 18-Feb 06:22

All times are UTC + 3



You cannot post new topics in this forum
You cannot reply to topics in this forum
You cannot edit your posts in this forum
You cannot delete your posts in this forum
You cannot vote in polls in this forum
You cannot attach files in this forum
You can download files in this forum