Reply to topic
DL-List and Torrent activity [Update пиров]
Size:  674 MB   |    Registered:  1 year 4 months   |    Completed:  0 times
Seeders:  281  [  0 KB/s  ]   Leechers:  13  [  0 KB/s  ]  
 
     
 
 
Author Message

RelizMAN ®

11

Post 18-Apr-2018 02:25

[Quote]

Donizetti - La Favorite / Доницетти - Фаворитка
Жанр: Classical opera
Страна-производитель диска: Made in Italy
Год издания диска: 1992
Издатель (лейбл): Dischi Ricordi S.p.A.
Номер по каталогу: FRCD 2015
Дата записи: 1991
Аудиокодек: FLAC
Тип рипа: image+.cue
Битрейт аудио: lossless
Продолжительность: 34'50" + 48'46" + 74'33"
Источник: релизер
сайт-источник/ник/другое: arepomd; Caterina Sforza - титаническая работа с cue, доп. сканы
Наличие сканов в содержимом раздачи: да, авторский буклет 119, страниц

Треклист

CD1

CD2

CD3

Исполнители

Gaetano Donizetti
LA FAVORITE (Edizione critica)opera in quattro atti,libretto di Alphonse Royer, Gustave Vaëz e Eugène Scribe
Léonor de Guzman - Gloria ScalchiFernand - Luca CanoniciAlphonse XI, roi de Castille - René MassisBalthazar, supérieur du couvent - Giorgio SurjanDon Gaspar, officier de roi - Ernesto GavazziInès, suivante de Léonor - Marilena Laurenza
Orchestra e Coro di Milano della RAIDonato Renzetti (Direttore)Giovanni Andreoli (Maestro del Coro)

Лог создания рипа

CD1

Exact Audio Copy V1.3 from 2. September 2016
EAC extraction logfile from 30. March 2018, 13:39
Donato Renzetti / Donizetti - La Favorite CD1
Used drive : ASUS BC-12B1ST b Adapter: 1 ID: 0
Read mode : SecureUtilize accurate stream : YesDefeat audio cache : YesMake use of C2 pointers : No
Read offset correction : 6Overread into Lead-In and Lead-Out : NoFill up missing offset samples with silence : YesDelete leading and trailing silent blocks : NoNull samples used in CRC calculations : YesUsed interface : Native Win32 interface for Win NT & 2000
Used output format : User Defined EncoderSelected bitrate : 768 kBit/sQuality : HighAdd ID3 tag : NoCommand line compressor : C:\Program Files (x86)\Exact Audio Copy\FLAC\FLAC.EXEAdditional command line options : -6 -V -T "ARTIST=%artist%" -T "TITLE=%title%" -T "ALBUM=%albumtitle%" -T "DATE=%year%" -T "TRACKNUMBER=%tracknr%" -T "GENRE=%genre%" -T "COMMENT=%comment%" -T "BAND=%albuminterpret%" -T "ALBUMARTIST=%albuminterpret%" -T "COMPOSER=%composer%" %haslyrics%--tag-from-file=LYRICS="%lyricsfile%"%haslyrics% -T "DISCNUMBER=%cdnumber%" -T "TOTALDISCS=%totalcds%" -T "TOTALTRACKS=%numtracks%" %hascover%--picture="%coverfile%"%hascover% %source% -o %dest%
TOC of the extracted CD
Track | Start | Length | Start sector | End sector --------------------------------------------------------- 1 | 0:00.32 | 6:20.70 | 32 | 28601 2 | 6:21.27 | 3:29.40 | 28602 | 44316 3 | 9:50.67 | 3:23.58 | 44317 | 59599 4 | 13:14.50 | 4:02.27 | 59600 | 77776 5 | 17:17.02 | 3:30.28 | 77777 | 93554 6 | 20:47.30 | 2:20.20 | 93555 | 104074 7 | 23:07.50 | 1:56.27 | 104075 | 112801 8 | 25:04.02 | 7:11.45 | 112802 | 145171 9 | 32:15.47 | 1:03.05 | 145172 | 149901 10 | 33:18.52 | 1:32.08 | 149902 | 156809
Range status and errors
Selected range
Filename R:\Donizetti LA FAVORITE - Renzetti\Donato Renzetti - Donizetti - La Favorite CD1.wav
Peak level 97.7 % Extraction speed 6.6 X Range quality 100.0 % Test CRC D4568FA4 Copy CRC D4568FA4 Copy OK
No errors occurred
AccurateRip summary
Track 1 not present in databaseTrack 2 not present in databaseTrack 3 not present in databaseTrack 4 not present in databaseTrack 5 not present in databaseTrack 6 not present in databaseTrack 7 not present in databaseTrack 8 not present in databaseTrack 9 not present in databaseTrack 10 not present in database
None of the tracks are present in the AccurateRip database
End of status report
---- CUETools DB Plugin V2.1.6
[CTDB TOCID: S0TR3huK0W1bfFJPjWD8rCucV4A-] disk not present in databaseSubmit result: S0TR3huK0W1bfFJPjWD8rCucV4A- has been uploaded
==== Log checksum 047CA0AC3D3A14D187A24DE7658456F2F5552FD079168C1DB2DBCA352E160947 ====

CD2

Exact Audio Copy V1.3 from 2. September 2016
EAC extraction logfile from 30. March 2018, 14:43
Donato Renzetti / Donizetti - La Favorite CD2
Used drive : ASUS BC-12B1ST b Adapter: 1 ID: 0
Read mode : SecureUtilize accurate stream : YesDefeat audio cache : YesMake use of C2 pointers : No
Read offset correction : 6Overread into Lead-In and Lead-Out : NoFill up missing offset samples with silence : YesDelete leading and trailing silent blocks : NoNull samples used in CRC calculations : YesUsed interface : Native Win32 interface for Win NT & 2000
Used output format : User Defined EncoderSelected bitrate : 768 kBit/sQuality : HighAdd ID3 tag : NoCommand line compressor : C:\Program Files (x86)\Exact Audio Copy\FLAC\FLAC.EXEAdditional command line options : -6 -V -T "ARTIST=%artist%" -T "TITLE=%title%" -T "ALBUM=%albumtitle%" -T "DATE=%year%" -T "TRACKNUMBER=%tracknr%" -T "GENRE=%genre%" -T "COMMENT=%comment%" -T "BAND=%albuminterpret%" -T "ALBUMARTIST=%albuminterpret%" -T "COMPOSER=%composer%" %haslyrics%--tag-from-file=LYRICS="%lyricsfile%"%haslyrics% -T "DISCNUMBER=%cdnumber%" -T "TOTALDISCS=%totalcds%" -T "TOTALTRACKS=%numtracks%" %hascover%--picture="%coverfile%"%hascover% %source% -o %dest%
TOC of the extracted CD
Track | Start | Length | Start sector | End sector --------------------------------------------------------- 1 | 0:00.32 | 3:51.35 | 32 | 17391 2 | 3:51.67 | 6:09.70 | 17392 | 45136 3 | 10:01.62 | 6:38.25 | 45137 | 75011 4 | 16:40.12 | 0:23.50 | 75012 | 76786 5 | 17:03.62 | 1:11.08 | 76787 | 82119 6 | 18:14.70 | 7:24.00 | 82120 | 115419 7 | 25:38.70 | 7:25.22 | 115420 | 148816 8 | 33:04.17 | 3:43.73 | 148817 | 165614 9 | 36:48.15 | 11:58.42 | 165615 | 219506
Range status and errors
Selected range
Filename R:\Donizetti LA FAVORITE - Renzetti\Donato Renzetti - Donizetti - La Favorite CD2.wav
Peak level 97.0 % Extraction speed 1.7 X Range quality 100.0 % Test CRC 6E5AF878 Copy CRC 6E5AF878 Copy OK
No errors occurred
AccurateRip summary
Track 1 not present in databaseTrack 2 not present in databaseTrack 3 not present in databaseTrack 4 not present in databaseTrack 5 not present in databaseTrack 6 not present in databaseTrack 7 not present in databaseTrack 8 not present in databaseTrack 9 not present in database
None of the tracks are present in the AccurateRip database
End of status report
---- CUETools DB Plugin V2.1.6
[CTDB TOCID: mefaayT.lBhqYRacL6bEugeEDgg-] disk not present in databaseSubmit result: mefaayT.lBhqYRacL6bEugeEDgg- has been uploaded
==== Log checksum 9D0116FBECE8702D2D46EE3E305C16DC6CD46A82E3AC8D786463B98650608159 ====

CD3

Exact Audio Copy V1.3 from 2. September 2016
EAC extraction logfile from 30. March 2018, 15:32
Donato Renzetti / Donizetti - La Favorite CD3
Used drive : ASUS BC-12B1ST b Adapter: 1 ID: 0
Read mode : SecureUtilize accurate stream : YesDefeat audio cache : YesMake use of C2 pointers : No
Read offset correction : 6Overread into Lead-In and Lead-Out : NoFill up missing offset samples with silence : YesDelete leading and trailing silent blocks : NoNull samples used in CRC calculations : YesUsed interface : Native Win32 interface for Win NT & 2000
Used output format : User Defined EncoderSelected bitrate : 768 kBit/sQuality : HighAdd ID3 tag : NoCommand line compressor : C:\Program Files (x86)\Exact Audio Copy\FLAC\FLAC.EXEAdditional command line options : -6 -V -T "ARTIST=%artist%" -T "TITLE=%title%" -T "ALBUM=%albumtitle%" -T "DATE=%year%" -T "TRACKNUMBER=%tracknr%" -T "GENRE=%genre%" -T "COMMENT=%comment%" -T "BAND=%albuminterpret%" -T "ALBUMARTIST=%albuminterpret%" -T "COMPOSER=%composer%" %haslyrics%--tag-from-file=LYRICS="%lyricsfile%"%haslyrics% -T "DISCNUMBER=%cdnumber%" -T "TOTALDISCS=%totalcds%" -T "TOTALTRACKS=%numtracks%" %hascover%--picture="%coverfile%"%hascover% %source% -o %dest%
TOC of the extracted CD
Track | Start | Length | Start sector | End sector --------------------------------------------------------- 1 | 0:00.33 | 1:13.47 | 33 | 5554 2 | 1:14.05 | 2:47.65 | 5555 | 18144 3 | 4:01.70 | 5:31.10 | 18145 | 42979 4 | 9:33.05 | 1:22.28 | 42980 | 49157 5 | 10:55.33 | 6:53.50 | 49158 | 80182 6 | 17:49.08 | 1:34.22 | 80183 | 87254 7 | 19:23.30 | 4:16.03 | 87255 | 106457 8 | 23:39.33 | 6:26.25 | 106458 | 135432 9 | 30:05.58 | 1:02.72 | 135433 | 140154 10 | 31:08.55 | 7:51.53 | 140155 | 175532 11 | 39:00.33 | 2:05.00 | 175533 | 184907 12 | 41:05.33 | 5:57.25 | 184908 | 211707 13 | 47:02.58 | 3:26.50 | 211708 | 227207 14 | 50:29.33 | 3:21.12 | 227208 | 242294 15 | 53:50.45 | 20:44.38 | 242295 | 335632
Range status and errors
Selected range
Filename R:\Donizetti LA FAVORITE - Renzetti\Donato Renzetti - Donizetti - La Favorite CD3.wav
Peak level 100.0 % Extraction speed 2.1 X Range quality 100.0 % Test CRC 41B19E3D Copy CRC 41B19E3D Copy OK
No errors occurred
AccurateRip summary
Track 1 not present in databaseTrack 2 not present in databaseTrack 3 not present in databaseTrack 4 not present in databaseTrack 5 not present in databaseTrack 6 not present in databaseTrack 7 not present in databaseTrack 8 not present in databaseTrack 9 not present in databaseTrack 10 not present in databaseTrack 11 not present in databaseTrack 12 not present in databaseTrack 13 not present in databaseTrack 14 not present in databaseTrack 15 not present in database
None of the tracks are present in the AccurateRip database
End of status report
---- CUETools DB Plugin V2.1.6
[CTDB TOCID: a1f38oXpqN_Syk0QF0TIpW8fiCQ-] foundSubmit result: a1f38oXpqN_Syk0QF0TIpW8fiCQ- has been confirmedTrack | CTDB Status 1 | (2/2) Accurately ripped 2 | (2/2) Accurately ripped 3 | (2/2) Accurately ripped 4 | (2/2) Accurately ripped 5 | (2/2) Accurately ripped 6 | (2/2) Accurately ripped 7 | (2/2) Accurately ripped 8 | (2/2) Accurately ripped 9 | (2/2) Accurately ripped 10 | (2/2) Accurately ripped 11 | (2/2) Accurately ripped 12 | (2/2) Accurately ripped 13 | (2/2) Accurately ripped 14 | (2/2) Accurately ripped 15 | (2/2) Accurately ripped
==== Log checksum 9854666F9B2C093BE39280C345CCA7E05CDC5D5788138CA87D887031CCD2EB71 ====

Содержание индексной карты (.CUE)

CD1

REM GENRE OperaREM DATE 1991REM DISCID 8A082A0AREM COMMENT "ExactAudioCopy v1.3"PERFORMER "Orchestra e Coro di Milano della RAI, Giovanni Andreoli (Maestro del Coro), Donato Renzetti (Direttore) / (Léonor de Guzman) Gloria Scalchi, (Fernand) Luca Canonici, (Alphonse XI, roi de Castille) René Massis, (Balthazar, supérieur du couvent) Giorgio Surjan, (Don Gaspar, officier de roi) Ernesto Gavazzi, (Inès, suivante de Léonor) Marilena Laurenza"TITLE "Donizetti - La Favorite CD1"REM COMPOSER "Gaetano Donizetti (1797-1848)"FILE "Donato Renzetti - Donizetti - La Favorite CD1.flac" WAVE  TRACK 01 AUDIO    TITLE "“La Favorite” di Gaetano Donizetti, opera in quattro atti, libretto di Alphonse Royer, Gustave Vaëz e Eugène Scribe - Prélude"    PERFORMER "Orchestra e Coro di Milano della RAI, Donato Renzetti"    REM COMPOSER "Gaetano Donizetti (1797-1848)"    INDEX 00 00:00:00    INDEX 01 00:00:32  TRACK 02 AUDIO    TITLE "Acte Premier. N. 1 Introduction: Choeur, Romance et Duo. Scène I. “Pieux monastère!” (Choeur de Moines) / Scène II. “Ne vas-tu pas prier avec eux?” (Balthazar, Fernand)"    PERFORMER "Orchestra e Coro di Milano della RAI, Giovanni Andreoli, Donato Renzetti & Giorgio Surjan, Luca Canonici"    REM COMPOSER "Gaetano Donizetti (1797-1848)"    INDEX 01 06:21:27  TRACK 03 AUDIO    TITLE "Scène II. “Un ange, une femme inconnue” (Fernand, Balthazar)"    PERFORMER "Orchestra e Coro di Milano della RAI, Donato Renzetti & Luca Canonici, Giorgio Surjan"    REM COMPOSER "Gaetano Donizetti (1797-1848)"    INDEX 01 09:50:67  TRACK 04 AUDIO    TITLE "Scène II. “Toi, mon fils, ma seule espérance” (Balthazar, Fernand)"    PERFORMER "Orchestra e Coro di Milano della RAI, Donato Renzetti & Giorgio Surjan, Luca Canonici"    REM COMPOSER "Gaetano Donizetti (1797-1848)"    INDEX 01 13:14:50  TRACK 05 AUDIO    TITLE "N. 2: Air et Choeur. Scène III. “Rayon, dorés, tiède zéphyre” (Jeunes filles espagnoles, Inès)"    PERFORMER "Orchestra e Coro di Milano della RAI, Giovanni Andreoli, Donato Renzetti & Marilena Laurenza"    REM COMPOSER "Gaetano Donizetti (1797-1848)"    INDEX 01 17:17:02  TRACK 06 AUDIO    TITLE "N. 3: Air avec Choeur. Scène III. “Silence!  Silence!” (Inèz, Jeunes filles espagnoles)"    PERFORMER "Orchestra e Coro di Milano della RAI, Giovanni Andreoli, Donato Renzetti & Marilena Laurenza"    REM COMPOSER "Gaetano Donizetti (1797-1848)"    INDEX 01 20:47:30  TRACK 07 AUDIO    TITLE "N. 4: Récitatif et Duo. Scène IV. “Gentille messagère et nymphes si discrètes” (Fernand, Inèz)"    PERFORMER "Orchestra e Coro di Milano della RAI, Donato Renzetti & Luca Canonici, Marilena Laurenza"    REM COMPOSER "Gaetano Donizetti (1797-1848)"    INDEX 01 23:07:50  TRACK 08 AUDIO    TITLE "Scène V. “Mon idole! Dieu t'envoie” (Léonor, Fernand) / Scène VI. “Ah! madame...” (Inèz, Léonor, Fernand)"    PERFORMER "Orchestra e Coro di Milano della RAI, Donato Renzetti & Gloria Scalchi, Luca Canonici, Marilena Laurenza"    REM COMPOSER "Gaetano Donizetti (1797-1848)"    INDEX 01 25:04:02  TRACK 09 AUDIO    TITLE "N 5: Récitatif et Air. Scène VII. “Celui qui vient la chercher” (Fernand, Inès)"    PERFORMER "Orchestra e Coro di Milano della RAI, Donato Renzetti & Luca Canonici, Marilena Laurenza"    REM COMPOSER "Gaetano Donizetti (1797-1848)"    INDEX 01 32:15:47  TRACK 10 AUDIO    TITLE "Scène VIII. “Oui, ta voix m'inspire” (Fernand)"    PERFORMER "Orchestra e Coro di Milano della RAI, Donato Renzetti & Luca Canonici"    REM COMPOSER "Gaetano Donizetti (1797-1848)"    INDEX 01 33:18:52

CD2

REM GENRE OperaREM DATE 1991REM DISCID 550B6E09REM COMMENT "ExactAudioCopy v1.3"PERFORMER "Orchestra e Coro di Milano della RAI, Giovanni Andreoli (Maestro del Coro), Donato Renzetti (Direttore) / (Léonor de Guzman) Gloria Scalchi, (Fernand) Luca Canonici, (Alphonse XI, roi de Castille) René Massis, (Balthazar, supérieur du couvent) Giorgio Surjan, (Don Gaspar, officier de roi) Ernesto Gavazzi, (Inès, suivante de Léonor) Marilena Laurenza"TITLE "Donizetti - La Favorite CD2"REM COMPOSER "Gaetano Donizetti (1797-1848)"FILE "Donato Renzetti - Donizetti - La Favorite CD2.flac" WAVE  TRACK 01 AUDIO    TITLE "Acte Deuxième. N. 6: Entr'act, Récitatif et Air. Scène I. “Jardin de l'Alcazar” (Alphonse, Don Gaspar)"    PERFORMER "Orchestra e Coro di Milano della RAI, Donato Renzetti & René Massis, Ernesto Gavazzi"    REM COMPOSER "Gaetano Donizetti (1797-1848)"    INDEX 00 00:00:00    INDEX 01 00:00:32  TRACK 02 AUDIO    TITLE "Scène II. “Léonor, viens, j'abandonne” (Alphonse)"    PERFORMER "Orchestra e Coro di Milano della RAI, Donato Renzetti & René Massis"    REM COMPOSER "Gaetano Donizetti (1797-1848)"    INDEX 01 03:51:67  TRACK 03 AUDIO    TITLE "N. 7: Duo. Scène III. “Ainsi donc on raconte...” (Léonor, Inès, Alphonse)"    PERFORMER "Orchestra e Coro di Milano della RAI, Donato Renzetti & Gloria Scalchi, Marilena Laurenza, René Massis"    REM COMPOSER "Gaetano Donizetti (1797-1848)"    INDEX 01 10:01:62  TRACK 04 AUDIO    TITLE "Scène III. “Que tan douleur s'arrête!”  (Alphonse)"    PERFORMER "Orchestra e Coro di Milano della RAI, Donato Renzetti & René Massis"    REM COMPOSER "Gaetano Donizetti (1797-1848)"    INDEX 01 16:40:12  TRACK 05 AUDIO    TITLE "N. 8: Airs de Danses. Scène IV. Introduction"    PERFORMER "Orchestra e Coro di Milano della RAI, Donato Renzetti"    REM COMPOSER "Gaetano Donizetti (1797-1848)"    INDEX 01 17:03:62  TRACK 06 AUDIO    TITLE "Pas de Trois"    PERFORMER "Orchestra e Coro di Milano della RAI, Donato Renzetti"    REM COMPOSER "Gaetano Donizetti (1797-1848)"    INDEX 01 18:14:70  TRACK 07 AUDIO    TITLE "Pas de Six"    PERFORMER "Orchestra e Coro di Milano della RAI, Donato Renzetti"    REM COMPOSER "Gaetano Donizetti (1797-1848)"    INDEX 01 25:38:70  TRACK 08 AUDIO    TITLE "Final de la Danse"    PERFORMER "Orchestra e Coro di Milano della RAI, Donato Renzetti"    REM COMPOSER "Gaetano Donizetti (1797-1848)"    INDEX 01 33:04:17  TRACK 09 AUDIO    TITLE "N. 9: Final. Scène V. “Ah! sire!” (Don Gaspar, Alphonse, Léonor) / Scène VI. “Quel est ce bruit?” (Alphonse, Balthazar, Tous, Léonor, Le Choeur, Don Gaspar, Inès)"    PERFORMER "Orchestra e Coro di Milano della RAI, Giovanni Andreoli, Donato Renzetti & Ernesto Gavazzi, René Massis, Gloria Scalchi, Giorgio Surjan, Tutti, Marilena Laurenza"    REM COMPOSER "Gaetano Donizetti (1797-1848)"    INDEX 01 36:48:15

CD3

REM GENRE OperaREM DATE 1991REM DISCID B8117B0FREM COMMENT "ExactAudioCopy v1.3"PERFORMER "Orchestra e Coro di Milano della RAI, Giovanni Andreoli (Maestro del Coro), Donato Renzetti (Direttore) / (Léonor de Guzman) Gloria Scalchi, (Fernand) Luca Canonici, (Alphonse XI, roi de Castille) René Massis, (Balthazar, supérieur du couvent) Giorgio Surjan, (Don Gaspar, officier de roi) Ernesto Gavazzi, (Inès, suivante de Léonor) Marilena Laurenza"TITLE "Donizetti - La Favorite CD3"REM COMPOSER "Gaetano Donizetti (1797-1848)"FILE "Donato Renzetti - Donizetti - La Favorite CD3.flac" WAVE  TRACK 01 AUDIO    TITLE "Prélude"    PERFORMER "Orchestra e Coro di Milano della RAI, Donato Renzetti"    REM COMPOSER "Gaetano Donizetti (1797-1848)"    INDEX 00 00:00:00    INDEX 01 00:00:33  TRACK 02 AUDIO    TITLE "Acte Troisième. N. 10: Prélude, Récitatif et Trio. Scène I. “Me voici donc près d'elle” (Fernand) / Scène II. “De son sort avez-vous décidé?” (Don Gaspar, Alphonse, Fernand)"    PERFORMER "Orchestra e Coro di Milano della RAI, Donato Renzetti & Luca Canonici, Ernesto Gavazzi, René Massis"    REM COMPOSER "Gaetano Donizetti (1797-1848)"    INDEX 01 01:14:05  TRACK 03 AUDIO    TITLE "Scène III. “Fernand de votre amour” (Léonor, Alphonse, Fernand)"    PERFORMER "Orchestra e Coro di Milano della RAI, Donato Renzetti & Gloria Scalchi, René Massis, Luca Canonici"    REM COMPOSER "Gaetano Donizetti (1797-1848)"    INDEX 01 04:01:70  TRACK 04 AUDIO    TITLE "N. 11: Récitatif et Aria. Scène IV. “L'ai-je bien entendu?” (Léonor)"    PERFORMER "Orchestra e Coro di Milano della RAI, Donato Renzetti & Gloria Scalchi"    REM COMPOSER "Gaetano Donizetti (1797-1848)"    INDEX 01 09:33:05  TRACK 05 AUDIO    TITLE "Scène IV. “O mon Fernand!” (Léonor)"    PERFORMER "Orchestra e Coro di Milano della RAI, Donato Renzetti & Gloria Scalchi"    REM COMPOSER "Gaetano Donizetti (1797-1848)"    INDEX 01 10:55:33  TRACK 06 AUDIO    TITLE "N. 12: Récitatif et Choeur. Scène V. “Inès, viens” (Léonor, Inès) / Scène VI. Arrêtez!” (Don Gaspar, Inès)"    PERFORMER "Orchestra e Coro di Milano della RAI, Donato Renzetti & Gloria Scalchi, Marilena Laurenza, Ernesto Gavazzi"    REM COMPOSER "Gaetano Donizetti (1797-1848)"    INDEX 01 17:49:08  TRACK 07 AUDIO    TITLE "Scène VII. “Déjà dans la chapelle” (Choeur, Fernand, Alphonse, Don Gaspar, Choeur de Seigneurs, Un Seigneur) / Scène VIII. “Je me soutiens à peine!...” (Léonor, Fernand, Don Gaspar, Les Seigneurs, Choeur)"    PERFORMER "Orchestra e Coro di Milano della RAI, Giovanni Andreoli, Donato Renzetti & Luca Canonici, René Massis, Ernesto Gavazzi, Gloria Scalchi"    REM COMPOSER "Gaetano Donizetti (1797-1848)"    INDEX 01 19:23:30  TRACK 08 AUDIO    TITLE "N. 11: Final. Scène IX. “Que marché de bassesse!” (Don Gaspar, Les Seigneurs) / Scène X. “Pour moi du ciel la faveur se déploie (Fernand, Don Gaspar, Les Seigneurs) / Scène XI. “Où courez-vous? De cette aveugle rage (Balthazar, Fernand, Don Gaspar, Les Seigneurs)"    PERFORMER "Orchestra e Coro di Milano della RAI, Giovanni Andreoli, Donato Renzetti & Ernesto Gavazzi, Luca Canonici, Giorgio Surjan"    REM COMPOSER "Gaetano Donizetti (1797-1848)"    INDEX 01 23:39:33  TRACK 09 AUDIO    TITLE "Scène XII. “Sire, je vous dois tous” (Fernand, Léonor, Don Gaspar, Alphonse, Balthazar, Choeur)"    PERFORMER "Orchestra e Coro di Milano della RAI, Giovanni Andreoli, Donato Renzetti & Luca Canonici, Gloria Scalchi, Ernesto Gavazzi, René Massis, Giorgio Surjan"    REM COMPOSER "Gaetano Donizetti (1797-1848)"    INDEX 01 30:05:58  TRACK 10 AUDIO    TITLE "Scène XII. “Ô ciel!... de son âme” (Alphonse, Don Gaspar, Choeur, Balthazar, Fernand, Léonor)"    PERFORMER "Orchestra e Coro di Milano della RAI, Giovanni Andreoli, Donato Renzetti & René Massis, Ernesto Gavazzi, Giorgio Surjan, Luca Canonici, Gloria Scalchi"    REM COMPOSER "Gaetano Donizetti (1797-1848)"    INDEX 01 31:08:55  TRACK 11 AUDIO    TITLE "Prélude"    PERFORMER "Orchestra e Coro di Milano della RAI, Donato Renzetti"    REM COMPOSER "Gaetano Donizetti (1797-1848)"    INDEX 00 38:49:08    INDEX 01 39:00:33  TRACK 12 AUDIO    TITLE "Acte Quatrième. Scène I. “Frères, creusons l'asile où la douleur s'endort” (Choeur de Novice et Moines, Balthazar)"    PERFORMER "Orchestra e Coro di Milano della RAI, Giovanni Andreoli, Donato Renzetti & Giorgio Surjan"    REM COMPOSER "Gaetano Donizetti (1797-1848)"    INDEX 01 41:05:33  TRACK 13 AUDIO    TITLE "Scène II. “Dans un instant, mon frère” (Balthazar, Fernand)"    PERFORMER "Orchestra e Coro di Milano della RAI, Donato Renzetti & Giorgio Surjan, Luca Canonici"    REM COMPOSER "Gaetano Donizetti (1797-1848)"    INDEX 01 47:02:58  TRACK 14 AUDIO    TITLE "Scène III. “Ange si pur, que dans un songe” (Fernand)"    PERFORMER "Orchestra e Coro di Milano della RAI, Donato Renzetti & Luca Canonici"    REM COMPOSER "Gaetano Donizetti (1797-1848)"    INDEX 01 50:29:33  TRACK 15 AUDIO    TITLE "Scène VI. “Es-tu prêt? Viens” (Balthazar, Fernand) / Scène V. “Fernand! Fernand! Pourrai-je le trouver?” (Léonor, Choeur de Novice et Moines, Choeur dans la chapelle, Choeur, Fernand) / Scène VI. “Mes voeux sont prononcés...” (Fernand, Léonor, Choeur dans la chapelle) / Scène VII. “Venez, venez... c'est elle!” (Fernand, Balthazar, Choeur de Novice et Moines)"    PERFORMER "Orchestra e Coro di Milano della RAI, Giovanni Andreoli, Donato Renzetti & Giorgio Surjan, Luca Canonici, Gloria Scalchi"    REM COMPOSER "Gaetano Donizetti (1797-1848)"    INDEX 01 53:50:45
[doutdess.net].t261943.torrent
Torrent: Registered [ 2018-04-18 02:25 ] · 70C294A347838BDB38E03BB26FFBDDDDFC663C9F

15 KB

Status: checked
Completed: 0 times
Size: 674 MB
(Classical opera) Donizetti - La Favorite / Доницетти - Фаворитка [3CD\'s] (Rene Massis, Orchestra e Coro di Milano della RAI, Donato Renzetti) - 1992, FLAC (image+.cue) lossless скачать торрент бесплатно и без регистрации

[Profile] [PM]
Forum Topic Author Size
Вокальная музыка в lossless ((classical/operetta)) Schönes bleibt. Unvergessene Tenöre bei WDR 4 / Прекрасное остаётся - 2000, FLAC (image+.cue) lossless Vi$itReal 401 MB
Вокальная и хоровая музыка lossy (Classical (Lieder)) (Lieder) Norman Bailey - Songs of Hugo Wolf - 1979, MP3 (tracks) 320 kbps RelizMAN 120 MB
Концерт для инструмента с оркестром в lossless (Classical ) Top 20 CDs for your Classical Music Collection - ClassicalCDguide.com: 02 - W. A. Mozart - Great Piano Concertos N 20 - 25 (1997) APE (tracks), 450-566 kb/s RelizMAN 582 MB
Концерт для инструмента с оркестром в lossless (Classical ) Top 20 CDs for your Classical Music Collection - ClassicalCDguide.com: 04 - Bach: Die Brandenburgische Konzerte - Orchestra of the Age of Enlightenment 2 CD (1999) APE (tracks), 610-769... RelizMAN 462 MB
Оркестровая музыка в lossless (Classical ) Top 20 CDs for your Classical Music Collection - ClassicalCDguide.com: 06 - Igor Stravinsky; Petroushka, Le Sacre du Printemps - Columbia Symphony Orchestra (Sony 1990) APE (tracks),... Vi$itReal 274 MB
Камерная инструментальная музыка в lossless (Classical ) Top 20 CDs for your Classical Music Collection - ClassicalCDguide.com: 07 - Franz Schubert - \'Trout\' Quintet & \'Death and the Maiden\' - Amadeus Quartet (DG ... Vi$itReal 343 MB
Камерная инструментальная музыка в lossless (Classical ) Top 20 CDs for your Classical Music Collection - ClassicalCDguide.com: 10 - Georges Bizet; Carmen - Sir Thomas Beecham, de Los Angeles, Gedda, Michau, Blanc (EMI 2000) аре (по-треково),... Vi$itReal 745 MB
Камерная инструментальная музыка в lossless (Classical ) Top 20 CDs for your Classical Music Collection - ClassicalCDguide.com: 12 - Франц Шуберт - Симфония No. 3, Unfinished 39; - Carlos Kleiber и Wiener Philharmoniker (DG 1... Vi$itReal 186 MB
Display posts:    

Current time is: 25-Aug 23:15

All times are UTC + 3



You cannot post new topics in this forum
You cannot reply to topics in this forum
You cannot edit your posts in this forum
You cannot delete your posts in this forum
You cannot vote in polls in this forum
You cannot attach files in this forum
You can download files in this forum