Reply to topic
DL-List and Torrent activity [Update пиров]
Size:  1.3 GB   |    Registered:  6 days   |    Completed:  0 times
Seeders:  299  [  0 KB/s  ]   Leechers:  20  [  0 KB/s  ]  
 
     
 
 
Author Message

Vi$itReal ®

12

Post 09-Oct-2019 20:05

[Quote]

Daniil Trifonov, Philadelphia Orchestra, Yannick Nezet-Seguin / Destination Rachmaninov Arrival
Формат записи/Источник записи: [TR24][OF]
Наличие водяных знаков: Нет
Год издания/переиздания диска: 2019
Жанр: Classical
Издатель (лейбл): Deutsche Grammophon
Продолжительность: 01:21:50
Наличие сканов в содержимом раздачи: Буклет PDF
Треклист:
Rachmaninov, Sergey Vassilievich (1873-1943) :
01. The Bells, Op. 35 - 1. Allegro ma non tanto (The Silver Sleigh Bells) (Arr. Trifonov for Piano) 6:56
Piano Concerto No. 1 in F sharp minor, Op. 1 28:13
02. 1. Vivace 13:08
03. 2. Andante 7:19
04. 3. Allegro vivace 7:46
05. Vocalise, Op. 34 No. 14 3:34
Piano Concerto No. 3 in D minor, Op. 30 43:07
06. 1. Allegro ma non tanto 17:25
07. 2. Intermezzo (Adagio) 11:18
08. 3. Finale (Alla breve) 14:24-Philadelphia Orchestra
Yannick Nézet-Séguin
Daniil Trifonov (piano)-Контейнер: FLAC (*.flac)
Тип рипа: tracks
Разрядность: 24/96
Формат: PCM
Количество каналов: 2.0

Лог проверки качества

foobar2000 1.4.5 / Dynamic Range Meter 1.1.1log date: 2019-10-10 00:04:47
--------------------------------------------------------------------------------Analyzed: Daniil Trifonov, The Philadelphia Orchestra & Yannick Nézet-Séguin / Destination Rachmaninov: Arrival--------------------------------------------------------------------------------
DR Peak RMS Duration Track--------------------------------------------------------------------------------DR13 -5.19 dB -23.24 dB 6:55 01-1. Allegro ma non tanto (The Silver Sleigh Bells) (Arr. Trifonov for Piano) (Live at Philharmonie, Berlin / 2019)DR15 -0.27 dB -20.76 dB 13:08 02-1. VivaceDR14 -7.36 dB -27.65 dB 7:20 03-2. AndanteDR14 -0.39 dB -21.07 dB 7:47 04-3. Allegro vivaceDR15 -6.30 dB -28.13 dB 3:34 05-Vocalise, Op. 34, No. 14 (Arr. Trifonov for Piano)DR13 -4.75 dB -23.24 dB 17:26 06-1. Allegro ma non tanto (Live at Verizon Hall, Philadelphia / 2018)DR16 -1.60 dB -24.05 dB 11:19 07-2. Intermezzo (Adagio) (Live at Verizon Hall, Philadelphia / 2018)DR15 -0.27 dB -20.72 dB 14:25 08-3. Finale (Alla breve) (Live at Verizon Hall, Philadelphia / 2018)--------------------------------------------------------------------------------
Number of tracks: 8Official DR value: DR14
Samplerate: 96000 HzChannels: 2Bits per sample: 24Bitrate: 2349 kbpsCodec: FLAC================================================================================
Источник (релизер): https://www.prestomusic.com/classical/products/8650244--destination-rachmaninov-arrival#related
[doutdess.net].t362274.torrent
Torrent: Registered [ 2019-10-09 20:05 ] · 19CDF8B0395AA9CA99D133092A88E1FEA6EFCE7A

27 KB

Status: checked
Completed: 0 times
Size: 1.3 GB
[TR24][OF] Daniil Trifonov/Даниил Трифонов, Philadelphia Orchestra, Yannick Nezet-Seguin - Destination Rachmaninov/Рахманинов Arrival - Piano Concertos 1 & 3 - 2019 (Classical) скачать торрент бесплатно и без регистрации

[Profile] [PM]
Forum Topic Author Size
Классика в современной обработке, Classical Crossover lossy и lossless [TR24][OF] (Hi-Res)Marion Treupel-Franck - Voice of the Soul - Flute Music by Jean Daniel Braun - 2017, FLAC (tracks) lossless, (Classical, Baroque Era) Vi$itReal 678 MB
Этническая музыка Индии lossless [TR24][OF] (Indian Classical, Sitar, World Music) [WEB] Anoushka Shankar - Home - 2015, FLAC (tracks), lossless RelizMAN 598 MB
Саундтреки к играм lossless [TR24][OF] (Score) [WEB] Sudden Strike 4 (Original Game Soundtrack) (by Peter Antovszki) - 2017, FLAC (tracks), lossless RelizMAN 424 MB
Hi-Res stereo и Многоканальная музыка Саундтреки [TR24][OF] 2Cellos - Score - 2017 (Symphonic Rock) RelizMAN 608 MB
Hi-Res stereo классика и классика в современной обработке [TR24][OF] A French Baroque Diva: Arias for Marie Fel by Rameau, Lacoste, Lalande, Rousseau, Fiocco, Mondonville (Carolyn Sampson, Ex Cathedra & Jeffrey Skidmore) - 2014 (Baroque, Opera, Vocal,... Vi$itReal 1.37 GB
Hi-Res stereo классика и классика в современной обработке [TR24][OF] A Sousa Celebration - Royal Scottish National Orchestra, Kristjan Jarvi - 2017 (Classical) Vi$itReal 1.21 GB
Hi-Res stereo классика и классика в современной обработке [TR24][OF] A Vaughan Williams Christmas - Chapel Choir Of The Royal Hospital Chelsea, William Vann - 2018 (Classical) Vi$itReal 1.18 GB
Hi-Res stereo классика и классика в современной обработке [TR24][OF] A. Vivaldi: Dorilla in Tempe, RV 709 (Romina Basso, Serena Malfi, Marina de Liso, Lucia Cirillo, Sonia Prina|Coro della Radiotelevisione Svizzera I Barocchisti, Diego Fasolis) - 2017... Vi$itReal 2.88 GB
Display posts:    

Current time is: 16-Oct 00:07

All times are UTC + 3



You cannot post new topics in this forum
You cannot reply to topics in this forum
You cannot edit your posts in this forum
You cannot delete your posts in this forum
You cannot vote in polls in this forum
You cannot attach files in this forum
You can download files in this forum