Reply to topic
DL-List and Torrent activity [Update пиров]
Size:  4.88 GB   |    Registered:  4 months 12 days   |    Completed:  6 times
Seeders:  498  [  0 KB/s  ]   Leechers:  52  [  0 KB/s  ]  
 
     
 
 
Author Message

Vi$itReal ®

12

Post 03-May-2019 06:25

[Quote]

Gewandhausorchester Leipzig, Andris Nelsons / Bruckner - Symphony Nos. 6 & 9, Wagner - Siegfried Idyll & Parsifal Prelude
Формат записи/Источник записи: [TR24][OF]
Наличие водяных знаков: Нет
Год издания/переиздания диска: 2019
Жанр: Classical
Издатель (лейбл): Deutsche Grammophon
Продолжительность: 02:32:04
Наличие сканов в содержимом раздачи: Только обложка альбома
Треклист:
01. Wagner: Siegfried Idyll 20:56
Bruckner: Symphony No. 6 in A major 59:37
02. 1. Maestoso 16:40
03. 2. Adagio. Sehr feierlich 19:45
04. 3. Scherzo. Nicht schnell - Trio. Langsam 8:27
05. 4. Finale. Bewegt, doch nicht zu schnell 14:45
06. Wagner: Parsifal - Prelude 12:59
Bruckner: Symphony No. 9 in D Minor 58:27
07. 1. Feierlich. Misterioso 23:37
08. 2. Scherzo (Bewegt lebhaft) - Trio (Schnell) 10:45
09. 3. Adagio (Langsam, feierlich) 24:05-Gewandhausorchester Leipzig
Andris Nelsons
Recorded: 2018-12-09, 22
Recording Venue: Gewandhaus, Leipzig-Контейнер: FLAC (*.flac)
Тип рипа: tracks
Разрядность: 24/192
Формат: PCM
Количество каналов: 2.0

Лог проверки качества

foobar2000 1.4.3 / Dynamic Range Meter 1.1.1log date: 2019-05-03 11:32:49
--------------------------------------------------------------------------------Analyzed: Orchestre du Gewandhaus de Leipzig / Bruckner: Symphonies Nos. 6 & 9 – Wagner: Siegfried Idyll / Parsifal Prelude--------------------------------------------------------------------------------
DR Peak RMS Duration Track--------------------------------------------------------------------------------DR15 -2.73 dB -24.81 dB 20:57 01-Wagner: Siegfried Idyll, WWV 103DR13 -0.47 dB -19.95 dB 16:40 02-1. MaestosoDR15 -1.98 dB -23.75 dB 19:46 03-2. Adagio. Sehr feierlichDR13 -0.20 dB -20.12 dB 8:28 04-3. Scherzo. Nicht schnell - Trio. LangsamDR14 -0.20 dB -20.05 dB 14:45 05-4. Finale. Bewegt, doch nicht zu schnellDR15 -1.15 dB -24.15 dB 13:00 06-PreludeDR13 -0.29 dB -19.67 dB 23:37 07-1. Feierlich. MisteriosoDR13 -0.20 dB -19.14 dB 10:45 08-2. Scherzo (Bewegt lebhaft) - Trio (Schnell)DR14 -0.20 dB -21.51 dB 24:06 09-3. Adagio (Langsam, feierlich)--------------------------------------------------------------------------------
Number of tracks: 9Official DR value: DR14
Samplerate: 192000 HzChannels: 2Bits per sample: 24Bitrate: 4479 kbpsCodec: FLAC================================================================================
Источник (релизер): https://www.prestomusic.com/classical/products/8611030--bruckner-symphony-nos-6-9...parsifal-prelude
[doutdess.net].t334412.torrent
Torrent: Registered [ 2019-05-03 06:25 ] · ECBD91E114DCF30558A842ECA36B534BA50B7EA0

26 KB

Status: checked
Completed: 6 times
Size: 4.88 GB
[TR24][OF] Bruckner - Symphony Nos. 6 & 9, Wagner - Siegfried Idyll & Parsifal Prelude - Gewandhausorchester Leipzig, Andris Nelsons - 2019 (Classical) скачать торрент бесплатно и без регистрации

[Profile] [PM]
Forum Topic Author Size
Классика в современной обработке, Classical Crossover lossy и lossless [TR24][OF] (Hi-Res)Marion Treupel-Franck - Voice of the Soul - Flute Music by Jean Daniel Braun - 2017, FLAC (tracks) lossless, (Classical, Baroque Era) Vi$itReal 678 MB
Этническая музыка Индии lossless [TR24][OF] (Indian Classical, Sitar, World Music) [WEB] Anoushka Shankar - Home - 2015, FLAC (tracks), lossless RelizMAN 598 MB
Саундтреки к играм lossless [TR24][OF] (Score) [WEB] Sudden Strike 4 (Original Game Soundtrack) (by Peter Antovszki) - 2017, FLAC (tracks), lossless RelizMAN 424 MB
Hi-Res stereo и Многоканальная музыка Саундтреки [TR24][OF] 2Cellos - Score - 2017 (Symphonic Rock) RelizMAN 608 MB
Hi-Res stereo классика и классика в современной обработке [TR24][OF] A French Baroque Diva: Arias for Marie Fel by Rameau, Lacoste, Lalande, Rousseau, Fiocco, Mondonville (Carolyn Sampson, Ex Cathedra & Jeffrey Skidmore) - 2014 (Baroque, Opera, Vocal,... Vi$itReal 1.37 GB
Hi-Res stereo классика и классика в современной обработке [TR24][OF] A Sousa Celebration - Royal Scottish National Orchestra, Kristjan Jarvi - 2017 (Classical) Vi$itReal 1.21 GB
Hi-Res stereo классика и классика в современной обработке [TR24][OF] A Vaughan Williams Christmas - Chapel Choir Of The Royal Hospital Chelsea, William Vann - 2018 (Classical) Vi$itReal 1.18 GB
Hi-Res stereo классика и классика в современной обработке [TR24][OF] A. Vivaldi: Dorilla in Tempe, RV 709 (Romina Basso, Serena Malfi, Marina de Liso, Lucia Cirillo, Sonia Prina|Coro della Radiotelevisione Svizzera I Barocchisti, Diego Fasolis) - 2017... Vi$itReal 2.88 GB
Display posts:    

Current time is: 15-Sep 21:13

All times are UTC + 3



You cannot post new topics in this forum
You cannot reply to topics in this forum
You cannot edit your posts in this forum
You cannot delete your posts in this forum
You cannot vote in polls in this forum
You cannot attach files in this forum
You can download files in this forum