Reply to topic
DL-List and Torrent activity [Update пиров]
Size:  329 MB   |    Registered:  1 year 4 months   |    Completed:  0 times
Seeders:  769  [  0 KB/s  ]   Leechers:  52  [  0 KB/s  ]  
 
     
 
 
Author Message

Vi$itReal ®

12

Post 20-Apr-2018 00:55

[Quote]

Boyce: The Eight Symphonies - Bournemouth Sinfonietta / Ronald Thomas William
Жанр: Classical symphony
Страна-производитель диска: Made in England
Год издания диска: 1979?
Издатель (лейбл): CRD Records
Номер по каталогу: crd 3413
Дата записи: 1979
Аудиокодек: FLAC
Тип рипа: tracks+.cue
Битрейт аудио: lossless
Продолжительность: 59:35
Источник: релизер
сайт-источник/ник/другое: Bodtje, подарок; Caterina Sforza - работа с cue, доп. сканы
Наличие сканов в содержимом раздачи: да
Треклист:
Symphony No. 1 In B Flat Major
1 Allegro - Moderato E Dolce - Allegro 7:17
Symphony No. 2 In A Major
2 Allegro Assai - Vivace - Presto (Allegro) 5:28
Symphony No. 3 In C Major
3 Allegro - Vivace - Tempo Di Menuetto 5:05
Symphony No. 4 In F Major
4 Allegro - Vivace Ma Non Troppo - Gavot (Allegro) 5:48
Symphony No. 5 In D Major
5 Allegro Ma Non Troppo - Allegro Assai - Tempi Di Gavotta - Tempo Di Minuetto 7:27
Symphony No. 6 In F Major
6 Largo - Allegro - Larghetto 6:34
Symphony No. 7 In B Flat Major
7 Andante - Spirituoso - Moderato -Jigg (Allegro Assai) 9:18
Symphony No. 8 In D Minor
8 Pomposo - Allegro - Largo (Andante) - Tempo Di Gavotta (Risoluto) 11:30

Исполнители

William Boyce (1710-1779)
The Eight Symphonies
Bournemouth SinfoniettaRonald Thomas, conductor
Recorded at the Wessex Hall, Poole Arts Centre, Dorset, England

Лог создания рипа

Exact Audio Copy V1.3 from 2. September 2016
EAC extraction logfile from 19. April 2018, 8:43
Bournemouth Sinfonietta / William Boyce: The Eight Symphonies
Used drive : TSSTcorpDVDWBD SE-406AB Adapter: 1 ID: 2
Read mode : SecureUtilize accurate stream : YesDefeat audio cache : YesMake use of C2 pointers : No
Read offset correction : 6Overread into Lead-In and Lead-Out : NoFill up missing offset samples with silence : YesDelete leading and trailing silent blocks : NoNull samples used in CRC calculations : YesUsed interface : Native Win32 interface for Win NT & 2000Gap handling : Appended to previous track
Used output format : User Defined EncoderSelected bitrate : 768 kBit/sQuality : HighAdd ID3 tag : NoCommand line compressor : C:\Program Files (x86)\Exact Audio Copy\FLAC\FLAC.EXEAdditional command line options : -8 -e -p -V -T "ARTIST=%artist%" -T "TITLE=%title%" -T "ALBUM=%albumtitle%" -T "DATE=%year%" -T "TRACKNUMBER=%tracknr%" -T "GENRE=%genre%" -T "PERFORMER=%albuminterpret%" -T "COMPOSER=%composer%" %haslyrics%--tag-from-file=LYRICS="%lyricsfile%"%haslyrics% -T "ALBUMARTIST=%albumartist%" -T "DISCNUMBER=%cdnumber%" -T "TOTALDISCS=%totalcds%" -T "TOTALTRACKS=%numtracks%" -T "COMMENT=%comment%" %source% -o %dest%
TOC of the extracted CD
Track | Start | Length | Start sector | End sector --------------------------------------------------------- 1 | 0:00.33 | 7:27.00 | 33 | 33557 2 | 7:27.33 | 5:32.50 | 33558 | 58507 3 | 13:00.08 | 5:11.25 | 58508 | 81857 4 | 18:11.33 | 6:01.00 | 81858 | 108932 5 | 24:12.33 | 7:40.00 | 108933 | 143432 6 | 31:52.33 | 6:44.00 | 143433 | 173732 7 | 38:36.33 | 9:29.62 | 173733 | 216469 8 | 48:06.20 | 11:31.13 | 216470 | 268307
Track 1
Filename K:\Rips\01 - William Boyce - Symphonies (8), Op. 2- Symphony No. 1 in B flat major.wav
Pre-gap length 0:00:02.33
Peak level 53.3 % Extraction speed 2.2 X Track quality 100.0 % Test CRC 379EFA94 Copy CRC 379EFA94 Accurately ripped (confidence 2) [73797DF8] (AR v2) Copy OK
Track 2
Filename K:\Rips\02 - William Boyce - Symphonies (8), Op. 2- Symphony No. 2 in A major.wav
Pre-gap length 0:00:09.38
Peak level 62.1 % Extraction speed 1.4 X Track quality 99.9 % Test CRC 59999C1D Copy CRC 59999C1D Accurately ripped (confidence 4) [8EB326BC] (AR v1) Copy OK
Track 3
Filename K:\Rips\03 - William Boyce - Symphonies (8), Op. 2- Symphony No. 3 in C major.wav
Pre-gap length 0:00:10.25
Peak level 46.5 % Extraction speed 1.7 X Track quality 100.0 % Test CRC 10C9A255 Copy CRC 10C9A255 Accurately ripped (confidence 2) [C434A3DF] (AR v2) Copy OK
Track 4
Filename K:\Rips\04 - William Boyce - Symphonies (8), Op. 2- Symphony No. 4 in F major.wav
Pre-gap length 0:00:09.00
Peak level 49.9 % Extraction speed 2.6 X Track quality 100.0 % Test CRC CED3A315 Copy CRC CED3A315 Accurately ripped (confidence 2) [35238AE0] (AR v2) Copy OK
Track 5
Filename K:\Rips\05 - William Boyce - Symphonies (8), Op. 2- Symphony No. 5 in D major.wav
Pre-gap length 0:00:10.00
Peak level 50.1 % Extraction speed 3.2 X Track quality 100.0 % Test CRC DB3DA8F4 Copy CRC DB3DA8F4 Accurately ripped (confidence 2) [8B4923A1] (AR v2) Copy OK
Track 6
Filename K:\Rips\06 - William Boyce - Symphonies (8), Op. 2- Symphony No. 6 in F major.wav
Pre-gap length 0:00:10.25
Peak level 47.1 % Extraction speed 2.2 X Track quality 100.0 % Test CRC EADD2DC0 Copy CRC EADD2DC0 Accurately ripped (confidence 2) [9DC36F18] (AR v2) Copy OK
Track 7
Filename K:\Rips\07 - William Boyce - Symphonies (8), Op. 2- Symphony No. 7 in B flat major.wav
Pre-gap length 0:00:10.03
Peak level 49.5 % Extraction speed 2.3 X Track quality 100.0 % Test CRC E4CB1065 Copy CRC E4CB1065 Accurately ripped (confidence 2) [0C97B882] (AR v2) Copy OK
Track 8
Filename K:\Rips\08 - William Boyce - Symphonies (8), Op. 2- Symphony No. 8 in D minor.wav
Pre-gap length 0:00:10.00
Peak level 45.7 % Extraction speed 4.3 X Track quality 100.0 % Test CRC FB0CB25D Copy CRC FB0CB25D Accurately ripped (confidence 2) [89CA315A] (AR v2) Copy OK
All tracks accurately ripped
No errors occurred
End of status report
---- CUETools DB Plugin V2.1.6
[CTDB TOCID: FsLmF8v2QbKUZhL6me6MgtC4ECo-] foundSubmit result: FsLmF8v2QbKUZhL6me6MgtC4ECo- has been confirmedTrack | CTDB Status 1 | (15/15) Accurately ripped 2 | (15/15) Accurately ripped 3 | (15/15) Accurately ripped 4 | (15/15) Accurately ripped 5 | (15/15) Accurately ripped 6 | (15/15) Accurately ripped 7 | (15/15) Accurately ripped 8 | (15/15) Accurately ripped
==== Log checksum 0EC35B2C5915D07BFC95A9B65903D0B386BA64F8424FA4B6FB8141A1EA74B853 ====

Содержание индексной карты (.CUE)

REM GENRE SymphonicREM DATE 1979REM DISCID 760DF908REM COMMENT "ExactAudioCopy v1.3"PERFORMER "Bournemouth Sinfonietta"TITLE "William Boyce: The Eight Symphonies"REM COMPOSER "William Boyce (1711-1779)"FILE "01 - William Boyce - Symphonies (8), Op. 2- Symphony No. 1 in B flat major.flac" WAVE  TRACK 01 AUDIO    TITLE "Symphonies (8), Op. 2: Symphony No. 1 in B flat major: Allegro - Moderato e dolce - Allegro"    PERFORMER "Ronald Thomas/Bournemouth Sinfonietta"    REM COMPOSER "William Boyce (1711-1779)"    FLAGS PRE    PREGAP 00:00:33    INDEX 01 00:00:00    INDEX 02 02:30:00    INDEX 03 05:17:25  TRACK 02 AUDIO    TITLE "Symphonies (8), Op. 2: Symphony No. 2 in A major: Allegro assai - Vivace - Presto (Allegro)"    PERFORMER "Ronald Thomas/Bournemouth Sinfonietta"    REM COMPOSER "William Boyce (1711-1779)"    FLAGS PRE    INDEX 00 07:17:37FILE "02 - William Boyce - Symphonies (8), Op. 2- Symphony No. 2 in A major.flac" WAVE    INDEX 01 00:00:00    INDEX 02 03:07:12    INDEX 03 04:01:62  TRACK 03 AUDIO    TITLE "Symphonies (8), Op. 2: Symphony No. 3 in C major: Allegro - Vivace - Tempo di Menuetto"    PERFORMER "Ronald Thomas/Bournemouth Sinfonietta"    REM COMPOSER "William Boyce (1711-1779)"    FLAGS PRE    INDEX 00 05:22:25FILE "03 - William Boyce - Symphonies (8), Op. 2- Symphony No. 3 in C major.flac" WAVE    INDEX 01 00:00:00    INDEX 02 02:27:42    INDEX 03 03:49:00  TRACK 04 AUDIO    TITLE "Symphonies (8), Op. 2: Symphony No. 4 in F major: Allegro - Vivace ma non troppo - Gavot (Allegro)"    PERFORMER "Ronald Thomas/Bournemouth Sinfonietta"    REM COMPOSER "William Boyce (1711-1779)"    FLAGS PRE    INDEX 00 05:02:25FILE "04 - William Boyce - Symphonies (8), Op. 2- Symphony No. 4 in F major.flac" WAVE    INDEX 01 00:00:00    INDEX 02 02:52:12    INDEX 03 04:00:50  TRACK 05 AUDIO    TITLE "Symphonies (8), Op. 2: Symphony No. 5 in D major: Allegro ma non troppo - Allegro assai - Tempi di Gavotta - Tempo di Minuetto"    PERFORMER "Ronald Thomas/Bournemouth Sinfonietta"    REM COMPOSER "William Boyce (1711-1779)"    FLAGS PRE    INDEX 00 05:51:00FILE "05 - William Boyce - Symphonies (8), Op. 2- Symphony No. 5 in D major.flac" WAVE    INDEX 01 00:00:00    INDEX 02 03:56:00    INDEX 03 05:34:25  TRACK 06 AUDIO    TITLE "Symphonies (8), Op. 2: Symphony No. 6 in F major: Largo - Allegro - Larghetto"    PERFORMER "Ronald Thomas/Bournemouth Sinfonietta"    REM COMPOSER "William Boyce (1711-1779)"    FLAGS PRE    INDEX 00 07:29:50FILE "06 - William Boyce - Symphonies (8), Op. 2- Symphony No. 6 in F major.flac" WAVE    INDEX 01 00:00:00    INDEX 02 01:58:37    INDEX 03 04:20:17  TRACK 07 AUDIO    TITLE "Symphonies (8), Op. 2: Symphony No. 7 in B flat major: Andante - Spirituoso - Moderato - Jigg (Allegro assai)"    PERFORMER "Ronald Thomas/Bournemouth Sinfonietta"    REM COMPOSER "William Boyce (1711-1779)"    FLAGS PRE    INDEX 00 06:33:72FILE "07 - William Boyce - Symphonies (8), Op. 2- Symphony No. 7 in B flat major.flac" WAVE    INDEX 01 00:00:00    INDEX 02 04:28:50    INDEX 03 07:26:37  TRACK 08 AUDIO    TITLE "Symphonies (8), Op. 2: Symphony No. 8 in D minor: Pomposo - Allegro - Largo (Andante) - Tempo di Gavotta (Risoluto)"    PERFORMER "Ronald Thomas/Bournemouth Sinfonietta"    REM COMPOSER "William Boyce (1711-1779)"    FLAGS PRE    INDEX 00 09:19:62FILE "08 - William Boyce - Symphonies (8), Op. 2- Symphony No. 8 in D minor.flac" WAVE    INDEX 01 00:00:00    INDEX 02 02:54:50    INDEX 03 05:21:23    INDEX 04 07:29:25

About Bournemouth Sinfonietta

The Bournemouth Sinfonietta was founded in 1968 as a chamber orchestra of about 35 players to complement the work of the larger Bournemouth Symphony Orchestra. The first conductor was Kenneth Montgomery, followed by Maurice Gendron, Norman Del Mar, Roger Norrington, Tamás Vásáry, and Alexander Polianichko, as well as director/violinists Ronald Thomas and Richard Studt. The Sinfonietta has appeared at the BBC Proms, with Glyndebourne Touring Opera, for the National Opera Studio, at the major British music festivals, on tour in Europe and Brazil, and on over 70 recordings (many featuring the work of contemporary British composers). The home of the Bournemouth orchestras (the Sinfonietta, along with the Bournemouth Symphony) relocated to a new arts center in Poole in 1985, where an innovative educational program was established. They were pioneers in the concept of community music residencies where musicians from the orchestra work to bring music to communities not normally served by professional classical musicians. As individuals and as small ensembles (such as the Sinfonietta Winds, Sinfonietta Strings, and the Silvestri Ensemble), the orchestra members have performed in schools, hospitals, homes, village halls, community centers, prisons, hotels, and supermarkets. In 1995, the Sinfonietta was awarded a Sainsbury's Art for All Award for its work developing community interest in art. In 1995, the Sinfonietta ceased to be a salaried orchestra and it disbanded entirely in 2000 due to a restructuring enacted by the Arts Council of England.
[doutdess.net].t262332.torrent
Torrent: Registered [ 2018-04-20 00:55 ] · AAD95DB66B26891B85314710C88021433679E554

15 KB

Status: checked
Completed: 0 times
Size: 329 MB
(Classical symphony) Boyce - The Eight Symphonies (Bournemouth Sinfonietta, Ronald Thomas) - 1979, FLAC (tracks+.cue) lossless скачать торрент бесплатно и без регистрации

[Profile] [PM]
Forum Topic Author Size
Вокальная музыка в lossless ((classical/operetta)) Schönes bleibt. Unvergessene Tenöre bei WDR 4 / Прекрасное остаётся - 2000, FLAC (image+.cue) lossless Vi$itReal 401 MB
Вокальная и хоровая музыка lossy (Classical (Lieder)) (Lieder) Norman Bailey - Songs of Hugo Wolf - 1979, MP3 (tracks) 320 kbps RelizMAN 120 MB
Концерт для инструмента с оркестром в lossless (Classical ) Top 20 CDs for your Classical Music Collection - ClassicalCDguide.com: 02 - W. A. Mozart - Great Piano Concertos N 20 - 25 (1997) APE (tracks), 450-566 kb/s RelizMAN 582 MB
Концерт для инструмента с оркестром в lossless (Classical ) Top 20 CDs for your Classical Music Collection - ClassicalCDguide.com: 04 - Bach: Die Brandenburgische Konzerte - Orchestra of the Age of Enlightenment 2 CD (1999) APE (tracks), 610-769... RelizMAN 462 MB
Оркестровая музыка в lossless (Classical ) Top 20 CDs for your Classical Music Collection - ClassicalCDguide.com: 06 - Igor Stravinsky; Petroushka, Le Sacre du Printemps - Columbia Symphony Orchestra (Sony 1990) APE (tracks),... Vi$itReal 274 MB
Камерная инструментальная музыка в lossless (Classical ) Top 20 CDs for your Classical Music Collection - ClassicalCDguide.com: 07 - Franz Schubert - \'Trout\' Quintet & \'Death and the Maiden\' - Amadeus Quartet (DG ... Vi$itReal 343 MB
Камерная инструментальная музыка в lossless (Classical ) Top 20 CDs for your Classical Music Collection - ClassicalCDguide.com: 10 - Georges Bizet; Carmen - Sir Thomas Beecham, de Los Angeles, Gedda, Michau, Blanc (EMI 2000) аре (по-треково),... Vi$itReal 745 MB
Камерная инструментальная музыка в lossless (Classical ) Top 20 CDs for your Classical Music Collection - ClassicalCDguide.com: 12 - Франц Шуберт - Симфония No. 3, Unfinished 39; - Carlos Kleiber и Wiener Philharmoniker (DG 1... Vi$itReal 186 MB
Display posts:    

Current time is: 23-Aug 18:50

All times are UTC + 3



You cannot post new topics in this forum
You cannot reply to topics in this forum
You cannot edit your posts in this forum
You cannot delete your posts in this forum
You cannot vote in polls in this forum
You cannot attach files in this forum
You can download files in this forum