Reply to topic
DL-List and Torrent activity [Update пиров]
Size:  7.07 GB   |    Registered:  1 year 4 months   |    Completed:  0 times
Seeders:  647  [  0 KB/s  ]   Leechers:  26  [  0 KB/s  ]  
 
     
 
 
Author Message

RelizMAN ®

11

Post 18-Apr-2018 07:50

[Quote]

Rachel Podger / Biber - Rosary Sonatas
Формат записи/Источник записи: [SACD-R][OF]
Наличие водяных знаков: Нет
Год издания/переиздания диска: 2015
Жанр: Classical
Издатель (лейбл): Channel Classics Records
Продолжительность: 02:13:17
Наличие сканов в содержимом раздачи: Буклет PDF
Gramophone Awards Winner - Baroque Instrumental
Presto Recordings of the Year Finalist 2015
Треклист:
CD1
1. The Annunciation d minor
2. The Visitation a major
3. The Nativity b minor
4. The Presentation in the Temple d minor
5. The Finding in the Temple a major
6. The Agony in the Garden c minor
7. The Scourging f major
8. The Crowning with Thorns bb major
CD2
9. The Carrying of the Cross a minor
10. The Crucifixion g minor
11. The Resurrection g major
12. The Ascension c major
13. The Descent of the Holy Ghost d minor
14. The Assumption of the Blessed Virgin d major
15. The Coronation of the Blessed Virgin c major
16. Passacaglia g minor
Контейнер: ISO (*.iso)
Тип рипа: image
Разрядность: 64(2,8 MHz/1 Bit)
Формат: DST64
Количество каналов: 5.1 + 2

BackCover

Лог проверки качества CD1

foobar2000 1.3.17 / Dynamic Range Meter 1.1.1log date: 2018-04-14 13:52:20
--------------------------------------------------------------------------------Analyzed: Rachel Podger / Rosary Sonatas--------------------------------------------------------------------------------
DR Peak RMS Duration Track--------------------------------------------------------------------------------DR12 -15.00 dB -31.87 dB 5:59 01-The AnnunciationDR12 -11.89 dB -30.20 dB 5:35 02-The VisitationDR13 -8.83 dB -29.76 dB 7:28 03-The NativityDR15 -10.85 dB -32.95 dB 8:15 04-The Presentation in the TempleDR13 -13.81 dB -31.99 dB 7:19 05-The Finding in the TempleDR11 -12.74 dB -31.15 dB 9:10 06-The Agony in the GardenDR14 -11.18 dB -28.99 dB 8:59 07-The ScourgingDR14 -8.81 dB -29.17 dB 7:13 08-The crowning with Thorns--------------------------------------------------------------------------------
Number of tracks: 8Official DR value: DR13
Samplerate: 2822400 Hz / PCM Samplerate: 88200 HzChannels: 5Bits per sample: 1Bitrate: 14112 kbpsCodec: DST64================================================================================
--------------------------------------------------------------------------------Analyzed: Rachel Podger / Rosary Sonatas--------------------------------------------------------------------------------
DR Peak RMS Duration Track--------------------------------------------------------------------------------DR12 -13.77 dB -28.85 dB 5:59 01-The AnnunciationDR13 -11.33 dB -27.02 dB 5:35 02-The VisitationDR13 -12.72 dB -28.59 dB 7:28 03-The NativityDR16 -8.98 dB -30.01 dB 8:15 04-The Presentation in the TempleDR13 -12.55 dB -28.82 dB 7:19 05-The Finding in the TempleDR11 -11.86 dB -28.31 dB 9:10 06-The Agony in the GardenDR14 -11.13 dB -27.97 dB 8:59 07-The ScourgingDR14 -10.45 dB -28.43 dB 7:13 08-The crowning with Thorns--------------------------------------------------------------------------------
Number of tracks: 8Official DR value: DR13
Samplerate: 2822400 Hz / PCM Samplerate: 88200 HzChannels: 2Bits per sample: 1Bitrate: 5645 kbpsCodec: DST64================================================================================

Лог проверки качества CD2

foobar2000 1.3.17 / Dynamic Range Meter 1.1.1log date: 2018-04-14 13:57:41
--------------------------------------------------------------------------------Analyzed: Rachel Podger / Rosary Sonatas--------------------------------------------------------------------------------
DR Peak RMS Duration Track--------------------------------------------------------------------------------DR13 -12.22 dB -28.77 dB 7:57 01-The Carrying of the CrossDR14 -10.92 dB -31.50 dB 9:11 02-The CrucifixionDR12 -10.90 dB -27.18 dB 7:59 03-The ResurrectionDR15 -8.85 dB -30.34 dB 7:21 04-The AscensionDR15 -9.47 dB -29.95 dB 8:10 05-The Descent of the Holy GhostDR15 -11.52 dB -31.78 dB 10:24 06-The Assumption of the Blessed VirginDR13 -12.72 dB -31.38 dB 12:16 07-The Coronation of the Blessed VirginDR14 -15.02 dB -35.35 dB 8:52 08-Guardian Angel--------------------------------------------------------------------------------
Number of tracks: 8Official DR value: DR14
Samplerate: 2822400 Hz / PCM Samplerate: 88200 HzChannels: 5Bits per sample: 1Bitrate: 14112 kbpsCodec: DST64================================================================================
--------------------------------------------------------------------------------Analyzed: Rachel Podger / Rosary Sonatas--------------------------------------------------------------------------------
DR Peak RMS Duration Track--------------------------------------------------------------------------------DR13 -11.62 dB -28.32 dB 7:57 01-The Carrying of the CrossDR14 -9.22 dB -28.08 dB 9:11 02-The CrucifixionDR11 -12.66 dB -26.17 dB 7:59 03-The ResurrectionDR14 -7.73 dB -27.14 dB 7:21 04-The AscensionDR15 -8.57 dB -28.48 dB 8:10 05-The Descent of the Holy GhostDR15 -10.20 dB -28.50 dB 10:24 06-The Assumption of the Blessed VirginDR13 -11.39 dB -28.39 dB 12:16 07-The Coronation of the Blessed VirginDR14 -15.79 dB -34.65 dB 8:52 08-Guardian Angel--------------------------------------------------------------------------------
Number of tracks: 8Official DR value: DR14
Samplerate: 2822400 Hz / PCM Samplerate: 88200 HzChannels: 2Bits per sample: 1Bitrate: 5645 kbpsCodec: DST64================================================================================
Доп. информация:
https://www.prestoclassical.co.uk/classical/products/8077417--biber-the-rosary-sonatas
http://i-classical.com/album.html?/heinrich-biber-rosary-sonatas-rachel-podger/0723385373155
https://www.amazon.co.uk/Biber-Rosary-Sonatas-Gramophone-Awards/dp/B0135GT9VQ
Источник (релизер): SACD Ripped via BDP-80FD
Композитор: Heinrich Ignaz Franz Biber

Состав

Rachel Podger (violin)
Marcin Świątkiewicz (harpsichord/organ)
Jonathan Manson (cello/viola da gamba)
David Miller (theorbo/archlute)
[doutdess.net].t261972.torrent
Torrent: Registered [ 2018-04-18 07:50 ] · 60A5F77ABF2BBBFF871E3761B2234E4A3F9B8212

36 KB

Status: checked
Completed: 0 times
Size: 7.07 GB
[SACD-R][OF] Biber - Rosary Sonatas (Rachel Podger) - 2015 (Classical) скачать торрент бесплатно и без регистрации

[Profile] [PM]
Forum Topic Author Size
Hi-Res stereo классика и классика в современной обработке [SACD-R][OF] (Andre) André Cluytens, Orchestre de la Société des Concerts du Concervatoire - Georges Bizet: L\'Arlésienne Suites Nos. 1 & 2, Carmen Suite - 1965/2011... Vi$itReal 1.84 GB
Hi-Res stereo классика и классика в современной обработке [SACD-R][OF] (Classical, Double Bass, Organ) Gary Karr - Adagio D\'Albinoni - 2014 (Beethoven, Franck, Handel, J.S. Bach) - 2014 Vi$itReal 1.64 GB
Многоканальная музыка классика и классика в современной обработке [SACD-R][OF] (Parkanyi Quartet) Párkányi Quartet - Claude Debussy & Maurice Ravel: String Quartets - 2004 (Classical; Chamber; Strings) RelizMAN 2.92 GB
Многоканальная музыка классика и классика в современной обработке [SACD-R][OF] (Prazak) Pražák Quartet - Дмитрий Шостакович / Dmitri Shostakovich: String Quartets No. 14 & 15 - 2014 (Classical; Chamber; Strings) RelizMAN 3.88 GB
Многоканальная музыка классика и классика в современной обработке [SACD-R][OF] Alan Civil, Sir Neville Marriner, Academy St. Martin in The Fields - Mozart: The 4 Horn Concertos - 1972/2002 (Orchestral, Horn) RelizMAN 3.22 GB
Hi-Res stereo классика и классика в современной обработке [SACD-R][OF] Alban Berg & Bela Bartok – Violin Concertos (Isaac Stern, New York Philharmonic, Leonard Bernstein) - 2013 (Classical/Orchestral/Violin) Vi$itReal 1.09 GB
Hi-Res stereo классика и классика в современной обработке [SACD-R][OF] Alban Berg Quartett - Haydn: Emperor Quartet, Mozart: Hunt Quartet - 2014 (Classical; Chamber) Vi$itReal 2.13 GB
Многоканальная музыка классика и классика в современной обработке [SACD-R][OF] Alexei & Michael Utkins / Алексей и Михаил Уткины, Hermitage Chamber Orchestra / Камерный Оркестр "Эрмитаж" - Dimitry Shostakovich: Preludes & Ballet Suites - 2006... RelizMAN 3.32 GB
Display posts:    

Current time is: 25-Aug 23:22

All times are UTC + 3



You cannot post new topics in this forum
You cannot reply to topics in this forum
You cannot edit your posts in this forum
You cannot delete your posts in this forum
You cannot vote in polls in this forum
You cannot attach files in this forum
You can download files in this forum