Reply to topic
DL-List and Torrent activity [Update пиров]
Size:  381 MB   |    Registered:  1 year 5 months   |    Completed:  0 times
Seeders:  547  [  0 KB/s  ]   Leechers:  27  [  0 KB/s  ]  
 
     
 
 
Author Message

Vi$itReal ®

12

Post 18-Apr-2018 07:50

[Quote]

Bertouch - Trio Sonatas (Bergen Barokk)
Жанр: Classical chamber
Страна-производитель диска: Made in England
Год издания диска: 2005
Издатель (лейбл): Toccata Classics
Номер по каталогу: TOCC 0006
Дата записи: 2005
Аудиокодек: FLAC
Тип рипа: image+.cue
Битрейт аудио: lossless
Продолжительность: 65:32
Источник: релизер
сайт-источник/ник/другое: makdelart; Caterina Sforza - работа с cue, доп. сканы
Наличие сканов в содержимом раздачи: да

Треклист

Sonata No. 8 In G Major (6:53)1 I Vivace 1:342 II Adagio 1:423 III Andante 3:37
From The Music-Book Of Jacob Mestmacher4 March (No. 106) 1:345 Aria (No. 248, With Variations By Bergen Barokk) 2:36
Sonata No. 15 In F Minor (6:05)6 I Canona Allegro 1:457 II Adagio 1:538 III Andante 2:27
From The Music-Book Of Jacob Mestmacher9 Paspie De La Compertajne (No. 75) 2:09
Sonata No. 11 In F Major (7:16)10 I Vivace 1:2811 II Allegro 2:0812 III Adagio 1:4513 IV Allegro 1:55
From The Music-Book Of Jacob Mestmacher14 Menuetto (No. 13) 1:5815 Gavotte Alternativement (No. 53) 3:13
Sonata No. 21 In B Flat Major (7:24)16 I Andante 2:0017 II Vivace 2:1118 III Adagio 1:3419 IV [Allegro] 1:39
Sonata No. 17 In E Flat Major (5:26)20 I Largo 1:5521 II Andante 3:31
Sonata No. 12 In D Minor (9:49)22 I Andante 2:1923 II Adagio 2:4924 III Allegro 1:1825 IV Allegro 2:23
From The Music-Book Of Jacob Mestmacher26 Allegro Et Trio (No. 166) 2:22
Sonata No. 14 In G Minor (9:00)27 I Largo 2:4728 II Andante 3:2829 III Adagio 1:1830 IV Vivace 1:27

Исполнители

Georg von Bertouch
Trio Sonatas
Bergen BarokkCello – Markku Luolajan-Mikkola (tracks: 1 to 3, 6 to 8, 10 to 13, 22 to 25)Flute [Traverso] – Kjersti Sellevåg (tracks: 27 to 30)Harpsichord, Producer – Hans Knut SveenViola [Viola Da Gamba] – Markku Luolajan-Mikkola (tracks: 4, 5, 14, 15, 26, 27 to 30)Violin – Bjarte Eike (tracks: 1 to 3, 6 to 8, 22 to 25), Peter Spissky (tracks: 1 to 3, 6 to 8, 10 to 13, 22 to 25)Recorder, Producer, Liner Notes – Frode Thorsen (tracks: 4, 5, 10 to 13, 14, 16 to 19, 26 to 30)
Audio CD (24 Oct. 2005)

Лог создания рипа

Exact Audio Copy V1.3 from 2. September 2016
EAC extraction logfile from 31. March 2018, 19:48
Bergen Barokk / Georg von Bertouch: Trio Sonatas
Used drive : LENOVO USB_SATA_Burner4 Adapter: 0 ID: 0
Read mode : SecureUtilize accurate stream : YesDefeat audio cache : YesMake use of C2 pointers : No
Read offset correction : 6Overread into Lead-In and Lead-Out : NoFill up missing offset samples with silence : YesDelete leading and trailing silent blocks : NoNull samples used in CRC calculations : YesUsed interface : Installed external ASPI interface
Used output format : User Defined EncoderSelected bitrate : 1024 kBit/sQuality : HighAdd ID3 tag : NoCommand line compressor : C:\Program Files (x86)\Exact Audio Copy\FLAC\FLAC.EXEAdditional command line options : -8 -V -T "TITLE=%title%" -T "ARTIST=%artist%" -T "ALBUMARTIST=%albumartist%" -T "ALBUM=%albumtitle%" -T "DATE=%year%" -T "TRACKNUMBER=%tracknr%" -T "TRACKTOTAL=%numtracks%" -T "GENRE=%genre%" -T "COMMENT=%comment%" -T "PERFORMER=%albuminterpret%" -T "COMPOSER=%composer%" %source% -o %dest%
TOC of the extracted CD
Track | Start | Length | Start sector | End sector --------------------------------------------------------- 1 | 0:00.00 | 1:34.44 | 0 | 7093 2 | 1:34.44 | 1:43.45 | 7094 | 14863 3 | 3:18.14 | 3:41.64 | 14864 | 31502 4 | 7:00.03 | 1:35.05 | 31503 | 38632 5 | 8:35.08 | 2:40.15 | 38633 | 50647 6 | 11:15.23 | 1:48.15 | 50648 | 58762 7 | 13:03.38 | 1:53.08 | 58763 | 67245 8 | 14:56.46 | 2:30.27 | 67246 | 78522 9 | 17:26.73 | 2:12.40 | 78523 | 88462 10 | 19:39.38 | 1:28.10 | 88463 | 95072 11 | 21:07.48 | 2:08.70 | 95073 | 104742 12 | 23:16.43 | 1:46.38 | 104743 | 112730 13 | 25:03.06 | 1:58.37 | 112731 | 121617 14 | 27:01.43 | 1:59.70 | 121618 | 130612 15 | 29:01.38 | 3:17.25 | 130613 | 145412 16 | 32:18.63 | 2:01.24 | 145413 | 154511 17 | 34:20.12 | 2:12.42 | 154512 | 164453 18 | 36:32.54 | 1:35.09 | 164454 | 171587 19 | 38:07.63 | 1:42.40 | 171588 | 179277 20 | 39:50.28 | 1:55.70 | 179278 | 187972 21 | 41:46.23 | 3:35.21 | 187973 | 204118 22 | 45:21.44 | 2:19.34 | 204119 | 214577 23 | 47:41.03 | 2:49.53 | 214578 | 227305 24 | 50:30.56 | 1:18.54 | 227306 | 233209 25 | 51:49.35 | 2:27.58 | 233210 | 244292 26 | 54:17.18 | 2:25.70 | 244293 | 255237 27 | 56:43.13 | 2:47.67 | 255238 | 267829 28 | 59:31.05 | 3:29.40 | 267830 | 283544 29 | 63:00.45 | 1:19.63 | 283545 | 289532 30 | 64:20.33 | 1:27.42 | 289533 | 296099
Range status and errors
Selected range
Filename C:\EACRip\Bertouch - Trio Sonatas (Bergen Barokk)(2005)\Georg von Bertouch - Trio Sonatas - Bergen Barokk.wav
Peak level 98.4 % Extraction speed 2.0 X Range quality 100.0 % Test CRC A7BA59BD Copy CRC A7BA59BD Copy OK
No errors occurred
AccurateRip summary
Track 1 accurately ripped (confidence 3) [A8E23328] (AR v2)Track 2 accurately ripped (confidence 3) [23703410] (AR v2)Track 3 accurately ripped (confidence 3) [1B908E39] (AR v2)Track 4 accurately ripped (confidence 3) [2A8F6F0F] (AR v2)Track 5 accurately ripped (confidence 3) [94DBB395] (AR v2)Track 6 accurately ripped (confidence 3) [27AC5069] (AR v2)Track 7 accurately ripped (confidence 3) [0BEE3204] (AR v2)Track 8 accurately ripped (confidence 3) [B6C631B5] (AR v2)Track 9 accurately ripped (confidence 3) [00530129] (AR v2)Track 10 accurately ripped (confidence 3) [1A59CCBF] (AR v2)Track 11 accurately ripped (confidence 3) [83DC196F] (AR v2)Track 12 accurately ripped (confidence 3) [4BCBC2FC] (AR v2)Track 13 accurately ripped (confidence 3) [6522904D] (AR v2)Track 14 accurately ripped (confidence 3) [D27E7705] (AR v2)Track 15 accurately ripped (confidence 3) [01CB8F0C] (AR v2)Track 16 accurately ripped (confidence 3) [BD22F294] (AR v2)Track 17 accurately ripped (confidence 3) [44DF6573] (AR v2)Track 18 accurately ripped (confidence 3) [42782180] (AR v2)Track 19 accurately ripped (confidence 3) [C661A551] (AR v2)Track 20 accurately ripped (confidence 3) [ED01523E] (AR v2)Track 21 accurately ripped (confidence 3) [A04F4F35] (AR v2)Track 22 accurately ripped (confidence 3) [54EB9EF4] (AR v2)Track 23 accurately ripped (confidence 3) [2ECF96C3] (AR v2)Track 24 accurately ripped (confidence 3) [F78E47E5] (AR v2)Track 25 accurately ripped (confidence 3) [E6D19968] (AR v2)Track 26 accurately ripped (confidence 3) [4735CFED] (AR v2)Track 27 accurately ripped (confidence 3) [929A19DD] (AR v2)Track 28 accurately ripped (confidence 3) [2EF0493F] (AR v2)Track 29 accurately ripped (confidence 3) [45159717] (AR v2)Track 30 accurately ripped (confidence 3) [3E87E8C9] (AR v2)
All tracks accurately ripped
End of status report
---- CUETools DB Plugin V2.1.6
[CTDB TOCID: KAfaxrEbysjUAmSid0WHeAAJy_4-] foundSubmit result: KAfaxrEbysjUAmSid0WHeAAJy_4- has been confirmedTrack | CTDB Status 1 | (2/2) Accurately ripped 2 | (2/2) Accurately ripped 3 | (2/2) Accurately ripped 4 | (2/2) Accurately ripped 5 | (2/2) Accurately ripped 6 | (2/2) Accurately ripped 7 | (2/2) Accurately ripped 8 | (2/2) Accurately ripped 9 | (2/2) Accurately ripped 10 | (2/2) Accurately ripped 11 | (2/2) Accurately ripped 12 | (2/2) Accurately ripped 13 | (2/2) Accurately ripped 14 | (2/2) Accurately ripped 15 | (2/2) Accurately ripped 16 | (2/2) Accurately ripped 17 | (2/2) Accurately ripped 18 | (2/2) Accurately ripped 19 | (2/2) Accurately ripped 20 | (2/2) Accurately ripped 21 | (2/2) Accurately ripped 22 | (2/2) Accurately ripped 23 | (2/2) Accurately ripped 24 | (2/2) Accurately ripped 25 | (2/2) Accurately ripped 26 | (2/2) Accurately ripped 27 | (2/2) Accurately ripped 28 | (2/2) Accurately ripped 29 | (2/2) Accurately ripped 30 | (2/2) Accurately ripped
==== Log checksum 85F5966D05EE40FB689CB9F9C7573E92C0427E62FA349B48AD46E9E5E55795A3 ====

Содержание индексной карты (.CUE)

REM GENRE ClassicalREM DATE 2005REM DISCID B20F6C1EREM COMMENT "ExactAudioCopy v1.3"PERFORMER "Bergen Barokk"TITLE "Georg von Bertouch: Trio Sonatas"REM COMPOSER "Georg von Bertouch (1668-1743)"FILE "Georg von Bertouch - Trio Sonatas - Bergen Barokk.flac" WAVE  TRACK 01 AUDIO    TITLE "Trio Sonata for 2 violins & continuo No. 8 in G Major: 1. Vivace"    PERFORMER "Bergen Barokk - Peter Spissky, violin: 1-3, 6-8, 10-13, 22-25 / Bjarte Eike, violin: 1-3, 6-8, 22-25 / Markku Luolajan-Mikkola, cello: 1-3, 6-8, 10-13, 22-25; viola da gamba: 4, 5, 14, 15, 26, 27-30 / Frode Thorsen, recorder: 4, 5, 10-13, 14, 16-19, 26-30 / Kjersti Sellevåg, Traverso: 27-30 / Hans Knut Sveen, harpsichord: 1-30"    REM COMPOSER "Georg von Bertouch (1668-1743)"    FLAGS DCP    INDEX 01 00:00:00  TRACK 02 AUDIO    TITLE "Trio Sonata for 2 violins & continuo No. 8 in G Major: 2. Adagio"    PERFORMER "Bergen Barokk"    REM COMPOSER "Georg von Bertouch (1668-1743)"    FLAGS DCP    INDEX 01 01:34:44  TRACK 03 AUDIO    TITLE "Trio Sonata for 2 violins & continuo No. 8 in G Major: 3. Andante"    PERFORMER "Bergen Barokk"    REM COMPOSER "Georg von Bertouch (1668-1743)"    FLAGS DCP    INDEX 00 03:17:25    INDEX 01 03:18:14  TRACK 04 AUDIO    TITLE "March, for viola da gamba, recorder & continuo, No. 106  (Music-Book of Jacob Mestmacher)"    PERFORMER "Bergen Barokk"    REM COMPOSER "Georg von Bertouch (1668-1743)"    FLAGS DCP    INDEX 00 06:55:50    INDEX 01 07:00:03  TRACK 05 AUDIO    TITLE "Aria, for viola da gamba, recorder & continuo, No. 248  (Music-Book of Jacob Mestmacher)"    PERFORMER "Bergen Barokk"    REM COMPOSER "Georg von Bertouch (1668-1743)"    FLAGS DCP    INDEX 01 08:35:08  TRACK 06 AUDIO    TITLE "Trio Sonata for 2 violins & continuo No. 15 in F minor: 1. Canona Allegro"    PERFORMER "Bergen Barokk"    REM COMPOSER "Georg von Bertouch (1668-1743)"    FLAGS DCP    INDEX 00 11:11:55    INDEX 01 11:15:23  TRACK 07 AUDIO    TITLE "Trio Sonata for 2 violins & continuo No. 15 in F minor: 2. Adagio"    PERFORMER "Bergen Barokk"    REM COMPOSER "Georg von Bertouch (1668-1743)"    FLAGS DCP    INDEX 00 13:01:25    INDEX 01 13:03:38  TRACK 08 AUDIO    TITLE "Trio Sonata for 2 violins & continuo No. 15 in F minor: 4. Andante"    PERFORMER "Bergen Barokk"    REM COMPOSER "Georg von Bertouch (1668-1743)"    FLAGS DCP    INDEX 01 14:56:46  TRACK 09 AUDIO    TITLE "Paspie de la Compertanje, for harpsichord (Music-Book of Jacob Mestmacher)"    PERFORMER "Bergen Barokk"    REM COMPOSER "Georg von Bertouch (1668-1743)"    FLAGS DCP    INDEX 00 17:24:15    INDEX 01 17:26:73  TRACK 10 AUDIO    TITLE "Trio Sonata for recorder, violin & cello No. 11 in F major: 1. Vivace"    PERFORMER "Bergen Barokk"    REM COMPOSER "Georg von Bertouch (1668-1743)"    FLAGS DCP    INDEX 00 19:36:53    INDEX 01 19:39:38  TRACK 11 AUDIO    TITLE "Trio Sonata for recorder, violin & cello No. 11 in F major: 2. Allegro"    PERFORMER "Bergen Barokk"    REM COMPOSER "Georg von Bertouch (1668-1743)"    FLAGS DCP    INDEX 01 21:07:48  TRACK 12 AUDIO    TITLE "Trio Sonata for recorder, violin & cello No. 11 in F major: 3. Adagio"    PERFORMER "Bergen Barokk"    REM COMPOSER "Georg von Bertouch (1668-1743)"    FLAGS DCP    INDEX 01 23:16:43  TRACK 13 AUDIO    TITLE "Trio Sonata for recorder, violin & cello No. 11 in F major: 4. Allegro"    PERFORMER "Bergen Barokk"    REM COMPOSER "Georg von Bertouch (1668-1743)"    FLAGS DCP    INDEX 00 25:01:55    INDEX 01 25:03:06  TRACK 14 AUDIO    TITLE "Menuetto, for viola da gamba, recorder & continuo, No. 13  (Music-Book of Jacob Mestmacher)"    PERFORMER "Bergen Barokk"    REM COMPOSER "Georg von Bertouch (1668-1743)"    FLAGS DCP    INDEX 00 26:59:02    INDEX 01 27:01:43  TRACK 15 AUDIO    TITLE "Gavotte, for viola da gamba & continuo, No. 53 (Music-Book of Jacob Mestmacher)"    PERFORMER "Bergen Barokk"    REM COMPOSER "Georg von Bertouch (1668-1743)"    FLAGS DCP    INDEX 00 29:00:05    INDEX 01 29:01:38  TRACK 16 AUDIO    TITLE "Sonata for recorder & continuo No. 21 in B flat minor: 1. Andante"    PERFORMER "Bergen Barokk"    REM COMPOSER "Georg von Bertouch (1668-1743)"    FLAGS DCP    INDEX 00 32:15:35    INDEX 01 32:18:63  TRACK 17 AUDIO    TITLE "Sonata for recorder & continuo No. 21 in B flat minor: 2. Vivace"    PERFORMER "Bergen Barokk"    REM COMPOSER "Georg von Bertouch (1668-1743)"    FLAGS DCP    INDEX 00 34:19:55    INDEX 01 34:20:12  TRACK 18 AUDIO    TITLE "Sonata for recorder & continuo No. 21 in B flat minor: 3. Adagio"    PERFORMER "Bergen Barokk"    REM COMPOSER "Georg von Bertouch (1668-1743)"    FLAGS DCP    INDEX 00 36:32:05    INDEX 01 36:32:54  TRACK 19 AUDIO    TITLE "Sonata for recorder & continuo No. 21 in B flat minor: 4. [Allegro]"    PERFORMER "Bergen Barokk"    REM COMPOSER "Georg von Bertouch (1668-1743)"    FLAGS DCP    INDEX 00 38:07:05    INDEX 01 38:07:63  TRACK 20 AUDIO    TITLE "Sonata for keyboard No. 17 in E flat major: 1. Largo"    PERFORMER "Bergen Barokk"    REM COMPOSER "Georg von Bertouch (1668-1743)"    FLAGS DCP    INDEX 00 39:47:45    INDEX 01 39:50:28  TRACK 21 AUDIO    TITLE "Sonata for keyboard No. 17 in E flat major: 2. Andante"    PERFORMER "Bergen Barokk"    REM COMPOSER "Georg von Bertouch (1668-1743)"    FLAGS DCP    INDEX 01 41:46:23  TRACK 22 AUDIO    TITLE "Trio Sonata for 2 violins & continuo No. 12 in D minor: 1. Andante"    PERFORMER "Bergen Barokk"    REM COMPOSER "Georg von Bertouch (1668-1743)"    FLAGS DCP    INDEX 00 45:18:00    INDEX 01 45:21:44  TRACK 23 AUDIO    TITLE "Trio Sonata for 2 violins & continuo No. 12 in D minor: 2. Adagio"    PERFORMER "Bergen Barokk"    REM COMPOSER "Georg von Bertouch (1668-1743)"    FLAGS DCP    INDEX 01 47:41:03  TRACK 24 AUDIO    TITLE "Trio Sonata for 2 violins & continuo No. 12 in D minor: 3. Allegro"    PERFORMER "Bergen Barokk"    REM COMPOSER "Georg von Bertouch (1668-1743)"    FLAGS DCP    INDEX 01 50:30:56  TRACK 25 AUDIO    TITLE "Trio Sonata for 2 violins & continuo No. 12 in D minor: 4. Allegro"    PERFORMER "Bergen Barokk"    REM COMPOSER "Georg von Bertouch (1668-1743)"    FLAGS DCP    INDEX 01 51:49:35  TRACK 26 AUDIO    TITLE "Allegro et Trio, for viola da gamba, recorder & continuo, No. 166  (Music-Book of Jacob Mestmacher)"    PERFORMER "Bergen Barokk"    REM COMPOSER "Georg von Bertouch (1668-1743)"    FLAGS DCP    INDEX 00 54:13:45    INDEX 01 54:17:18  TRACK 27 AUDIO    TITLE "Sonata for viola da gamba, recorder, flute & continuo No. 14 in G minor: 1.  Largo"    PERFORMER "Bergen Barokk"    REM COMPOSER "Georg von Bertouch (1668-1743)"    FLAGS DCP    INDEX 00 56:39:67    INDEX 01 56:43:13  TRACK 28 AUDIO    TITLE "Sonata for viola da gamba, recorder, flute & continuo No. 14 in G minor: 2. Andante"    PERFORMER "Bergen Barokk"    REM COMPOSER "Georg von Bertouch (1668-1743)"    FLAGS DCP    INDEX 00 59:30:47    INDEX 01 59:31:05  TRACK 29 AUDIO    TITLE "Sonata for viola da gamba, recorder, flute & continuo No. 14 in G minor: 3. Adagio"    PERFORMER "Bergen Barokk"    REM COMPOSER "Georg von Bertouch (1668-1743)"    FLAGS DCP    INDEX 00 62:59:20    INDEX 01 63:00:45  TRACK 30 AUDIO    TITLE "Sonata for viola da gamba, recorder, flute & continuo No. 14 in G minor: 4. Vivace"    PERFORMER "Bergen Barokk"    REM COMPOSER "Georg von Bertouch (1668-1743)"    FLAGS DCP    INDEX 00 64:19:40    INDEX 01 64:20:33

Доп. информация

AllMusic Review by James Manheim  [-]This is music from Norway, from Bergen specifically, written in the early eighteenth century. Composer Georg von Bertouch has an interesting biography; a German-born musician of French extraction, he was also a military leader who participated in 22 battles in Denmark (of which Norway was a part), Germany, and France. A bit older than Bach and Telemann, and geographically even farther removed from the fonts of Italian innovation, he did not (on the evidence of the music here) engage with Vivaldi or with Telemann's galant styles. Instead, the keyboard pieces presented here are modest examples of French style, and the trio sonatas, to which the bulk of the album is devoted, are modeled on those of Corelli, with elegant two-part writing featuring rather obsessive use of sequences and long chains of harmonic suspensions. The album's interest lies not only in its rediscovery of a forgotten composer but also in the variety of ways the trio sonatas are presented. Recorder player and annotator Frode Thorsen identifies four possible modes of playing a trio sonata: with two similar melody instruments, with two different ones, with one melody instrument and keyboard part incorporating the second melody line, and on an organ or harpsichord by itself (as with Bach's trio sonatas for organ). The program gives examples of all four, resulting in an unusually varied sonic palette and a program that might easily have been given by a virtuoso complement of musicians at a noble establishment in the eighteenth century. The music isn't brilliantly compelling, and Thorsen's recorder doesn't always have the smooth organ-like quality that's desirable, but this disc offers enjoyable listening for anyone from commuters to Baroque specialists.

Доп. информация

Georg von Bertouch (1668–1743) was a man of action, quite literally: he took part in no fewer than 22 battles, and ended his career as commandant of Akershus Castle, which still overlooks the harbour in Oslo – the portrait on the cover of this CD was photographed in the office of the present-day commandant. But Bertouch, a German-born Norwegian, was also one of the leading composers of the day, corresponding with Bach and other prominent musicians. His music reveals a knowledge of Corelli and other contemporary developments, but retains a fresh, almost innocent, spontaneity with an infectious appeal. Here it is interspersed with dances and airs used in domestic music-making in Baroque Bergen.
[doutdess.net].t261973.torrent
Torrent: Registered [ 2018-04-18 07:50 ] · 9B79CA628D4B0892C3BA2259435A7516F57ABC0C

17 KB

Status: checked
Completed: 0 times
Size: 381 MB
(Classical chamber) Bertouch - Trio Sonatas with pieces from Music-Book of Jacob Mestmacher (Bergen Barokk) - 2005, FLAC (image+.cue) lossless скачать торрент бесплатно и без регистрации

[Profile] [PM]
Forum Topic Author Size
Вокальная музыка в lossless ((classical/operetta)) Schönes bleibt. Unvergessene Tenöre bei WDR 4 / Прекрасное остаётся - 2000, FLAC (image+.cue) lossless Vi$itReal 401 MB
Вокальная и хоровая музыка lossy (Classical (Lieder)) (Lieder) Norman Bailey - Songs of Hugo Wolf - 1979, MP3 (tracks) 320 kbps RelizMAN 120 MB
Концерт для инструмента с оркестром в lossless (Classical ) Top 20 CDs for your Classical Music Collection - ClassicalCDguide.com: 02 - W. A. Mozart - Great Piano Concertos N 20 - 25 (1997) APE (tracks), 450-566 kb/s RelizMAN 582 MB
Концерт для инструмента с оркестром в lossless (Classical ) Top 20 CDs for your Classical Music Collection - ClassicalCDguide.com: 04 - Bach: Die Brandenburgische Konzerte - Orchestra of the Age of Enlightenment 2 CD (1999) APE (tracks), 610-769... RelizMAN 462 MB
Оркестровая музыка в lossless (Classical ) Top 20 CDs for your Classical Music Collection - ClassicalCDguide.com: 06 - Igor Stravinsky; Petroushka, Le Sacre du Printemps - Columbia Symphony Orchestra (Sony 1990) APE (tracks),... Vi$itReal 274 MB
Камерная инструментальная музыка в lossless (Classical ) Top 20 CDs for your Classical Music Collection - ClassicalCDguide.com: 07 - Franz Schubert - \'Trout\' Quintet & \'Death and the Maiden\' - Amadeus Quartet (DG ... Vi$itReal 343 MB
Камерная инструментальная музыка в lossless (Classical ) Top 20 CDs for your Classical Music Collection - ClassicalCDguide.com: 10 - Georges Bizet; Carmen - Sir Thomas Beecham, de Los Angeles, Gedda, Michau, Blanc (EMI 2000) аре (по-треково),... Vi$itReal 745 MB
Камерная инструментальная музыка в lossless (Classical ) Top 20 CDs for your Classical Music Collection - ClassicalCDguide.com: 12 - Франц Шуберт - Симфония No. 3, Unfinished 39; - Carlos Kleiber и Wiener Philharmoniker (DG 1... Vi$itReal 186 MB
Display posts:    

Current time is: 21-Sep 01:57

All times are UTC + 3



You cannot post new topics in this forum
You cannot reply to topics in this forum
You cannot edit your posts in this forum
You cannot delete your posts in this forum
You cannot vote in polls in this forum
You cannot attach files in this forum
You can download files in this forum