Reply to topic
DL-List and Torrent activity [Update пиров]
Size:  967 MB   |    Registered:  1 year 4 months   |    Completed:  0 times
Seeders:  749  [  0 KB/s  ]   Leechers:  55  [  0 KB/s  ]  
 
     
 
 
Author Message

RelizMAN ®

11

Post 18-Apr-2018 18:40

[Quote]

A Hundred Years of Italian Opera (1820-1830)
Жанр: Classical opera
Страна-производитель диска: Made in England
Год издания диска: 1995
Издатель (лейбл): Opera Rara
Номер по каталогу: ORCH104
Дата записи: 1995
Аудиокодек: FLAC
Тип рипа: image+.cue
Битрейт аудио: lossless
Продолжительность: Length: 3 hours 42 minutes
Источник: релизер
сайт-источник/ник/другое: Bodtje, подарок; Хосе - титаническая работа с cue; Caterina Sforza - доп. сканы
Наличие сканов в содержимом раздачи: да, авторский буклет, 299 страниц
Works:
Balducci: Non piu veggo in quel tristo sembiante (from Tazia)
Bellini: Adelson & Salvini
Bellini: Amo ed amata io sono (from Zaira)
Bellini: Dopo l'oscuro nembo (from Adelson e Salvini)
Bellini: Zaira
Carafa: D'un orribile tempesta (from Le nozze di Lammermoor)
Carafa: Le nozze di Lammermoor
Coccia: Perchè non ho del vento (from Rosmonda)
Coccia: Vieni, o Grande!…Ecco l'indegna (from Maria Stuart, regina di Scozia)
Conti, F: A che di fiori e lagrime (from Giovanna Shore)
Cordella: Oh soave mia speranza (from Lo sposo di provincia)
Donizetti: A te nell'appressarmi (from La Zingara)
Donizetti: Che potrei dirti, o caro? (from Alfredo il Grande)
Donizetti: Il Paria
Donizetti: In lei vegg'io l'oggett (from Le Nozze in Villa)
Donizetti: La Zingara
Donizetti: Qui pel figlio una madre gridava (from Il paria)
Donizetti: Tremante, smarrito (from Chiara e Serafina, ossia Il Pirata)
Mayr: Fedra
Mayr: Se fiero, Ippolito (from Fedra)
Mercadante: Qui fu commesso, o popoli (from Amleto)
Mercadante: Se m'abbandoni (from Nitocri)
Meyerbeer: Margherita d'Anjou
Meyerbeer: Quel parlar! Quell'aria incerta! (from Margherita d'Anjou)
Meyerbeer: Si mel credi allor che pensi (from L'esule di Granata)
Pacini: Ah si ch'io t'amo … La sotto il salice (from I fidanzati, ossia Il contestabile di Chester)
Ricci, L: Io ti ho dato il sangue mio (from Il diavolo condannato a prender moglie)
Rossini: Perché mi guardi, e piangi (from Zelmira)
Rossini: Vieni, o cara (from Ugo Re d'Italia)
Rossini: Zelmira

Треклист

CD1

Composer: Felice Romani, Giacomo Meyerbeer01 Margherita d'Anjou, Act II: Trio: Quel parlar! Quell'aria 06:01Alastair Miles (bass), Russell Smythe (baritone), Geoffrey Dolton (baritone)
Composer: Luigi Romanelli, Johann Simon Mayr02 Fedra, Act II: Aria: Se fiero, Ippolito 02:32Penelope Walker (mezzo-soprano)
Composer: Gaetano Donizetti, Bartolomeo Merelli03 Le nozze in villa, Act II: Trio: In lei vegg'io l'oggetto 06:52Diana Montague (mezzo-soprano), Paul Nilon (tenor), Jonathan Viera (baritone)
Composer: Giacomo Cordella04 Lo sposo di provincia, Act I: Trio: Oh soave mia speranza 05:15Nuccia Focile (soprano), Fiona Kimm (mezzo-soprano), Paul Nilon (tenor)
Composer: Andrea Leone Tottola, Gioachino Rossini05 Zelmira, Act I: Duet: Perche mi guardi, e piangi? 06:09Della Jones (mezzo-soprano), Eiddwen Harrhy (soprano)
Composer: Felice Romani, Giacomo Meyerbeer06 L'esule di Granata, Act II: Duetto: Si, mel credi 12:44Alastair Miles (bass), Patricia Spence (mezzo-soprano)
Composer: Andrea Leone Tottola, Gaetano Donizetti07 La zingara, Act II: Cavatina: A te nell'appressarmi 03:58Bruce Ford (tenor)
Composer: Felice Romani, Gaetano Donizetti08 Chiara e Serafina, o Il pirata, Act I: Trio: Tremante, smarrito 06:02Yvonne Kenny (soprano), Della Jones (mezzo-soprano), Lynne Davies (soprano)
Composer: Saverio Mercadante09 Amleto, Act I: Finale: Qui fu commesso, o popoli 11:57Ian Thompson (tenor), Diana Montague (mezzo-soprano), Theresa Goble (mezzo-soprano), Susan McCulloch (soprano), Ashley Thorburn (bass)
Composer: Andrea Leone Tottola, Gaetano Donizetti10 Alfredo il grande, Act II: Aria finale: Che potrei dirti, o caro? 07:31Della Jones (mezzo-soprano), Ian Platt (baritone), Linda Kitchen (soprano), Theresa Goble (mezzo-soprano), Brendan McBride (tenor), David Ashman (baritone)

CD2

Composer: Gioachino Rossini01 Ugo re d'Italia: Aria: Vieni, o cara 04:08Della Jones (mezzo-soprano)
Composer: Saverio Mercadante02 Nitocri, Act I: Cavatina: Se m'abbandoni 08:06Nuccia Focile (soprano)
Composer: Andrea Leone Tottola, Vincenzo Bellini03 Adelson e Salvini, Act II: Romanza: Dopo l'oscuro nembo 06:23Jennifer Rhys-Davies (soprano), Paul Nilon (tenor)
Composer: Giuseppe Balducci04 Tazia, Act I: Duet: non piu veggo in quel tristo sembiante 09:16
Composer: Saverio Mercadante05 La testa di bronzo: Overture 09:15
Composer: Luigi Ricci06 Il diavolo condannato a prender moglie, Act I: Quartet: Ioti ho dato il sangue mio 10:23John Rawnsley (baritone), Paul Nilon (tenor), Ashley Thorburn (bass), Jonathan Viera (baritone)
Composer: Saverio Mercadante07 Gabriella di Vergy, Act I: Sestetto: Ah che dici! … Quant'immagini crudeli 11:20Ivan Sharpe (tenor), Karl Daymond (baritone), Jennifer Rhys-Davies (soprano), Paul Nilon (tenor), Claire Daniels (soprano), Jonathan Viera (baritone)
Composer: Gaetano Donizetti08 Il paria, Act III: Aria: Qui pel figlio una madre gridava 17:13John Rawnsley (baritone)

CD3

Composer: Carlo Coccia, Felice Romani01 Rosmonda, Act I: Romanza: Perche non ho del vento? 16:02Yvonne Kenny (soprano), Diana Montague (mezzo-soprano)
Composer: Felice Romani, Vincenzo Bellini02 Zaira, Act I: Cavatina: Amo ed amata io sono 07:04Yvonne Kenny (soprano), Lynne Davies (soprano)
Composer: Carlo Conti03 Giovanna Shore, Act I: Romanza: A che di fiori e lagrime 05:05Marilyn Hill Smith (soprano), Alastair Miles (bass), Clive Bayley (bass)
Composer: Domenico Gilardoni, Giovanni Pacini04 I fidanzati, ossia Il contestabile di Chester: Part III: Duettino: Ah si ch'io t'amo … La sotto il salice 12:11Yvonne Kenny (soprano), Susan McCulloch (soprano)
Composer: Michele Carafa05 Le nozze di Lammermoor, Act I: Quintetto: D'un orribile tempesta 11:15Ian Thompson (tenor), Theresa Goble (mezzo-soprano), Susan McCulloch (soprano), Ashley Thorburn (bass), Jonathan Viera (baritone)
Composer: Carlo Coccia, Signor Giannone06 Maria Stuart, regina di Scozia, Act I: Finale: Vieni, o Grande! … Ecco l'indegna 26:01Anne Mason (mezzo-soprano), Jennifer Rhys-Davies (soprano), Paul Nilon (tenor), Bronwen Mills (soprano), Mark Glanville (bass), Alastair Miles (bass), Clive Bayley (bass), Ivan Sharpe (tenor), Bruce Ford (tenor)

Исполнители

A Hundred Years of Italian Opera (1820-1830)
Composers:Balducci, Giuseppe (1796-1845)Bellini, Vincenzo (1801-35)Carafa, Michele Enrico (1787-1872)Coccia, Carlo (1782-1873)Conti, Francesco Bartolomeo (1682-1732)Cordella, Giacomo (1786-1846)Donizetti, Gaetano (1797-1848)Mayr, Johann Simon (1763-1845)Mercadante, Giuseppe Saverio Raffaele (1795-1870)Meyerbeer, Giacomo (1791-1864)Pacini, Giovanni (1796-1867)Ricci, Luigi (1805-59)Rossini, Gioacchino Antonio (1792-1868)
ArtistsClaire Daniels, Lynne Davies, Nuccia Focile, Eiddwen Harrhy, Marilyn Hill Smith, Yvonne Kenny, Linda Kitchen, Susan McCulloch, Bronwen Mills, Jennifer Rhys-Davies, Theresa Goble, Della Jones, Fiona Kimm, Anne Mason, Diana Montague, Patricia Spence, Penelope Walker, Bruce Ford, Brendan McBridge, Paul Nilon, Ivan Sharpe, Ian Thompson, David Ashman, Karl Morgan Daymond, Geoffrey Dolton, Ian Platt, John Rawnsley, Russell Smythe, Jonathan Veira, Clive Bayley, Mark Glanville, Alastair Miles, Ashley Thorburn
Philharmonia OrchestraGeoffrey Mitchell ChoirDavid Parry, conductor

Лог создания рипа

CD1

Exact Audio Copy V1.3 from 2. September 2016
EAC extraction logfile from 15. April 2018, 20:19
Various Artists / 100 Years of Italian Opera, 1820-1830 (Disc 1)
Used drive : TSSTcorpDVDWBD SE-406AB Adapter: 1 ID: 2
Read mode : SecureUtilize accurate stream : YesDefeat audio cache : YesMake use of C2 pointers : No
Read offset correction : 6Overread into Lead-In and Lead-Out : NoFill up missing offset samples with silence : YesDelete leading and trailing silent blocks : NoNull samples used in CRC calculations : YesUsed interface : Native Win32 interface for Win NT & 2000
Used output format : User Defined EncoderSelected bitrate : 768 kBit/sQuality : HighAdd ID3 tag : NoCommand line compressor : C:\Program Files (x86)\Exact Audio Copy\FLAC\FLAC.EXEAdditional command line options : -8 -e -p -V -T "ARTIST=%artist%" -T "TITLE=%title%" -T "ALBUM=%albumtitle%" -T "DATE=%year%" -T "TRACKNUMBER=%tracknr%" -T "GENRE=%genre%" -T "PERFORMER=%albuminterpret%" -T "COMPOSER=%composer%" %haslyrics%--tag-from-file=LYRICS="%lyricsfile%"%haslyrics% -T "ALBUMARTIST=%albumartist%" -T "DISCNUMBER=%cdnumber%" -T "TOTALDISCS=%totalcds%" -T "TOTALTRACKS=%numtracks%" -T "COMMENT=%comment%" %source% -o %dest%
TOC of the extracted CD
Track | Start | Length | Start sector | End sector --------------------------------------------------------- 1 | 0:00.00 | 6:01.22 | 0 | 27096 2 | 6:01.22 | 2:32.70 | 27097 | 38566 3 | 8:34.17 | 6:52.50 | 38567 | 69516 4 | 15:26.67 | 5:15.40 | 69517 | 93181 5 | 20:42.32 | 6:09.38 | 93182 | 120894 6 | 26:51.70 | 12:44.00 | 120895 | 178194 7 | 39:35.70 | 3:58.05 | 178195 | 196049 8 | 43:34.00 | 6:02.35 | 196050 | 223234 9 | 49:36.35 | 11:57.60 | 223235 | 277069 10 | 61:34.20 | 7:31.55 | 277070 | 310949
Range status and errors
Selected range
Filename K:\Rips\A Hundred Years of Italian Opera (Parry)\CD1\Various Artists - 100 Years of Italian Opera, 1820-1830 (Disc 1).wav
Peak level 100.0 % Extraction speed 2.2 X Range quality 99.9 % Test CRC 3D1C4E58 Copy CRC 3D1C4E58 Copy OK
No errors occurred
AccurateRip summary
Track 1 cannot be verified as accurate (confidence 2) [C41E4B21], AccurateRip returned [CD613515] (AR v2)Track 2 cannot be verified as accurate (confidence 2) [2BAE0D3B], AccurateRip returned [716CBCB1] (AR v2)Track 3 cannot be verified as accurate (confidence 2) [BE8E2A0A], AccurateRip returned [61D76F01] (AR v2)Track 4 cannot be verified as accurate (confidence 2) [AAC5F443], AccurateRip returned [4081DF4E] (AR v2)Track 5 cannot be verified as accurate (confidence 2) [64283B06], AccurateRip returned [609D50F7] (AR v2)Track 6 cannot be verified as accurate (confidence 2) [4E1FECF5], AccurateRip returned [91483B83] (AR v2)Track 7 cannot be verified as accurate (confidence 2) [1140075B], AccurateRip returned [A54CF632] (AR v2)Track 8 cannot be verified as accurate (confidence 2) [71D2C7BD], AccurateRip returned [44F12C94] (AR v2)Track 9 cannot be verified as accurate (confidence 2) [305D667F], AccurateRip returned [3F0D27E4] (AR v2)Track 10 cannot be verified as accurate (confidence 2) [4909D914], AccurateRip returned [D5EBCFBC] (AR v2)
No tracks could be verified as accurateYou may have a different pressing from the one(s) in the database
End of status report
---- CUETools DB Plugin V2.1.6
[CTDB TOCID: 488N27zyDzg5f94fnhkVLOzyDww-] foundSubmit result: 488N27zyDzg5f94fnhkVLOzyDww- has been confirmedTrack | CTDB Status 1 | (4/4) Accurately ripped 2 | (4/4) Accurately ripped 3 | (4/4) Accurately ripped 4 | (4/4) Accurately ripped 5 | (4/4) Accurately ripped 6 | (4/4) Accurately ripped 7 | (4/4) Accurately ripped 8 | (4/4) Accurately ripped 9 | (4/4) Accurately ripped 10 | (4/4) Accurately ripped
==== Log checksum 704AF36806F32F4C0B0AE71BB29AF81656BE7BEC73ABA028852436AF57F13C4A ====

CD2

Exact Audio Copy V1.3 from 2. September 2016
EAC extraction logfile from 15. April 2018, 23:19
Various Artists / 100 Years of Italian Opera, 1820-1830 (Disc 2)
Used drive : TSSTcorpDVDWBD SE-406AB Adapter: 1 ID: 2
Read mode : SecureUtilize accurate stream : YesDefeat audio cache : YesMake use of C2 pointers : No
Read offset correction : 6Overread into Lead-In and Lead-Out : NoFill up missing offset samples with silence : YesDelete leading and trailing silent blocks : NoNull samples used in CRC calculations : YesUsed interface : Native Win32 interface for Win NT & 2000
Used output format : User Defined EncoderSelected bitrate : 768 kBit/sQuality : HighAdd ID3 tag : NoCommand line compressor : C:\Program Files (x86)\Exact Audio Copy\FLAC\FLAC.EXEAdditional command line options : -8 -e -p -V -T "ARTIST=%artist%" -T "TITLE=%title%" -T "ALBUM=%albumtitle%" -T "DATE=%year%" -T "TRACKNUMBER=%tracknr%" -T "GENRE=%genre%" -T "PERFORMER=%albuminterpret%" -T "COMPOSER=%composer%" %haslyrics%--tag-from-file=LYRICS="%lyricsfile%"%haslyrics% -T "ALBUMARTIST=%albumartist%" -T "DISCNUMBER=%cdnumber%" -T "TOTALDISCS=%totalcds%" -T "TOTALTRACKS=%numtracks%" -T "COMMENT=%comment%" %source% -o %dest%
TOC of the extracted CD
Track | Start | Length | Start sector | End sector --------------------------------------------------------- 1 | 0:00.00 | 4:08.00 | 0 | 18599 2 | 4:08.00 | 8:06.00 | 18600 | 55049 3 | 12:14.00 | 6:23.00 | 55050 | 83774 4 | 18:37.00 | 9:16.00 | 83775 | 125474 5 | 27:53.00 | 9:15.00 | 125475 | 167099 6 | 37:08.00 | 10:23.30 | 167100 | 213854 7 | 47:31.30 | 11:20.05 | 213855 | 264859 8 | 58:51.35 | 17:13.40 | 264860 | 342374
Range status and errors
Selected range
Filename K:\Rips\A Hundred Years of Italian Opera (Parry)\CD2\Various Artists - 100 Years of Italian Opera, 1820-1830 (Disc 2).wav
Peak level 100.0 % Extraction speed 4.1 X Range quality 99.9 % Test CRC 557D4480 Copy CRC 557D4480 Copy OK
No errors occurred
AccurateRip summary
Track 1 cannot be verified as accurate (confidence 2) [CFFCFE6B], AccurateRip returned [51398BCE] (AR v2)Track 2 cannot be verified as accurate (confidence 2) [954C4F5B], AccurateRip returned [1CB3F016] (AR v2)Track 3 cannot be verified as accurate (confidence 2) [317D1604], AccurateRip returned [38EF807B] (AR v2)Track 4 cannot be verified as accurate (confidence 2) [2CC4BC39], AccurateRip returned [8797B822] (AR v2)Track 5 cannot be verified as accurate (confidence 2) [AC935459], AccurateRip returned [AFB7FC7D] (AR v2)Track 6 cannot be verified as accurate (confidence 2) [EA905BC8], AccurateRip returned [30593A2A] (AR v2)Track 7 cannot be verified as accurate (confidence 2) [B35C7A8E], AccurateRip returned [FFDEDB93] (AR v2)Track 8 cannot be verified as accurate (confidence 2) [0B571983], AccurateRip returned [B2DA34EB] (AR v2)
No tracks could be verified as accurateYou may have a different pressing from the one(s) in the database
End of status report
---- CUETools DB Plugin V2.1.6
[CTDB TOCID: .jdPTW9RwhiRQSLEK7VNhVdbxCs-] foundSubmit result: .jdPTW9RwhiRQSLEK7VNhVdbxCs- has been confirmedTrack | CTDB Status 1 | (4/4) Accurately ripped 2 | (4/4) Accurately ripped 3 | (4/4) Accurately ripped 4 | (4/4) Accurately ripped 5 | (4/4) Accurately ripped 6 | (4/4) Accurately ripped 7 | (4/4) Accurately ripped 8 | (4/4) Accurately ripped
==== Log checksum 395C5033A8CFA5D72B37E576688D6A3610417C540ABA38DB918E39CDE7A54B40 ====

CD3

Exact Audio Copy V1.3 from 2. September 2016
EAC extraction logfile from 16. April 2018, 0:46
Various Artists / 100 Years of Italian Opera, 1820-1830 (Disc 3)
Used drive : TSSTcorpDVDWBD SE-406AB Adapter: 1 ID: 2
Read mode : SecureUtilize accurate stream : YesDefeat audio cache : YesMake use of C2 pointers : No
Read offset correction : 6Overread into Lead-In and Lead-Out : NoFill up missing offset samples with silence : YesDelete leading and trailing silent blocks : NoNull samples used in CRC calculations : YesUsed interface : Native Win32 interface for Win NT & 2000
Used output format : User Defined EncoderSelected bitrate : 768 kBit/sQuality : HighAdd ID3 tag : NoCommand line compressor : C:\Program Files (x86)\Exact Audio Copy\FLAC\FLAC.EXEAdditional command line options : -8 -e -p -V -T "ARTIST=%artist%" -T "TITLE=%title%" -T "ALBUM=%albumtitle%" -T "DATE=%year%" -T "TRACKNUMBER=%tracknr%" -T "GENRE=%genre%" -T "PERFORMER=%albuminterpret%" -T "COMPOSER=%composer%" %haslyrics%--tag-from-file=LYRICS="%lyricsfile%"%haslyrics% -T "ALBUMARTIST=%albumartist%" -T "DISCNUMBER=%cdnumber%" -T "TOTALDISCS=%totalcds%" -T "TOTALTRACKS=%numtracks%" -T "COMMENT=%comment%" %source% -o %dest%
TOC of the extracted CD
Track | Start | Length | Start sector | End sector --------------------------------------------------------- 1 | 0:00.00 | 16:02.00 | 0 | 72149 2 | 16:02.00 | 7:04.72 | 72150 | 104021 3 | 23:06.72 | 5:05.53 | 104022 | 126949 4 | 28:12.50 | 12:11.07 | 126950 | 181781 5 | 40:23.57 | 11:15.70 | 181782 | 232476 6 | 51:39.52 | 26:01.23 | 232477 | 349574
Range status and errors
Selected range
Filename K:\Rips\A Hundred Years of Italian Opera (Parry)\CD3\Various Artists - 100 Years of Italian Opera, 1820-1830 (Disc 3).wav
Peak level 91.7 % Extraction speed 4.3 X Range quality 100.0 % Test CRC 16B6BDA4 Copy CRC 16B6BDA4 Copy OK
No errors occurred
AccurateRip summary
Track 1 cannot be verified as accurate (confidence 1) [80D03F5A], AccurateRip returned [B9E44E0E] (AR v2)Track 2 cannot be verified as accurate (confidence 1) [113FA18D], AccurateRip returned [7187ABB7] (AR v2)Track 3 cannot be verified as accurate (confidence 1) [0A25D184], AccurateRip returned [02C937B1] (AR v2)Track 4 cannot be verified as accurate (confidence 1) [895A49FE], AccurateRip returned [93A2A6A0] (AR v2)Track 5 cannot be verified as accurate (confidence 1) [9FAEF222], AccurateRip returned [19944208] (AR v2)Track 6 cannot be verified as accurate (confidence 1) [4BBB496A], AccurateRip returned [AB9FFEE8] (AR v2)
No tracks could be verified as accurateYou may have a different pressing from the one(s) in the database
End of status report
---- CUETools DB Plugin V2.1.6
[CTDB TOCID: y5CNlrHHf9Eao_ycQiksOFuadUk-] foundSubmit result: y5CNlrHHf9Eao_ycQiksOFuadUk- has been confirmedTrack | CTDB Status 1 | (4/4) Accurately ripped 2 | (4/4) Accurately ripped 3 | (4/4) Accurately ripped 4 | (4/4) Accurately ripped 5 | (2/4) Accurately ripped, or (2/4) differs in 17 samples @09:51:12 6 | (4/4) Accurately ripped
==== Log checksum 2BF8FD1FE2916FF62684CA954AF1304B40DD927A65F2472A89D3AB73DE0B88A2 ====

Содержание индексной карты (.CUE)

CD1

REM GENRE ClassicalREM DATE 1995REM DISCID 9710320AREM COMMENT "ExactAudioCopy v1.3"PERFORMER "Philharmonia Orchestra (**With the Royal Philharmonic Orchestra), Geoffrey Mitchell Choir, Geoffrey Mitchell (chorus master), David Parry (conductor) / (Sopranos) Claire Daniels, Lynne Davies, Nuccia Focile, Eiddwen Harrhy, Marilyn Hill Smith, Yvonne Kenny, Linda Kitchen, Susan McCulloch, Bronwen Mills, Jennifer Rhys-Davies (Mezzo sopranos) Theresa Goble, Della Jones, Fiona Kimm, Anne Mason, Diana Montague, Patricia Spence, Penelope Walker (Tenors) Bruce Ford, Brendan McBride, Paul Nilon, Ivan Sharpe, Ian Thompson (Baritones) David Ashman, Karl Morgan Daymond, Geoffrey Dolton, Ian Platt, John Rawnsley, Russell Smythe, Jonathan Viera (Basses) Clive Bayley, Mark Glanville, Alastair Miles, Ashley Thorburn"TITLE "Various Composers - A Hundred Years of Italian Opera 1820-1830 CD1"REM COMPOSER "Various Composers"FILE "David Parry - Various Composers - A Hundred Years of Italian Opera 1820-1830 CD1.flac" WAVE  TRACK 01 AUDIO    TITLE "GIACOMO MEYERBEER. MARGHERITA D'ANJOU. Melodramma semiserio in two acts. Libretto by Felice Romani. First performance 14 November 1820. Teatro alla Scala, Milan. Trio: Quel parlar! Quell'aria incerta"    PERFORMER "Philharmonia Orchestra, David Parry (conductor) & Geoffrey Dolton (Carlo Belmonte), Alastair Miles (Riccardo Duca di Glocester), Russell Smythe (Michele Gamautte)"    REM COMPOSER "Giacomo Meyerbeer (1791-1864)"    INDEX 01 00:00:00  TRACK 02 AUDIO    TITLE "GIOVANNI SIMONE MAYR. FEDRA. Melodrama serio in two acts. Libretto by Luigi Romanelli. First performance 26 December 1820. Teatro alla Scala, Milan. Aria: Se fiero, Ippolito *(This item previously appeared on the LP ORH 102 Giovanni Simone Mayr)"    PERFORMER "Philharmonia Orchestra, David Parry (conductor) & Penelope Walker (Fedra)"    REM COMPOSER "Simon Mayr (1763-1845)"    INDEX 01 06:01:22  TRACK 03 AUDIO    TITLE "GAETANO DONIZETTI. LE NOZZE IN VILLA. Dramma buffo in two acts. Libretto by Bartolomeo Merelli. First performance Carnival 1820. Teatro Vecchio, Mantua. Trio: In lei vegg'io l'oggetto"    PERFORMER "Philharmonia Orchestra, David Parry (conductor) & Diana Montague (Sabina), Jonathan Viera (Don Petronio), Paul Nilon (Claudio)"    REM COMPOSER "Gaetano Donizetti (1797-1848)"    INDEX 01 08:34:17  TRACK 04 AUDIO    TITLE "GIACOMO CORDELLA. LO SPOSO DI PROVINCIA. Commedia per musica in two acts. Libretto by Giovanni Schmidt. First performance 29 Septemer 1821. Teatro Argentina, Rome. Trio: Oh soave mia speranza"    PERFORMER "Philharmonia Orchestra, David Parry (conductor) & Nuccia Focile (Lauretta), Paul Nilon (Ernesto), Fiona Kimm (Martina)"    REM COMPOSER "Giacomo Cordella (1786-1847)"    INDEX 01 15:26:67  TRACK 05 AUDIO    TITLE "GIOACCHINO ROSSINI. ZELMIRA. Dramma in two acts. Libretto by Andrea Leone Tottola. First performance 16 February 1822. Teatro S. Carlo, Naples. Duet: Perchè mi guardi, e piangi?"    PERFORMER "Philharmonia Orchestra, David Parry (conductor) & Eiddwen Harrhy (Zelmira), Della Jones (Emma)"    REM COMPOSER "Gioacchino Rossini (1792-1868)"    INDEX 01 20:42:32  TRACK 06 AUDIO    TITLE "GIACOMO MEYERBEER. L'ESULE DI GRANATA. Melodramma serio in two acts. Libretto by Felice Romani. First performance 12 March 1822. Teatro alla Scala, Milan. Duetto: Sì, mel credi"    PERFORMER "Philharmonia Orchestra, Geoffrey Mitchell Choir (Abenseragi), Geoffrey Mitchell (chorus master), David Parry (conductor) & Patricia Spence (Almanzor), Alastair Miles (Sulemano)"    REM COMPOSER "Giacomo Meyerbeer (1791-1864)"    INDEX 01 26:51:70  TRACK 07 AUDIO    TITLE "GAETANO DONIZETTI. LA ZINGARA. Dramma in two acts. Libretto by Andrea Leone Tottola. First performance 12 May 1822. Teatro Nuovo, Naples. Cavatina: A te nell'appressarmi **"    PERFORMER "Royal Philharmonic Orchestra, David Parry (conductor) & Bruce Ford (Fernando)"    REM COMPOSER "Gaetano Donizetti (1797-1848)"    INDEX 01 39:35:70  TRACK 08 AUDIO    TITLE "GAETANO DONIZETTI. CHIARA E SERAFINA ossia I PIRATI. Melodramma semiserio in two acts. Libretto by Felice Romani. First performance 26 October 1822. Teatro alla Scala, Milan. Trio: Tremante, smarrito"    PERFORMER "Philharmonia Orchestra, David Parry (conductor) & Yvonne Kenny (Serafina), Lynn Davies (Chiara), Della Jones (Lisetta)"    REM COMPOSER "Gaetano Donizetti (1797-1848)"    INDEX 01 43:34:00  TRACK 09 AUDIO    TITLE "SAVERIO MERCADANTE. AMLETO. Melodramma tragico in two acts. Libretto by Felice Romani. First performance 26 December 1822. Teatro alla Scala, Milan. Finale, Act I. Qui fu commesso, o popoli"    PERFORMER "Philharmonia Orchestra, Geoffrey Mitchell Choir (Courtiers, followers of Amleto, followers of Claudio), Geoffrey Mitchell (chorus master), David Parry (conductor) & Susan McCulloch (Geltrude), Diana Montague (Amleto), Ashley Thorburn (Claudio), Theresa Goble (Amelia), Ian Thompson (Aldano)"    REM COMPOSER "Saverio Mercadante (1795-1870)"    INDEX 01 49:36:35  TRACK 10 AUDIO    TITLE "GAETANO DONIZETTI. ALFREDO IL GRANDE. Dramma in two acts. Libretto by Andrea Leone Tottola. First performance 2 July 1823. Teatro S. Carlo, Naples. Aria finale: Che potrei dirti, o caro? **"    PERFORMER "Royal Philharmonic Orchestra, Geoffrey Mitchell Choir (English Soldiers), Geoffrey Mitchell (chorus master), David Parry (conductor) & Della Jones (Amalia), Brendan McBride (Alfredo), Theresa Goble (Enrichetta), Linda Kitchen (Margherita), David Ashman (Guglielmo), Ian Platt (Eduardo)"    REM COMPOSER "Gaetano Donizetti (1797-1848)"    INDEX 01 61:34:20

CD2

REM GENRE ClassicalREM DATE 1995REM DISCID 5F11D508REM COMMENT "ExactAudioCopy v1.3"PERFORMER "Philharmonia Orchestra (**With the Royal Philharmonic Orchestra), Geoffrey Mitchell Choir, Geoffrey Mitchell (chorus master), David Parry (conductor) / (Sopranos) Claire Daniels, Lynne Davies, Nuccia Focile, Eiddwen Harrhy, Marilyn Hill Smith, Yvonne Kenny, Linda Kitchen, Susan McCulloch, Bronwen Mills, Jennifer Rhys-Davies (Mezzo sopranos) Theresa Goble, Della Jones, Fiona Kimm, Anne Mason, Diana Montague, Patricia Spence, Penelope Walker (Tenors) Bruce Ford, Brendan McBride, Paul Nilon, Ivan Sharpe, Ian Thompson (Baritones) David Ashman, Karl Morgan Daymond, Geoffrey Dolton, Ian Platt, John Rawnsley, Russell Smythe, Jonathan Viera (Basses) Clive Bayley, Mark Glanville, Alastair Miles, Ashley Thorburn"TITLE "Various Composers - A Hundred Years of Italian Opera 1820-1830 CD2"REM COMPOSER "Various Composers"FILE "David Parry - Various Composers - A Hundred Years of Italian Opera 1820-1830 CD2.flac" WAVE  TRACK 01 AUDIO    TITLE "GIOACCHINO ROSSINI. UGO RE D'ITALIA. 'Lost' opera intended for the King's Theatre, London, 1825. Aria: Vieni, o cara"    PERFORMER "Philharmonia Orchestra, David Parry (conductor) & Bruce Ford (Ugo), Paul Nilon (Lotario)"    REM COMPOSER "Gioacchino Rossini (1792-1868)"    INDEX 01 00:00:00  TRACK 02 AUDIO    TITLE "SAVERIO MERCADANTE. NITOCRI. Dramma in two acts. Libretto by Apostolo Zeno. First performance 26 December 1824. Teatro Regio, Turin. Cavatina: Se m'abbandoni"    PERFORMER "Philharmonia Orchestra, David Parry (conductor) & Della Jones (Mirteo)"    REM COMPOSER "Saverio Mercadante (1795-1870)"    INDEX 01 04:08:00  TRACK 03 AUDIO    TITLE "VINCENZO BELLINI. ADELSON E SALVINI. Dramma semiserio in three acts. Libretto by Andrea Leone Tottola. First performance February 1825. Teatrino del Conservatorio di S. Sebastiano, Naples. Romanza: Dopo l'oscuro nembo"    PERFORMER "Philharmonia Orchestra, David Parry (conductor) & Nuccia Focile (Nelly)"    REM COMPOSER "Vinzenzo Bellini (1801-1835)"    INDEX 01 12:14:00  TRACK 04 AUDIO    TITLE "GIUSEPPE BALDUCCI. TAZIA. Dramma in one act. Libretto by Luigi Ricciuti. First and only performance 15 January 1826. Teatro S. Carlo, Naples. Duet: Non più veggo in quel tristo sembiante"    PERFORMER "Philharmonia Orchestra, David Parry (conductor) & Jennifer Rhys-Davies (Ersilia), Paul Nilon (Numa)"    REM COMPOSER "Giuseppe Balducci (1796-1845)"    INDEX 01 18:37:00  TRACK 05 AUDIO    TITLE "SAVERIO MERCADANTE. LA TESTA DI BRONZO ossia LA CAPANNA SOLITARIA. Melodramma eroi-comico in two acts. Libreto by Felice Romani. First performance 16 April or 3 December 1827. Teatro della villa del Barone di Quintella at Laranjeiras, near Lisbon. Overture"    PERFORMER "Philharmonia Orchestra, David Parry (conductor)"    REM COMPOSER "Saverio Mercadante (1795-1870)"    INDEX 01 27:53:00  TRACK 06 AUDIO    TITLE "LUIGI RICCI. IL DIAVOLO CONDANNATO NEL MONDO A PRENDER MOGLIE. Azione comica-spettacolosa in three acts. Libretto by Andrea Leone Tottola. First performance 30 January 1827. Teatro Nuovo, Naples. Quartet: Io ti ho dato il sangue mio"    PERFORMER "Philharmonia Orchestra, David Parry (conductor) & Paul Nilon (Astarotte), John Rawnsley (Pulcinella), Ashley Thorburn (Olombrone), Jonathan Viera (Sanguisuga)"    REM COMPOSER "Luigi Ricci (1805-1859)"    INDEX 01 37:08:00  TRACK 07 AUDIO    TITLE "SAVERIO MERCADANTE. GABRIELLA DI VERGY. Dramma tragico in two acts. Libretto by Andrea Leone Tottola, modified by A. Profumo. First performance 8 August 1828. Teatro S. Carlos, Lisbon. Sestetto: Ah che dici!... Quant'immagini crudeli"    PERFORMER "Philharmonia Orchestra, David Parry (conductor) & Jennifer Rhys-Davies (Gabriella), Paul Nilon (Raoul), Jonathan Viera (Fayel), Claire Daniels (Almeide), Karl Morgan Daymond (Filippo Augusto), Ivan Sharpe (Armando)"    REM COMPOSER "Saverio Mercadante (1795-1870)"    INDEX 01 47:31:30  TRACK 08 AUDIO    TITLE "GAETANO DONIZETTI. IL PARIA. Melo-dramma in two acts. Libretto by Domenico Gilardoni. First performance 12 January 1829. Teatro S. Carlo, Naples. Aria: Qui pel figlio una madre gridava"    PERFORMER "Philharmonia Orchestra, Geoffrey Mitchell Choir (Priests), Geoffrey Mitchell (chorus master), David Parry (conductor) & John Rawnsley (Zarete)"    REM COMPOSER "Gaetano Donizetti (1797-1848)"    INDEX 01 58:51:35

CD3

REM GENRE ClassicalREM DATE 1995REM DISCID 4F123506REM COMMENT "ExactAudioCopy v1.3"PERFORMER "Philharmonia Orchestra (**With the Royal Philharmonic Orchestra), Geoffrey Mitchell Choir, Geoffrey Mitchell (chorus master), David Parry (conductor) / (Sopranos) Claire Daniels, Lynne Davies, Nuccia Focile, Eiddwen Harrhy, Marilyn Hill Smith, Yvonne Kenny, Linda Kitchen, Susan McCulloch, Bronwen Mills, Jennifer Rhys-Davies (Mezzo sopranos) Theresa Goble, Della Jones, Fiona Kimm, Anne Mason, Diana Montague, Patricia Spence, Penelope Walker (Tenors) Bruce Ford, Brendan McBride, Paul Nilon, Ivan Sharpe, Ian Thompson (Baritones) David Ashman, Karl Morgan Daymond, Geoffrey Dolton, Ian Platt, John Rawnsley, Russell Smythe, Jonathan Viera (Basses) Clive Bayley, Mark Glanville, Alastair Miles, Ashley Thorburn"TITLE "Various Composers - A Hundred Years of Italian Opera 1820-1830 CD3"REM COMPOSER "Various Composers"FILE "David Parry - Various Composers - A Hundred Years of Italian Opera 1820-1830 CD3.flac" WAVE  TRACK 01 AUDIO    TITLE "CARLO COCCIA. ROSMONDA. Melodramma serio in two acts. Libretto by Felice Romani. First performance 27 February 1829. Teatro la Fenice, Venice. Romanza: Perchè non ho del vento?"    PERFORMER "Philharmonia Orchestra, David Parry (conductor) & Yvonne Kenny (Rosmonda), Diana Montague (Arturo)"    REM COMPOSER "Carlo Coccia (1782-1873)"    INDEX 01 00:00:00  TRACK 02 AUDIO    TITLE "VINCENZO BELLINI. ZAIRA. Tragedia lirica in two acts. Libretto by Felice Romani. First performance 16 May 1829. Teatro Ducale, Parma. Cavatina: Amo ed amata io sono"    PERFORMER "Philharmonia Orchestra, Geoffrey Mitchell Choir (slaves, odalisques, eunuchs), Geoffrey Mitchell (chorus master), David Parry (conductor) & Yvonne Kenny (Zaira), Lynne Davies (Fatima)"    REM COMPOSER "Vinzenzo Bellini (1801-1835)"    INDEX 01 16:02:00  TRACK 03 AUDIO    TITLE "CARLO CONTI. GIOVANNA SHORE. Melodramma serio in three acts. Libretto by Felice Romani. First performance 31 October 1829. Teatro alla Scala, Milan. Romanza, 'A che di fiori e lagrime'"    PERFORMER "Philharmonia Orchestra, David Parry (conductor) & Marilyn Hill Smith (Giovanna), Alastair Miles (Shore), Clive Bayley (Belmour)"    REM COMPOSER "Carlo Conti (1796-1868)"    INDEX 01 23:06:72  TRACK 04 AUDIO    TITLE "GIOVANNI PACINI. IL CONDESTABILE DI CHESTER, ovvero I FIDANZATI. Melo-dramma romantico in three parts. Libretto by Domenico Gilardoni. First performance 23 November 1829. Teatro S. Carlo, Naples. Duettino: Ah sì ch'io t'amo... Là sotto il salice"    PERFORMER "Philharmonia Orchestra, Geoffrey Mitchell Choir (Evelina's followers), Geoffrey Mitchell (chorus master), David Parry (conductor) & Yvonne Kenny (Evelina), Susan McCullough (Damiano)"    REM COMPOSER "Giovanni Pacini (1796-1867)"    INDEX 01 28:12:50  TRACK 05 AUDIO    TITLE "MICHELE CARAFA. LE NOZZE DI LAMMERMOOR. Dramma in two acts. Libreto by Luigi Balocchi. First performance 12 December 1829. Théâtre-Italien, Paris. Quintetto: D'un orribile tempesta"    PERFORMER "Philharmonia Orchestra, David Parry (conductor) & Ashley Thorburn (Il Cancelliere [Lord Ashton]), Susan McCulloch (Lucia), Ian Thompson (Edgardo), Jonathan Viera (Caleb), Theresa Goble (Misia)"    REM COMPOSER "Michele Carafa (1787-1872)"    INDEX 01 40:23:57  TRACK 06 AUDIO    TITLE "CARLO COCCIA. MARIA STUART, REGINA DI SCOZIA. Opera seria in three acts. Libretto by Signor Giannone. First performance 7 June 1827. King's Theatre, London. Finale of Act I: Vieni, o Grande!... Ecco l'indegna"    PERFORMER "Philharmonia Orchestra, Geoffrey Mitchell Choir (Ladies, Knights, Huntsmen), Geoffrey Mitchell (chorus master), David Parry (conductor) & Bronwen Mills (Maria), Jennifer Rhys-Davies (Elisabetta), Bruce Ford (Leicester), Alastair Miles (Burleigh), Paul Nilon (Mortimero), Clive Bayley (Melvil), Mark Glanville (Paoletto), Ivan Sharpe (Seymour), Anne Mason (Anna)"    REM COMPOSER "Carlo Coccia (1782-1873)"    INDEX 01 51:39:52
[doutdess.net].t262103.torrent
Torrent: Registered [ 2018-04-18 18:40 ] · F287126FFF70FBC51DEA4622CEBE7A1D527361D9

22 KB

Status: checked
Completed: 0 times
Size: 967 MB
(Classical opera) A Hundred Years of Italian Opera (1820-1830) [3CD\'s] (Yvonne Kenny, Della Jones, Diana Montague, Bruce Ford, Alastair Miles / Philharmonia Orchestra, Geoffrey Mitchell Choir, David Parry) - 1995, FLAC (image+.cue) lossless скачать торрент бесплатно и без регистрации

[Profile] [PM]
Forum Topic Author Size
Вокальная музыка в lossless ((classical/operetta)) Schönes bleibt. Unvergessene Tenöre bei WDR 4 / Прекрасное остаётся - 2000, FLAC (image+.cue) lossless Vi$itReal 401 MB
Вокальная и хоровая музыка lossy (Classical (Lieder)) (Lieder) Norman Bailey - Songs of Hugo Wolf - 1979, MP3 (tracks) 320 kbps RelizMAN 120 MB
Концерт для инструмента с оркестром в lossless (Classical ) Top 20 CDs for your Classical Music Collection - ClassicalCDguide.com: 02 - W. A. Mozart - Great Piano Concertos N 20 - 25 (1997) APE (tracks), 450-566 kb/s RelizMAN 582 MB
Концерт для инструмента с оркестром в lossless (Classical ) Top 20 CDs for your Classical Music Collection - ClassicalCDguide.com: 04 - Bach: Die Brandenburgische Konzerte - Orchestra of the Age of Enlightenment 2 CD (1999) APE (tracks), 610-769... RelizMAN 462 MB
Оркестровая музыка в lossless (Classical ) Top 20 CDs for your Classical Music Collection - ClassicalCDguide.com: 06 - Igor Stravinsky; Petroushka, Le Sacre du Printemps - Columbia Symphony Orchestra (Sony 1990) APE (tracks),... Vi$itReal 274 MB
Камерная инструментальная музыка в lossless (Classical ) Top 20 CDs for your Classical Music Collection - ClassicalCDguide.com: 07 - Franz Schubert - \'Trout\' Quintet & \'Death and the Maiden\' - Amadeus Quartet (DG ... Vi$itReal 343 MB
Камерная инструментальная музыка в lossless (Classical ) Top 20 CDs for your Classical Music Collection - ClassicalCDguide.com: 10 - Georges Bizet; Carmen - Sir Thomas Beecham, de Los Angeles, Gedda, Michau, Blanc (EMI 2000) аре (по-треково),... Vi$itReal 745 MB
Камерная инструментальная музыка в lossless (Classical ) Top 20 CDs for your Classical Music Collection - ClassicalCDguide.com: 12 - Франц Шуберт - Симфония No. 3, Unfinished 39; - Carlos Kleiber и Wiener Philharmoniker (DG 1... Vi$itReal 186 MB
Display posts:    

Current time is: 25-Aug 23:54

All times are UTC + 3



You cannot post new topics in this forum
You cannot reply to topics in this forum
You cannot edit your posts in this forum
You cannot delete your posts in this forum
You cannot vote in polls in this forum
You cannot attach files in this forum
You can download files in this forum