Reply to topic
DL-List and Torrent activity [Update пиров]
Size:  411 MB   |    Registered:  11 months 27 days   |    Completed:  0 times
Seeders:  399  [  0 KB/s  ]   Leechers:  28  [  0 KB/s  ]  
 
     
 
 
Author Message

Vi$itReal ®

12

Post 27-Aug-2018 12:00

[Quote]

Владимир Высоцкий - Спасите Наши Души
Жанр: Шансон
Носитель: LP
Год выпуска: 1988
Лейбл: Melodya (TSG)
Страна-производитель: USSR
Аудио кодек: FLAC
Тип рипа: tracks+.cue
Формат записи: 32/192
Формат раздачи: 24/96
Продолжительность: 39:23
Треклист:
01. Песня О Новом Времени
02. Аисты
03. Деревянные Костюмы
04. Про Несчастных Лесных Жителей
05. Песенка Про Джинна
06. Песня О Вещем Олеге
07. Песня О Вещей Кассандре
08. Песня Про Дикого Вепря
09. Лукоморья Больше Нет
10. Корабли
11. Спасите Наши Души
12. О Хоккеистах
13. Дом Хрустальный
Источник оцифровки: автором раздачи
Код класса состояния винила: NM
Устройство воспроизведения: Электроника ЭП 017С
Головка звукоснимателя: ГЗМ-053
Предварительный усилитель: Бриг-001
АЦП: VIA HD audio device
Программа-оцифровщик: Izotope RX 6 Advanced
Обработка: Izotope RX 6 Advanced

Спектр+АЧХ+Уровень записи

DR=13

foobar2000 1.1.10 / Dynamic Range Meter 1.1.1
log date: 2018-08-27 11:30:03
--------------------------------------------------------------------------------
Analyzed: Владимир Высоцкий / Спасите Наши Души
--------------------------------------------------------------------------------
DR Peak RMS Duration Track
--------------------------------------------------------------------------------
DR14 -3.99 dB -20.60 dB 3:06 ?-Песня О Новом Времени
DR13 -4.08 dB -19.58 dB 3:38 ?-Аисты
DR13 -4.18 dB -19.78 dB 2:13 ?-Деревянные Костюмы
DR14 -3.87 dB -20.10 dB 3:30 ?-Про Несчастных Лесных Жителей
DR14 -3.79 dB -20.59 dB 3:09 ?-Песенка Про Джинна
DR14 -3.95 dB -20.74 dB 2:49 ?-Песня О Вещем Олеге
DR13 -3.72 dB -19.73 dB 2:29 ?-Песня О Вещей Кассандре
DR14 -4.42 dB -20.62 dB 2:36 ?-Песня Про Дикого Вепря
DR14 -4.88 dB -20.98 dB 4:19 ?-Лукоморья Больше Нет
DR13 -4.10 dB -20.88 dB 2:47 ?-Корабли
DR14 -4.26 dB -20.23 dB 4:19 ?-Спасите Наши Души
DR14 -4.61 dB -21.04 dB 2:34 ?-О Хоккеистах
DR13 -4.59 dB -20.41 dB 1:53 ?-Дом Хрустальный
--------------------------------------------------------------------------------
Number of tracks: 13
Official DR value: DR13
Samplerate: 96000 Hz
Channels: 1
Bits per sample: 24
Bitrate: 1416 kbps
Codec: FLAC
================================================================================
https://www.discogs.com/Владимир-Высоцкий-Спасите-Наши-Души/release/2107551
[doutdess.net].t286550.torrent
Torrent: Registered [ 2018-08-27 12:00 ] · C7663D9BE8A9552979DA32CEA588318DE744DD87

18 KB

Status: checked
Completed: 0 times
Size: 411 MB
(Шансон) [LP] [24/96] Владимир Высоцкий - Спасите Наши Души - 1988, FLAC (tracks+.cue) скачать торрент бесплатно и без регистрации

[Profile] [PM]
Display posts:    

Current time is: 23-Aug 18:45

All times are UTC + 3



You cannot post new topics in this forum
You cannot reply to topics in this forum
You cannot edit your posts in this forum
You cannot delete your posts in this forum
You cannot vote in polls in this forum
You cannot attach files in this forum
You can download files in this forum