Reply to topic
DL-List and Torrent activity [Update пиров]
Size:  627 MB   |    Registered:  6 months 3 days   |    Completed:  1 time
Seeders:  215  [  0 KB/s  ]   Leechers:  33  [  0 KB/s  ]  
 
     
 
 
Author Message

RelizMAN ®

11

Post 19-Feb-2019 23:30

[Quote]

Laraaji / Celestial Music 1978-2011
Жанр: Ambient, New Age
Носитель: CD
Страна-производитель диска (релиза): UK
Год издания: 2013
Издатель (лейбл): All Saints
Номер по каталогу: WAST036CD
Аудиокодек: FLAC (*.flac)
Тип рипа: tracks+.cue
Битрейт аудио: lossless
Продолжительность: 00:00:00
Источник: локальная сеть
Наличие сканов в содержимом раздачи: да
Треклист:

CD1 Cosmic Tape Experiments (00:53:45)

1 Lotus Collage (1979) 8:46
2 Unicorns In Paradise (1981) 11:14
3 I Am Ocean (1981) 2:18
4 Rhythm 'n' Bliss (1982) 1:24
5 Vision Song Suite (1984) 6:19
6 Sun Zither (1984) 9:45
7 I Am Sky (1985) 5:59
8 Sol (1987) 3:50
9 Eternity Or Bust (1987) 4:03

Лог создания рипа

Exact Audio Copy V1.0 beta 3 from 29. August 2011
EAC extraction logfile from 26. February 2015, 15:29
Laraaji / Celestial Music 1978-2011
Used drive : HL-DT-STDVDRAM SP60NB50 Adapter: 2 ID: 1
Read mode : SecureUtilize accurate stream : YesDefeat audio cache : YesMake use of C2 pointers : No
Read offset correction : 6Overread into Lead-In and Lead-Out : NoFill up missing offset samples with silence : YesDelete leading and trailing silent blocks : NoNull samples used in CRC calculations : YesUsed interface : Native Win32 interface for Win NT & 2000Gap handling : Appended to previous track
Used output format : User Defined EncoderSelected bitrate : 1024 kBit/sQuality : HighAdd ID3 tag : NoCommand line compressor : C:\Program Files (x86)\Exact Audio Copy\Flac\flac.exeAdditional command line options : -8 -V -T "ARTIST=%artist%" -T "TITLE=%title%" -T "ALBUM=%albumtitle%" -T "DATE=%year%" -T "TRACKNUMBER=%tracknr%" -T "GENRE=%genre%" -T "PERFORMER=%albuminterpret%" -T "COMPOSER=%composer%" %haslyrics%--tag-from-file=LYRICS="%lyricsfile%"%haslyrics% -T "ALBUMARTIST=%albumartist%" -T "DISCNUMBER=%cdnumber%" -T "TOTALDISCS=%totalcds%" -T "TOTALTRACKS=%numtracks%" -T "COMMENT=%comment%" %source% -o %dest%
TOC of the extracted CD
Track | Start | Length | Start sector | End sector --------------------------------------------------------- 1 | 0:00.00 | 8:46.32 | 0 | 39481 2 | 8:46.32 | 11:14.56 | 39482 | 90087 3 | 20:01.13 | 2:18.52 | 90088 | 100489 4 | 22:19.65 | 1:24.71 | 100490 | 106860 5 | 23:44.61 | 6:19.55 | 106861 | 135340 6 | 30:04.41 | 9:48.65 | 135341 | 179505 7 | 39:53.31 | 6:02.54 | 179506 | 206709 8 | 45:56.10 | 3:50.23 | 206710 | 223982 9 | 49:46.33 | 4:04.65 | 223983 | 242347
Track 1
Filename C:\FLAC Rips\Laraaji - Celestial Music 1978-2011 (2013) [FLAC] {WAST036}\Disc 1 - Cosmic Tape Experiments\01 - Lotus Collage (1979).wav
Pre-gap length 0:00:02.00
Peak level 84.2 % Extraction speed 1.2 X Track quality 100.0 % Test CRC BDC7F9E9 Copy CRC BDC7F9E9 Accurately ripped (confidence 4) [B16BDE3B] (AR v2) Copy OK
Track 2
Filename C:\FLAC Rips\Laraaji - Celestial Music 1978-2011 (2013) [FLAC] {WAST036}\Disc 1 - Cosmic Tape Experiments\02 - Unicorns In Paradise (1981).wav
Pre-gap length 0:00:01.08
Peak level 61.5 % Extraction speed 1.6 X Track quality 100.0 % Test CRC E7CED75C Copy CRC E7CED75C Accurately ripped (confidence 4) [5C1FF85F] (AR v2) Copy OK
Track 3
Filename C:\FLAC Rips\Laraaji - Celestial Music 1978-2011 (2013) [FLAC] {WAST036}\Disc 1 - Cosmic Tape Experiments\03 - I Am Ocean (1981).wav
Pre-gap length 0:00:02.34
Peak level 66.0 % Extraction speed 1.5 X Track quality 100.0 % Test CRC 4B86C0B2 Copy CRC 4B86C0B2 Accurately ripped (confidence 4) [5FDEA2EA] (AR v2) Copy OK
Track 4
Filename C:\FLAC Rips\Laraaji - Celestial Music 1978-2011 (2013) [FLAC] {WAST036}\Disc 1 - Cosmic Tape Experiments\04 - Rhythm 'n' Bliss (1982).wav
Pre-gap length 0:00:02.12
Peak level 31.2 % Extraction speed 1.3 X Track quality 100.0 % Test CRC 3399CFF9 Copy CRC 3399CFF9 Accurately ripped (confidence 4) [98A1B266] (AR v2) Copy OK
Track 5
Filename C:\FLAC Rips\Laraaji - Celestial Music 1978-2011 (2013) [FLAC] {WAST036}\Disc 1 - Cosmic Tape Experiments\05 - Vision Song Suite (1984).wav
Pre-gap length 0:00:01.04
Peak level 81.7 % Extraction speed 1.8 X Track quality 100.0 % Test CRC 55B5ED7D Copy CRC 55B5ED7D Accurately ripped (confidence 4) [5807C67B] (AR v2) Copy OK
Track 6
Filename C:\FLAC Rips\Laraaji - Celestial Music 1978-2011 (2013) [FLAC] {WAST036}\Disc 1 - Cosmic Tape Experiments\06 - Sun Zither (1984).wav
Pre-gap length 0:00:02.37
Peak level 44.5 % Extraction speed 2.1 X Track quality 100.0 % Test CRC 193FD8F8 Copy CRC 193FD8F8 Accurately ripped (confidence 4) [D2046EC2] (AR v2) Copy OK
Track 7
Filename C:\FLAC Rips\Laraaji - Celestial Music 1978-2011 (2013) [FLAC] {WAST036}\Disc 1 - Cosmic Tape Experiments\07 - I Am Sky (1985).wav
Pre-gap length 0:00:07.37
Peak level 55.3 % Extraction speed 2.1 X Track quality 100.0 % Test CRC 115A0FFC Copy CRC 115A0FFC Accurately ripped (confidence 4) [0A91F23B] (AR v2) Copy OK
Track 8
Filename C:\FLAC Rips\Laraaji - Celestial Music 1978-2011 (2013) [FLAC] {WAST036}\Disc 1 - Cosmic Tape Experiments\08 - Sol (1987).wav
Pre-gap length 0:00:01.66
Peak level 84.3 % Extraction speed 2.1 X Track quality 100.0 % Test CRC 0EB4D2BF Copy CRC 0EB4D2BF Accurately ripped (confidence 4) [AF5EC57D] (AR v2) Copy OK
Track 9
Filename C:\FLAC Rips\Laraaji - Celestial Music 1978-2011 (2013) [FLAC] {WAST036}\Disc 1 - Cosmic Tape Experiments\09 - Eternity Or Bust (1987).wav
Pre-gap length 0:00:01.34
Peak level 61.1 % Extraction speed 2.2 X Track quality 100.0 % Test CRC E6A8D987 Copy CRC E6A8D987 Accurately ripped (confidence 4) [3C866023] (AR v2) Copy OK
All tracks accurately ripped
No errors occurred
End of status report
---- CUETools DB Plugin V2.1.3
[CTDB TOCID: eHfRQlsxnQg6ktKmJBW0wrHjp2c-] found, Submit result: eHfRQlsxnQg6ktKmJBW0wrHjp2c- has been confirmed[9175480e] (4/4) Accurately ripped
==== Log checksum EEFAADA3A95D42BCDE00D75CFE7FDCF6B5AA27135421DB0CE51C7B2D06A09E18 ====

Содержание индексной карты (.CUE)

REM GENRE NewageREM DATE 2013REM DISCID 800C9F09REM COMMENT "ExactAudioCopy v1.0b3"PERFORMER "Laraaji"TITLE "Celestial Music 1978-2011"FILE "01 - Lotus Collage (1979).wav" WAVE  TRACK 01 AUDIO    TITLE "Lotus Collage (1979)"    PERFORMER "Laraaji"    ISRC GBBPW7900001    INDEX 01 00:00:00  TRACK 02 AUDIO    TITLE "Unicorns In Paradise (1981)"    PERFORMER "Laraaji"    ISRC GBBPW8100001    INDEX 00 08:45:26FILE "02 - Unicorns In Paradise (1981).wav" WAVE    INDEX 01 00:00:00  TRACK 03 AUDIO    TITLE "I Am Ocean (1981)"    PERFORMER "Laraaji"    ISRC GBBPW8100002    INDEX 00 11:12:30FILE "03 - I Am Ocean (1981).wav" WAVE    INDEX 01 00:00:00  TRACK 04 AUDIO    TITLE "Rhythm 'n' Bliss (1982)"    PERFORMER "Laraaji"    ISRC GBBPW8200001    INDEX 00 02:16:43FILE "04 - Rhythm 'n' Bliss (1982).wav" WAVE    INDEX 01 00:00:00  TRACK 05 AUDIO    TITLE "Vision Song Suite (1984)"    PERFORMER "Laraaji"    ISRC GBBPW8400001    INDEX 00 01:23:68FILE "05 - Vision Song Suite (1984).wav" WAVE    INDEX 01 00:00:00  TRACK 06 AUDIO    TITLE "Sun Zither (1984)"    PERFORMER "Laraaji"    ISRC GBBPW8400002    INDEX 00 06:17:27FILE "06 - Sun Zither (1984).wav" WAVE    INDEX 01 00:00:00  TRACK 07 AUDIO    TITLE "I Am Sky (1985)"    PERFORMER "Laraaji"    ISRC GBBPW8500001    INDEX 00 09:41:37FILE "07 - I Am Sky (1985).wav" WAVE    INDEX 01 00:00:00  TRACK 08 AUDIO    TITLE "Sol (1987)"    PERFORMER "Laraaji"    ISRC GBBPW8700003    INDEX 00 06:01:04FILE "08 - Sol (1987).wav" WAVE    INDEX 01 00:00:00  TRACK 09 AUDIO    TITLE "Eternity Or Bust (1987)"    PERFORMER "Laraaji"    ISRC GBBPW8700004    INDEX 00 03:48:72FILE "09 - Eternity Or Bust (1987).wav" WAVE    INDEX 01 00:00:00

CD2 Music Of The Spheres (00:48:26)

1 All Pervading - Excerpt (1978) 4:58
2 The Dance No. 3 (1980) 3:17
3 Quiet Space Pt. 2 (1986) 6:29
4 Kalimba (1988) 2:49
5 Space Choir (1992) 5:05
6 Laraajingle (1995) 4:16
7 Airbass (1998) 6:49
8 Moon Shadows (2001) 4:39
9 Staccato (2008) 5:13
10 As Light (2008) 5:23
11 Astral Jam (2011) 17:18

Лог создания рипа

Exact Audio Copy V1.0 beta 3 from 29. August 2011
EAC extraction logfile from 26. February 2015, 16:45
Laraaji / Celestial Music 1978-2011
Used drive : HL-DT-STDVDRAM SP60NB50 Adapter: 2 ID: 1
Read mode : SecureUtilize accurate stream : YesDefeat audio cache : YesMake use of C2 pointers : No
Read offset correction : 6Overread into Lead-In and Lead-Out : NoFill up missing offset samples with silence : YesDelete leading and trailing silent blocks : NoNull samples used in CRC calculations : YesUsed interface : Native Win32 interface for Win NT & 2000Gap handling : Appended to previous track
Used output format : User Defined EncoderSelected bitrate : 1024 kBit/sQuality : HighAdd ID3 tag : NoCommand line compressor : C:\Program Files (x86)\Exact Audio Copy\Flac\flac.exeAdditional command line options : -8 -V -T "ARTIST=%artist%" -T "TITLE=%title%" -T "ALBUM=%albumtitle%" -T "DATE=%year%" -T "TRACKNUMBER=%tracknr%" -T "GENRE=%genre%" -T "PERFORMER=%albuminterpret%" -T "COMPOSER=%composer%" %haslyrics%--tag-from-file=LYRICS="%lyricsfile%"%haslyrics% -T "ALBUMARTIST=%albumartist%" -T "DISCNUMBER=%cdnumber%" -T "TOTALDISCS=%totalcds%" -T "TOTALTRACKS=%numtracks%" -T "COMMENT=%comment%" %source% -o %dest%
TOC of the extracted CD
Track | Start | Length | Start sector | End sector --------------------------------------------------------- 1 | 0:00.00 | 4:58.48 | 0 | 22397 2 | 4:58.48 | 3:17.33 | 22398 | 37205 3 | 8:16.06 | 6:29.08 | 37206 | 66388 4 | 14:45.14 | 2:49.48 | 66389 | 79111 5 | 17:34.62 | 5:05.04 | 79112 | 101990 6 | 22:39.66 | 4:16.00 | 101991 | 121190 7 | 26:55.66 | 6:49.66 | 121191 | 151931 8 | 33:45.57 | 4:39.04 | 151932 | 172860 9 | 38:24.61 | 5:13.49 | 172861 | 196384 10 | 43:38.35 | 5:23.47 | 196385 | 220656 11 | 49:02.07 | 17:18.03 | 220657 | 298509
Track 1
Filename C:\FLAC Rips\Laraaji - Celestial Music 1978-2011 (2013) [FLAC] {WAST036}\Disc 2 - Music Of The Spheres\01 - All Pervading - Excerpt (1978).wav
Pre-gap length 0:00:02.00
Peak level 97.4 % Extraction speed 1.1 X Track quality 100.0 % Test CRC 19026068 Copy CRC 19026068 Accurately ripped (confidence 4) [3428CB18] (AR v2) Copy OK
Track 2
Filename C:\FLAC Rips\Laraaji - Celestial Music 1978-2011 (2013) [FLAC] {WAST036}\Disc 2 - Music Of The Spheres\02 - The Dance No. 3 (1980).wav
Pre-gap length 0:00:02.73
Peak level 54.8 % Extraction speed 1.2 X Track quality 100.0 % Test CRC 209E5BE3 Copy CRC 209E5BE3 Accurately ripped (confidence 4) [7EA16F6F] (AR v2) Copy OK
Track 3
Filename C:\FLAC Rips\Laraaji - Celestial Music 1978-2011 (2013) [FLAC] {WAST036}\Disc 2 - Music Of The Spheres\03 - Quiet Space Pt. 2 (1986).wav
Pre-gap length 0:00:02.76
Peak level 96.7 % Extraction speed 1.3 X Track quality 99.9 % Test CRC C9ED2A17 Copy CRC C9ED2A17 Accurately ripped (confidence 4) [061EE6C5] (AR v2) Copy OK
Track 4
Filename C:\FLAC Rips\Laraaji - Celestial Music 1978-2011 (2013) [FLAC] {WAST036}\Disc 2 - Music Of The Spheres\04 - Kalimba (1988).wav
Pre-gap length 0:00:02.76
Peak level 100.0 % Extraction speed 1.2 X Track quality 99.9 % Test CRC 47C55096 Copy CRC 47C55096 Accurately ripped (confidence 4) [CD61FE21] (AR v2) Copy OK
Track 5
Filename C:\FLAC Rips\Laraaji - Celestial Music 1978-2011 (2013) [FLAC] {WAST036}\Disc 2 - Music Of The Spheres\05 - Space Choir (1992).wav
Pre-gap length 0:00:02.76
Peak level 59.4 % Extraction speed 1.6 X Track quality 100.0 % Test CRC D90244CA Copy CRC D90244CA Accurately ripped (confidence 4) [5F018DD7] (AR v2) Copy OK
Track 6
Filename C:\FLAC Rips\Laraaji - Celestial Music 1978-2011 (2013) [FLAC] {WAST036}\Disc 2 - Music Of The Spheres\06 - Laraajingle (1995).wav
Pre-gap length 0:00:02.76
Peak level 97.1 % Extraction speed 1.7 X Track quality 100.0 % Test CRC 1F1C9B4D Copy CRC 1F1C9B4D Accurately ripped (confidence 4) [08E4F6C8] (AR v2) Copy OK
Track 7
Filename C:\FLAC Rips\Laraaji - Celestial Music 1978-2011 (2013) [FLAC] {WAST036}\Disc 2 - Music Of The Spheres\07 - Airbass (1998).wav
Pre-gap length 0:00:02.76
Peak level 85.1 % Extraction speed 1.9 X Track quality 100.0 % Test CRC 13550C31 Copy CRC 13550C31 Accurately ripped (confidence 4) [CECE635C] (AR v2) Copy OK
Track 8
Filename C:\FLAC Rips\Laraaji - Celestial Music 1978-2011 (2013) [FLAC] {WAST036}\Disc 2 - Music Of The Spheres\08 - Moon Shadows (2001).wav
Pre-gap length 0:00:02.76
Peak level 96.0 % Extraction speed 2.0 X Track quality 100.0 % Test CRC 1563CBCF Copy CRC 1563CBCF Accurately ripped (confidence 4) [909F93DA] (AR v2) Copy OK
Track 9
Filename C:\FLAC Rips\Laraaji - Celestial Music 1978-2011 (2013) [FLAC] {WAST036}\Disc 2 - Music Of The Spheres\09 - Staccato (2008).wav
Pre-gap length 0:00:02.70
Peak level 98.5 % Extraction speed 2.0 X Track quality 100.0 % Test CRC DA73C911 Copy CRC DA73C911 Accurately ripped (confidence 4) [6532A279] (AR v2) Copy OK
Track 10
Filename C:\FLAC Rips\Laraaji - Celestial Music 1978-2011 (2013) [FLAC] {WAST036}\Disc 2 - Music Of The Spheres\10 - As Light (2008).wav
Pre-gap length 0:00:02.76
Peak level 94.4 % Extraction speed 2.1 X Track quality 100.0 % Test CRC FF56BC11 Copy CRC FF56BC11 Accurately ripped (confidence 4) [330E82E4] (AR v2) Copy OK
Track 11
Filename C:\FLAC Rips\Laraaji - Celestial Music 1978-2011 (2013) [FLAC] {WAST036}\Disc 2 - Music Of The Spheres\11 - Astral Jam (2011).wav
Pre-gap length 0:00:02.74
Peak level 87.1 % Extraction speed 2.5 X Track quality 100.0 % Test CRC B25DD9CB Copy CRC B25DD9CB Accurately ripped (confidence 4) [C7370BE1] (AR v2) Copy OK
All tracks accurately ripped
No errors occurred
End of status report
---- CUETools DB Plugin V2.1.3
[CTDB TOCID: FPrmYl2Gl2vkEP60R2VW2288O30-] found, Submit result: FPrmYl2Gl2vkEP60R2VW2288O30- has been confirmed[1b3af604] (1/4) No match[b6055851] (3/4) Accurately ripped
==== Log checksum F1AC31BD2E09A1CB58F3546CB067D9E8526E257DE9017E4FA43B13FC39A9CB5E ====

Содержание индексной карты (.CUE)

REM GENRE NewageREM DATE 2013REM DISCID 8A0F8C0BREM COMMENT "ExactAudioCopy v1.0b3"PERFORMER "Laraaji"TITLE "Celestial Music 1978-2011"FILE "01 - All Pervading - Excerpt (1978).wav" WAVE  TRACK 01 AUDIO    TITLE "All Pervading - Excerpt (1978)"    PERFORMER "Laraaji"    ISRC GBBPW7800001    INDEX 01 00:00:00  TRACK 02 AUDIO    TITLE "The Dance No. 3 (1980)"    PERFORMER "Laraaji"    ISRC GBBPW8000001    INDEX 00 04:55:68FILE "02 - The Dance No. 3 (1980).wav" WAVE    INDEX 01 00:00:00  TRACK 03 AUDIO    TITLE "Quiet Space Pt. 2 (1986)"    PERFORMER "Laraaji"    ISRC GBBPW8600001    INDEX 00 03:14:51FILE "03 - Quiet Space Pt. 2 (1986).wav" WAVE    INDEX 01 00:00:00  TRACK 04 AUDIO    TITLE "Kalimba (1988)"    PERFORMER "Laraaji"    ISRC USRY20517179    INDEX 00 06:26:26FILE "04 - Kalimba (1988).wav" WAVE    INDEX 01 00:00:00  TRACK 05 AUDIO    TITLE "Space Choir (1992)"    PERFORMER "Laraaji"    ISRC GBBPW9200073    INDEX 00 02:46:66FILE "05 - Space Choir (1992).wav" WAVE    INDEX 01 00:00:00  TRACK 06 AUDIO    TITLE "Laraajingle (1995)"    PERFORMER "Laraaji"    ISRC GBBPW9500225    INDEX 00 05:02:22FILE "06 - Laraajingle (1995).wav" WAVE    INDEX 01 00:00:00  TRACK 07 AUDIO    TITLE "Airbass (1998)"    PERFORMER "Laraaji"    ISRC GBBPW9800115    INDEX 00 04:13:18FILE "07 - Airbass (1998).wav" WAVE    INDEX 01 00:00:00  TRACK 08 AUDIO    TITLE "Moon Shadows (2001)"    PERFORMER "Laraaji"    ISRC GBBPW0100267    INDEX 00 06:47:09FILE "08 - Moon Shadows (2001).wav" WAVE    INDEX 01 00:00:00  TRACK 09 AUDIO    TITLE "Staccato (2008)"    PERFORMER "Laraaji"    ISRC GBBPW0800324    INDEX 00 04:36:26FILE "09 - Staccato (2008).wav" WAVE    INDEX 01 00:00:00  TRACK 10 AUDIO    TITLE "As Light (2008)"    PERFORMER "Laraaji"    ISRC GBBPW0800325    INDEX 00 05:10:67FILE "10 - As Light (2008).wav" WAVE    INDEX 01 00:00:00  TRACK 11 AUDIO    TITLE "Astral Jam (2011)"    PERFORMER "Laraaji"    ISRC US6PQ1100141    INDEX 00 05:20:66FILE "11 - Astral Jam (2011).wav" WAVE    INDEX 01 00:00:00
[doutdess.net].t321202.torrent
Torrent: Registered [ 2019-02-19 23:30 ] · F0B077E67EDF61D2F01DE6F7438E83CA00AC6814

15 KB

Status: checked
Completed: 1 times
Size: 627 MB
(Ambient, New Age) [CD] Laraaji - Celestial Music 1978-2011 (2 CD) - 2013, FLAC (tracks+.cue), lossless скачать торрент бесплатно и без регистрации

[Profile] [PM]
Forum Topic Author Size
NewAge & Meditative lossless (Ambient, Downtempo, New Age) [CD] Deep Forest & Gaudi - Epic Circuits - 2018, FLAC (tracks+.cue), lossless RelizMAN 284 MB
NewAge & Meditative lossless (ambient, experimental, instrumental, post-rock) [WEB] Lowercase Noises - Lowercase Noises - Дискография (Flac) (Web) - 2009-2015, FLAC (tracks), lossless RelizMAN 3.47 GB
NewAge & Meditative lossless (Ambient, Meditative, Binaural) [WEB] K Ambient Sounds - Calming Waters - Sounds for Deep Sleep - 2015, FLAC (tracks), lossless RelizMAN 1.28 GB
Звуки природы (ambient, nature) Berrycow - Шумы Владивостока Ambient sounds of Vladivostok - 2018, MP3, 320 kbps Vi$itReal 225 MB
NewAge & Meditative lossless (Ambient, Neoclassical, Piano) [WEB] Slow Meadow - Slow Meadow - 2015, FLAC (tracks), lossless RelizMAN 623 MB
NewAge & Meditative lossless (Ambient, New Age) [WEB] [24/44.1] Hiroshi Yoshimura - Music for Nine Post Cards (1982) - 2017 Reissue, FLAC (tracks), lossless RelizMAN 438 MB
NewAge & Meditative lossless (Ambient, New Age, Chillout) [WEB] DaKsha - Vayu (Single) - 2012, FLAC (tracks), lossless RelizMAN 26 MB
NewAge & Meditative lossy (Ambient, New Age, Downtempo) Jules Calmer - Deserted Paradise - 2017, MP3, 320 kbps Vi$itReal 95 MB
Display posts:    

Current time is: 23-Aug 18:41

All times are UTC + 3



You cannot post new topics in this forum
You cannot reply to topics in this forum
You cannot edit your posts in this forum
You cannot delete your posts in this forum
You cannot vote in polls in this forum
You cannot attach files in this forum
You can download files in this forum