Reply to topic
DL-List and Torrent activity [Update пиров]
Size:  254 MB   |    Registered:  1 year 4 months   |    Completed:  0 times
Seeders:  90  [  0 KB/s  ]   Leechers:  35  [  0 KB/s  ]  
 
     
 
 
Author Message

RelizMAN ®

11

Post 20-Apr-2018 16:05

[Quote]

The Desert Rose Band / A Dozen Roses - Greatest Hits
Жанр: Country
Носитель: CD
Страна-производитель диска (релиза): US
Год издания: 1991
Издатель (лейбл): Curb Records
Номер по каталогу: CD 1005
Страна исполнителя (группы): US
Аудиокодек: FLAC (*.flac)
Тип рипа: tracks+.cue
Битрейт аудио: lossless
Продолжительность: 00:39:35
Источник (релизер): DC hub
Наличие сканов в содержимом раздачи: нет
Треклист:
1 Love Reunited 2:56
2 One Step Forward 3:22
3 He's Back And I'm Blue 3:05
4 She Don't Love Nobody 2:56
5 Summer Wind 3:26
6 I Still Believe In You 3:55
7 Hello Trouble 2:03
8 Start All Over Again 4:29
9 Story Of Love 2:32
10 Will This Be The Day 3:26
11 Come A Little Closer 3:57
12 Price I Pay 2:58

Лог создания рипа

X Lossless Decoder version 20120226 (139.1)
XLD extraction logfile from 2012-04-03 10:32:37 +0000
The Desert Rose Band / A Dozen Roses - Greatest Hits
Used drive : HL-DT-ST DVDRW GA32N (revision KE06)
Ripper mode : XLD Secure RipperDisable audio cache : OK for the drive with a cache less than 1375KiBMake use of C2 pointers : NORead offset correction : 103Max retry count : 20Gap status : Analyzed, Appended (except HTOA)
TOC of the extracted CD Track | Start | Length | Start sector | End sector --------------------------------------------------------- 1 | 00:00:00 | 02:58:15 | 0 | 13364 2 | 02:58:15 | 03:24:70 | 13365 | 28734 3 | 06:23:10 | 03:07:10 | 28735 | 42769 4 | 09:30:20 | 02:57:50 | 42770 | 56094 5 | 12:27:70 | 03:26:70 | 56095 | 71614 6 | 15:54:65 | 04:12:70 | 71615 | 90584 7 | 20:07:60 | 02:03:60 | 90585 | 99869 8 | 22:11:45 | 04:30:52 | 99870 | 120171 9 | 26:42:22 | 02:32:68 | 120172 | 131639 10 | 29:15:15 | 03:28:37 | 131640 | 147276 11 | 32:43:52 | 04:00:63 | 147277 | 165339 12 | 36:44:40 | 02:58:25 | 165340 | 178714
AccurateRip Summary Disc not found in AccurateRip DB.
All Tracks Album gain : -3.68 dB Peak : 0.985840 Statistics Read error : 0 Jitter error (maybe fixed) : 0 Retry sector count : 0 Damaged sector count : 0
Track 01 Filename : /Volumes/Public-1/Shared Music/Rips for what.cd/The Desert Rose Band - A Dozen Roses - Greatest Hits (1991) [FLAC]/01 Love Reunited.flac Pre-gap length : 00:02:00
Track gain : -3.55 dB Peak : 0.941315 CRC32 hash (test run) : 8C1248FF CRC32 hash : 8C1248FF CRC32 hash (skip zero) : D17CF39E AccurateRip signature : 58BB4B1B ->Track not present in AccurateRip database. Statistics Read error : 0 Jitter error (maybe fixed) : 0 Retry sector count : 0 Damaged sector count : 0
Track 02 Filename : /Volumes/Public-1/Shared Music/Rips for what.cd/The Desert Rose Band - A Dozen Roses - Greatest Hits (1991) [FLAC]/02 One Step Forward.flac Pre-gap length : 00:01:10
Track gain : -3.84 dB Peak : 0.966461 CRC32 hash (test run) : 454DB024 CRC32 hash : 454DB024 CRC32 hash (skip zero) : 9A69F910 AccurateRip signature : FEB14CB0 ->Track not present in AccurateRip database. Statistics Read error : 0 Jitter error (maybe fixed) : 0 Retry sector count : 0 Damaged sector count : 0
Track 03 Filename : /Volumes/Public-1/Shared Music/Rips for what.cd/The Desert Rose Band - A Dozen Roses - Greatest Hits (1991) [FLAC]/03 He's Back And I'm Blue.flac Pre-gap length : 00:01:03
Track gain : -1.43 dB Peak : 0.913574 CRC32 hash (test run) : 52DA2EB1 CRC32 hash : 52DA2EB1 CRC32 hash (skip zero) : C887C40E AccurateRip signature : 957792F6 ->Track not present in AccurateRip database. Statistics Read error : 0 Jitter error (maybe fixed) : 0 Retry sector count : 0 Damaged sector count : 0
Track 04 Filename : /Volumes/Public-1/Shared Music/Rips for what.cd/The Desert Rose Band - A Dozen Roses - Greatest Hits (1991) [FLAC]/04 She Don't Love Nobody.flac Pre-gap length : 00:00:73
Track gain : -2.24 dB Peak : 0.985840 CRC32 hash (test run) : F808F74B CRC32 hash : F808F74B CRC32 hash (skip zero) : EF50A3BB AccurateRip signature : 98D6D068 ->Track not present in AccurateRip database. Statistics Read error : 0 Jitter error (maybe fixed) : 0 Retry sector count : 0 Damaged sector count : 0
Track 05 Filename : /Volumes/Public-1/Shared Music/Rips for what.cd/The Desert Rose Band - A Dozen Roses - Greatest Hits (1991) [FLAC]/05 Summer Wind.flac Pre-gap length : 00:00:60
Track gain : -2.19 dB Peak : 0.944061 CRC32 hash (test run) : 33BE0021 CRC32 hash : 33BE0021 CRC32 hash (skip zero) : 909BF68C AccurateRip signature : 4384482A ->Track not present in AccurateRip database. Statistics Read error : 0 Jitter error (maybe fixed) : 0 Retry sector count : 0 Damaged sector count : 0
Track 06 Filename : /Volumes/Public-1/Shared Music/Rips for what.cd/The Desert Rose Band - A Dozen Roses - Greatest Hits (1991) [FLAC]/06 I Still Believe In You.flac Pre-gap length : 00:00:58
Track gain : -1.60 dB Peak : 0.983307 CRC32 hash (test run) : DD2F04E0 CRC32 hash : DD2F04E0 CRC32 hash (skip zero) : 06EFD1AE AccurateRip signature : E411F699 ->Track not present in AccurateRip database. Statistics Read error : 0 Jitter error (maybe fixed) : 0 Retry sector count : 0 Damaged sector count : 0
Track 07 Filename : /Volumes/Public-1/Shared Music/Rips for what.cd/The Desert Rose Band - A Dozen Roses - Greatest Hits (1991) [FLAC]/07 Hello Trouble.flac Pre-gap length : 00:00:63
Track gain : -3.92 dB Peak : 0.918610 CRC32 hash (test run) : F0DBE1C4 CRC32 hash : F0DBE1C4 CRC32 hash (skip zero) : 58F3925D AccurateRip signature : FC6ABF0F ->Track not present in AccurateRip database. Statistics Read error : 0 Jitter error (maybe fixed) : 0 Retry sector count : 0 Damaged sector count : 0
Track 08 Filename : /Volumes/Public-1/Shared Music/Rips for what.cd/The Desert Rose Band - A Dozen Roses - Greatest Hits (1991) [FLAC]/08 Start All Over Again.flac Pre-gap length : 00:00:60
Track gain : -0.35 dB Peak : 0.960114 CRC32 hash (test run) : 590E7C71 CRC32 hash : 590E7C71 CRC32 hash (skip zero) : 9202659F AccurateRip signature : E16B5B42 ->Track not present in AccurateRip database. Statistics Read error : 0 Jitter error (maybe fixed) : 0 Retry sector count : 0 Damaged sector count : 0
Track 09 Filename : /Volumes/Public-1/Shared Music/Rips for what.cd/The Desert Rose Band - A Dozen Roses - Greatest Hits (1991) [FLAC]/09 Story Of Love.flac Pre-gap length : 00:00:72
Track gain : -1.76 dB Peak : 0.780914 CRC32 hash (test run) : E40DCB8C CRC32 hash : E40DCB8C CRC32 hash (skip zero) : 28C7FF4A AccurateRip signature : 742095DA ->Track not present in AccurateRip database. Statistics Read error : 0 Jitter error (maybe fixed) : 0 Retry sector count : 0 Damaged sector count : 0
Track 10 Filename : /Volumes/Public-1/Shared Music/Rips for what.cd/The Desert Rose Band - A Dozen Roses - Greatest Hits (1991) [FLAC]/10 Will This Be The Day.flac Pre-gap length : 00:00:73
Track gain : -5.52 dB Peak : 0.785156 CRC32 hash (test run) : 73954D21 CRC32 hash : 73954D21 CRC32 hash (skip zero) : 1407E930 AccurateRip signature : C1E7BDC6 ->Track not present in AccurateRip database. Statistics Read error : 0 Jitter error (maybe fixed) : 0 Retry sector count : 0 Damaged sector count : 0
Track 11 Filename : /Volumes/Public-1/Shared Music/Rips for what.cd/The Desert Rose Band - A Dozen Roses - Greatest Hits (1991) [FLAC]/11 Come A Little Closer.flac Pre-gap length : 00:01:17
Track gain : -4.82 dB Peak : 0.785126 CRC32 hash (test run) : 4D291DFD CRC32 hash : 4D291DFD CRC32 hash (skip zero) : B741E55A AccurateRip signature : 0C5C4E8C ->Track not present in AccurateRip database. Statistics Read error : 0 Jitter error (maybe fixed) : 0 Retry sector count : 0 Damaged sector count : 0
Track 12 Filename : /Volumes/Public-1/Shared Music/Rips for what.cd/The Desert Rose Band - A Dozen Roses - Greatest Hits (1991) [FLAC]/12 Price I Pay (With Emmylou Harris).flac Pre-gap length : 00:01:33
Track gain : -4.32 dB Peak : 0.847656 CRC32 hash (test run) : E7BD3ABF CRC32 hash : E7BD3ABF CRC32 hash (skip zero) : 6BDB9FF5 AccurateRip signature : B335B1DB ->Track not present in AccurateRip database. Statistics Read error : 0 Jitter error (maybe fixed) : 0 Retry sector count : 0 Damaged sector count : 0
No errors occurred
End of status report

Содержание индексной карты (.CUE)

TITLE "A Dozen Roses - Greatest Hits"PERFORMER "The Desert Rose Band"CATALOG 0715187757127REM GENRE "Rock"REM DATE "1991"REM DISCNUMBER 1REM TOTALDISCS 1REM DISCID A5094E0CREM REPLAYGAIN_ALBUM_GAIN -3.68 dBREM REPLAYGAIN_ALBUM_PEAK 0.985840FILE "01 - Love Reunited.flac" WAVE  TRACK 01 AUDIO    TITLE "Love Reunited"    ISRC USCRB0201414    REM REPLAYGAIN_TRACK_GAIN -3.55 dB    REM REPLAYGAIN_TRACK_PEAK 0.941315    INDEX 01 00:00:00  TRACK 02 AUDIO    TITLE "One Step Forward"    ISRC USCRB0000645    REM REPLAYGAIN_TRACK_GAIN -3.84 dB    REM REPLAYGAIN_TRACK_PEAK 0.966461    INDEX 00 02:57:05FILE "02 - One Step Forward.flac" WAVE    INDEX 01 00:00:00  TRACK 03 AUDIO    TITLE "He's Back And I'm Blue"    ISRC USCRB0201415    REM REPLAYGAIN_TRACK_GAIN -1.43 dB    REM REPLAYGAIN_TRACK_PEAK 0.913574    INDEX 00 03:23:67FILE "03 - He's Back and I'm Blue.flac" WAVE    INDEX 01 00:00:00  TRACK 04 AUDIO    TITLE "She Don't Love Nobody"    SONGWRITER "John Hiatt"    ISRC USCRB0201416    REM REPLAYGAIN_TRACK_GAIN -2.24 dB    REM REPLAYGAIN_TRACK_PEAK 0.985840    INDEX 00 03:06:12FILE "04 - She Don't Love Nobody.flac" WAVE    INDEX 01 00:00:00  TRACK 05 AUDIO    TITLE "Summer Wind"    SONGWRITER "Chris Hillman/Steve Hill"    ISRC USCRB0201417    REM REPLAYGAIN_TRACK_GAIN -2.19 dB    REM REPLAYGAIN_TRACK_PEAK 0.944061    INDEX 00 02:56:65FILE "05 - Summer Wind.flac" WAVE    INDEX 01 00:00:00  TRACK 06 AUDIO    TITLE "I Still Believe in You"    SONGWRITER "Chris Hillman/Steve Hill"    ISRC USCRB0201418    REM REPLAYGAIN_TRACK_GAIN -1.60 dB    REM REPLAYGAIN_TRACK_PEAK 0.983307    INDEX 00 03:26:12FILE "06 - I Still Believe in You.flac" WAVE    INDEX 01 00:00:00  TRACK 07 AUDIO    TITLE "Hello Trouble"    SONGWRITER "Orville Couch/Eddie McDuff"    ISRC USCRB0201419    REM REPLAYGAIN_TRACK_GAIN -3.92 dB    REM REPLAYGAIN_TRACK_PEAK 0.918610    INDEX 00 04:12:07FILE "07 - Hello Trouble.flac" WAVE    INDEX 01 00:00:00  TRACK 08 AUDIO    TITLE "Start All Over Again"    ISRC USCRB0201420    REM REPLAYGAIN_TRACK_GAIN -0.35 dB    REM REPLAYGAIN_TRACK_PEAK 0.960114    INDEX 00 02:03:00FILE "08 - Start All Over Again.flac" WAVE    INDEX 01 00:00:00  TRACK 09 AUDIO    TITLE "Story of Love"    ISRC USCRB0201421    REM REPLAYGAIN_TRACK_GAIN -1.76 dB    REM REPLAYGAIN_TRACK_PEAK 0.780914    INDEX 00 04:29:55FILE "09 - Story of Love.flac" WAVE    INDEX 01 00:00:00  TRACK 10 AUDIO    TITLE "Will This Be the Day"    ISRC USCRB0201422    REM REPLAYGAIN_TRACK_GAIN -5.52 dB    REM REPLAYGAIN_TRACK_PEAK 0.785156    INDEX 00 02:31:70FILE "10 - Will This Be the Day.flac" WAVE    INDEX 01 00:00:00  TRACK 11 AUDIO    TITLE "Come a Little Closer"    ISRC USCRB0201423    REM REPLAYGAIN_TRACK_GAIN -4.82 dB    REM REPLAYGAIN_TRACK_PEAK 0.785126    INDEX 00 03:27:20FILE "11 - Come a Little Closer.flac" WAVE    INDEX 01 00:00:00  TRACK 12 AUDIO    TITLE "Price I Pay (With Emmylou Harris)"    SONGWRITER "Hillman/The Wildes"    ISRC USCRB9900356    REM REPLAYGAIN_TRACK_GAIN -4.32 dB    REM REPLAYGAIN_TRACK_PEAK 0.847656    INDEX 00 03:59:30FILE "12 - Price I Pay.flac" WAVE    INDEX 01 00:00:00

Лог проверки качества

AUDIOCHECKER v2.0 beta (build 457) - by Dester - [email protected]~~~~~~~~~~~~~~~~~~~~~~~~~~~~~~~~~~-=== DO NOT EDIT THIS FILE! ===-
Path: ...\[1991] A Dozen Roses - Greatest Hits
01 -=- 01 - Love Reunited.flac -=- CDDA (99%)02 -=- 02 - One Step Forward.flac -=- CDDA (100%)03 -=- 03 - He's Back and I'm Blue.flac -=- CDDA (100%)04 -=- 04 - She Don't Love Nobody.flac -=- CDDA (100%)05 -=- 05 - Summer Wind.flac -=- CDDA (100%)06 -=- 06 - I Still Believe in You.flac -=- CDDA (100%)07 -=- 07 - Hello Trouble.flac -=- CDDA (100%)08 -=- 08 - Start All Over Again.flac -=- MPEG (95%)09 -=- 09 - Story of Love.flac -=- CDDA (99%)10 -=- 10 - Will This Be the Day.flac -=- CDDA (100%)11 -=- 11 - Come a Little Closer.flac -=- CDDA (100%)12 -=- 12 - Price I Pay.flac -=- CDDA (100%)
Summary 91,92% CDDA
248386260
Доп. информация: Producer – Ed Seay (tracks: 4 to 12), Paul Worley
Barcode: 3252412100558
[doutdess.net].t262470.torrent
Torrent: Registered [ 2018-04-20 16:05 ] · F133592A81B2A84EDEB5C10DDBCB640AC78B6373

21 KB

Status: checked
Completed: 0 times
Size: 254 MB
(Country) [CD] The Desert Rose Band - A Dozen Roses - Greatest Hits - 1991, FLAC (tracks+.cue), lossless скачать торрент бесплатно и без регистрации

[Profile] [PM]
Forum Topic Author Size
Country, Bluegrass lossy (Country) Aaron Goodvin - Aaron Goodvin - 2016, MP3, 320 kbps Vi$itReal 96 MB
Country, Bluegrass lossy (Country) Aaron Watson - Live At The World\'s Biggest Rodeo Show - 2018, MP3, 320 kbps Vi$itReal 127 MB
Country, Bluegrass lossy (Country) Abe Mac Band - A Thousand Pieces - 2017, MP3, 320 kbps Vi$itReal 103 MB
Country, Bluegrass lossy (Country) Adam Brand - Дискография 1999-2016 (14 релизов), MP3, 192-320 kbps Vi$itReal 1.58 GB
Country, Bluegrass lossy (Country) Adam Eckersley, Brooke McClymont - Adam & Brooke - 2018, MP3, 320 kbps Vi$itReal 92 MB
Country, Bluegrass lossy (Country) Adam Hood - Somewhere in Between - 2018, MP3, 320 kbps Vi$itReal 94 MB
Country, Bluegrass lossy (Country) Adam Palm - Morning - 2019, MP3, 320 kbps Vi$itReal 101 MB
Country, Bluegrass lossy (Country) Adley Stump - Discography 2011 - 2017 (1 Album + 1 EP + 5 Single) 192 - 320 kbps Vi$itReal 136 MB
Display posts:    

Current time is: 25-Aug 23:03

All times are UTC + 3



You cannot post new topics in this forum
You cannot reply to topics in this forum
You cannot edit your posts in this forum
You cannot delete your posts in this forum
You cannot vote in polls in this forum
You cannot attach files in this forum
You can download files in this forum