Reply to topic
DL-List and Torrent activity [Update пиров]
Size:  4.26 GB   |    Registered:  1 year 4 months   |    Completed:  0 times
Seeders:  115  [  0 KB/s  ]   Leechers:  5  [  0 KB/s  ]  
 
     
 
 
Author Message

Vi$itReal ®

12

Post 19-Apr-2018 18:25

[Quote]


Жанр: Heavy metal, NWoAHM, Metalcore, Progressive Metal
Год выпуска: 2001-2017
Аудио кодек: FLAC
Тип рипа: tracks+.cue
Формат раздачи: 16/44
Продолжительность: 11:18:58
Исходник для обработки: Дискография; Nightmare; Hail To The King; The Stage; Live at the Grammy Museum
Обработка: Устранение клиппинга, восстановление динамического диапазона.-Studio albums

2001 - Sounding the Seventh Trumpet

01. To End the Rapture (1:24)
02. Turn the Other Way (5:37)
03. Darkness Surrounding (4:49)
04. The Art of Subconscious Illusion [feat. Valary DiBenedetto] (3:46)
05. We Come Out at Night (4:45)
06. Lips of Deceit (4:09)
07. Warmness on the Soul (4:20)
08. An Epic of Time Wasted (4:19)
09. Breaking Their Hold (1:12)
10. Forgotten Faces (3:27)
11. Thick and Thin (4:15)
12. Streets (3:06)
13. Shattered by Broken Dreams (7:06)-Исходное издание: Hopeless Records ‎– HR660-2
Обработка: Проведены деклиппинг, декомпрессия, эквализация.

Спектр, АЧХ, Уровень записи, Динамический диапазон

foobar2000 1.3.9 / Замер динамического диапазона (DR) 1.1.1
Дата отчёта: 2018-04-19 15:09:59
--------------------------------------------------------------------------------
Анализ:   Avenged Sevenfold / Sounding the Seventh Trumpet
--------------------------------------------------------------------------------
DR         Пики          RMS        Продолжительность трека
--------------------------------------------------------------------------------
DR12      -2.70 дБ   -15.80 дБ      1:24 1-To End the Rapture
DR12      -1.14 дБ   -14.81 дБ      5:37 2-Turn the Other Way
DR12      -1.21 дБ   -14.57 дБ      4:49 3-Darkness Surrounding
DR11      -1.53 дБ   -14.14 дБ      3:46 4-The Art of Subconscious Illusion [feat. Valary DiBenedetto]
DR11      -1.06 дБ   -14.57 дБ      4:45 5-We Come Out at Night
DR11      -1.04 дБ   -14.00 дБ      4:09 6-Lips of Deceit
DR14      -1.92 дБ   -17.93 дБ      4:20 7-Warmness on the Soul
DR12      -0.50 дБ   -14.03 дБ      4:19 8-An Epic of Time Wasted
DR11      -1.65 дБ   -14.02 дБ      1:12 9-Breaking Their Hold
DR11      -1.51 дБ   -14.08 дБ      3:27 10-Forgotten Faces
DR12      -1.06 дБ   -14.40 дБ      4:15 11-Thick and Thin
DR12      -1.38 дБ   -14.58 дБ      3:06 12-Streets
DR12      -1.55 дБ   -15.63 дБ      7:06 13-Shattered by Broken Dreams
--------------------------------------------------------------------------------
Количество треков: 13
Реальные значения DR: DR12
Частота:  44100 Гц
Каналов:  2
Разрядность:   16
Битрейт:  903 кбит/с
Кодек:   FLAC

2003 - Waking the Fallen

01. Waking the Fallen (1:42)
02. Unholy Confessions (4:44)
03. Chapter Four (5:43)
04. Remenissions (6:07)
05. Desecrate Through Reverence (5:38)
06. Eternal Rest (5:13)
07. Second Heartbeat (7:00)
08. Radiant Eclipse (6:10)
09. I Won't See You Tonight (Part 1) (8:58)
10. I Won't See You Tonight (Part 2) (4:45)
11. Clairvoyant Disease (5:00)
12. And All Things Will End (7:41)-Исходное издание: Hopeless Records ‎– HR671-2
Обработка: Проведены деклиппинг, декомпрессия, эквализация.

Спектр, АЧХ, Уровень записи, Динамический диапазон

foobar2000 1.3.9 / Замер динамического диапазона (DR) 1.1.1
Дата отчёта: 2018-04-19 15:18:01
--------------------------------------------------------------------------------
Анализ:   Avenged Sevenfold / Waking the Fallen
--------------------------------------------------------------------------------
DR         Пики          RMS        Продолжительность трека
--------------------------------------------------------------------------------
DR11      -1.39 дБ   -14.83 дБ      1:42 1-Waking the Fallen
DR12      -0.75 дБ   -14.35 дБ      4:44 2-Unholy Confessions
DR11      -0.78 дБ   -13.33 дБ      5:43 3-Chapter Four
DR11      -1.20 дБ   -13.75 дБ      6:07 4-Remenissions
DR12      -0.70 дБ   -13.43 дБ      5:38 5-Desecrate Through Reverence
DR12      -0.61 дБ   -13.49 дБ      5:13 6-Eternal Rest
DR11      -0.60 дБ   -12.90 дБ      7:00 7-Second Heartbeat
DR11      -1.44 дБ   -13.75 дБ      6:10 8-Radiant Eclipse
DR11      -1.59 дБ   -14.46 дБ      8:58 9-I Won't See You Tonight (Part 1)
DR11      -1.62 дБ   -13.95 дБ      4:45 10-I Won't See You Tonight (Part 2)
DR12      -0.79 дБ   -13.92 дБ      5:00 11-Clairvoyant Disease
DR12      -1.23 дБ   -14.64 дБ      7:41 12-And All Things Will End
--------------------------------------------------------------------------------
Количество треков: 12
Реальные значения DR: DR11
Частота:  44100 Гц
Каналов:  2
Разрядность:   16
Битрейт:  886 кбит/с
Кодек:   FLAC
Resurrected
01. Waking the Fallen: Resurrected (2:50)
02. Second Heartbeat [alternate version] (6:20)
03. Chapter Four [demo version] (6:24)
04. Remenissions [demo version] (6:12)
05. I Won't See You Tonight (Part 1) [demo version] (6:07)
06. I Won't See You Tonight (Part 2) [demo version] (5:28)
07. Intro/Chapter Four [live in Ventura] (7:10)
08. Desecrate Through Reverence [live in Pomona] (5:44)
09. Eternal Rest [live in Pomona] (5:17)
10. Unholy Confessions [live in Ventura] (5:16)
11. Second Heartbeat [live in Ventura] (7:23)-Исходное издание: Hopeless Records ‎– HR804-2
Обработка: Проведены деклиппинг и декомпрессия.

Спектр, АЧХ, Уровень записи, Динамический диапазон

foobar2000 1.3.9 / Замер динамического диапазона (DR) 1.1.1
Дата отчёта: 2018-04-19 15:19:36
--------------------------------------------------------------------------------
Анализ:   Avenged Sevenfold / Waking the Fallen: Resurrected
--------------------------------------------------------------------------------
DR         Пики          RMS        Продолжительность трека
--------------------------------------------------------------------------------
DR10      -0.91 дБ   -13.47 дБ      2:50 1-Waking the Fallen: Resurrected
DR10      -1.23 дБ   -12.35 дБ      6:20 2-Second Heartbeat [alternate version]
DR10      -0.96 дБ   -12.54 дБ      6:24 3-Chapter Four [demo version]
DR10      -0.90 дБ   -12.40 дБ      6:12 4-Remenissions [demo version]
DR11      -0.98 дБ   -13.02 дБ      6:07 5-I Won't See You Tonight (Part 1) [demo version]
DR10      -1.00 дБ   -12.82 дБ      5:28 6-I Won't See You Tonight (Part 2) [demo version]
DR10      -1.69 дБ   -13.24 дБ      7:10 7-Intro/Chapter Four [live in Ventura]
DR10      -1.34 дБ   -12.64 дБ      5:44 8-Desecrate Through Reverence [live in Pomona]
DR10      -1.90 дБ   -12.51 дБ      5:17 9-Eternal Rest [live in Pomona]
DR10      -1.46 дБ   -13.23 дБ      5:16 10-Unholy Confessions [live in Ventura]
DR9       -1.83 дБ   -12.27 дБ      7:23 11-Second Heartbeat [live in Ventura]
--------------------------------------------------------------------------------
Количество треков: 11
Реальные значения DR: DR10
Частота:  44100 Гц
Каналов:  2
Разрядность:   16
Битрейт:  906 кбит/с
Кодек:   FLAC

2005 - City of Evil

01. Beast and the Harlot (5:41)
02. Burn It Down (4:59)
03. Blinded in Chains (6:34)
04. Bat Country (5:13)
05. Trashed and Scattered (5:53)
06. Seize the Day (5:33)
07. Sidewinder (7:02)
08. The Wicked End (7:11)
09. Strength of the World (9:15)
10. Betrayed (6:48)
11. M.I.A. (8:46)-Исходное издание: Warner Bros. Records ‎– 48613-2
Обработка: Проведены деклиппинг, декомпрессия, эквализация.

Спектр, АЧХ, Уровень записи, Динамический диапазон

foobar2000 1.3.9 / Замер динамического диапазона (DR) 1.1.1
Дата отчёта: 2018-04-19 15:37:50
--------------------------------------------------------------------------------
Анализ:   Avenged Sevenfold / City of Evil
--------------------------------------------------------------------------------
DR         Пики          RMS        Продолжительность трека
--------------------------------------------------------------------------------
DR10      -1.26 дБ   -12.61 дБ      5:41 1-Beast and the Harlot
DR11      -0.92 дБ   -12.46 дБ      4:59 2-Burn It Down
DR10      -1.04 дБ   -13.28 дБ      6:34 3-Blinded in Chains
DR11      -1.11 дБ   -13.37 дБ      5:13 4-Bat Country
DR10      -0.70 дБ   -12.15 дБ      5:53 5-Trashed and Scattered
DR11      -1.67 дБ   -13.87 дБ      5:33 6-Seize the Day
DR11      -1.16 дБ   -13.61 дБ      7:02 7-Sidewinder
DR10      -1.52 дБ   -12.84 дБ      7:11 8-The Wicked End
DR11      -1.05 дБ   -14.01 дБ      9:15 9-Strength of the World
DR11      -1.45 дБ   -13.25 дБ      6:48 10-Betrayed
DR11      -0.88 дБ   -14.17 дБ      8:46 11-M.I.A.
--------------------------------------------------------------------------------
Количество треков: 11
Реальные значения DR: DR11
Частота:  44100 Гц
Каналов:  2
Разрядность:   16
Битрейт:  925 кбит/с
Кодек:   FLAC

2007 - Avenged Sevenfold

01. Critical Acclaim (5:15)
02. Almost Easy (3:55)
03. Scream (4:48)
04. Afterlife (5:53)
05. Gunslinger (4:12)
06. Unbound (The Wild Ride) (5:12)
07. Brompton Cocktail (4:13)
08. Lost (5:03)
09. A Little Piece of Heaven (8:01)
10. Dear God (6:34)
11. Almost Easy [Jam-Along version] [bonus track] (3:56)-Исходное издание: Warner Bros. Records – 303804-2
Обработка: Проведены деклиппинг, декомпрессия, эквализация.

Спектр, АЧХ, Уровень записи, Динамический диапазон

foobar2000 1.3.9 / Замер динамического диапазона (DR) 1.1.1
Дата отчёта: 2018-04-19 15:42:54
--------------------------------------------------------------------------------
Анализ:   Avenged Sevenfold / Avenged Sevenfold
--------------------------------------------------------------------------------
DR         Пики          RMS        Продолжительность трека
--------------------------------------------------------------------------------
DR12      -0.70 дБ   -14.11 дБ      5:15 1-Critical Acclaim
DR11      -1.75 дБ   -13.73 дБ      3:55 2-Almost Easy
DR11      -0.84 дБ   -13.12 дБ      4:48 3-Scream
DR11      -0.80 дБ   -13.36 дБ      5:53 4-Afterlife
DR11      -1.60 дБ   -15.19 дБ      4:12 5-Gunslinger
DR11      -1.59 дБ   -14.45 дБ      5:12 6-Unbound (The Wild Ride)
DR12      -0.89 дБ   -14.02 дБ      4:13 7-Brompton Cocktail
DR11      -1.25 дБ   -13.44 дБ      5:03 8-Lost
DR12      -1.49 дБ   -14.92 дБ      8:01 9-A Little Piece of Heaven
DR11      -1.80 дБ   -14.27 дБ      6:34 10-Dear God
DR12      -1.09 дБ   -14.23 дБ      3:56 11-Almost Easy [Jam-Along version] [bonus track]
--------------------------------------------------------------------------------
Количество треков: 11
Реальные значения DR: DR12
Частота:  44100 Гц
Каналов:  2
Разрядность:   16
Битрейт:  900 кбит/с
Кодек:   FLAC

2008 - Diamonds in the Rough

01. Demons (6:12)
02. Girl I Know (4:24)
03. Crossroads (4:30)
04. Flash of the Blade [Iron Maiden cover] (4:02)
05. Until the End (4:45)
06. Tension (4:51)
07. Walk [Pantera cover] (5:21)
08. The Fight (4:07)
09. Dancing Dead (5:49)
10. Almost Easy [CLA mix] (3:54)
11. Afterlife [alternate version] (5:55)-Исходное издание: Warner Bros. Records - 9362-49870-2
Обработка: Проведены деклиппинг, декомпрессия, эквализация.

Спектр, АЧХ, Уровень записи, Динамический диапазон

foobar2000 1.3.9 / Замер динамического диапазона (DR) 1.1.1
Дата отчёта: 2018-04-19 15:45:18
--------------------------------------------------------------------------------
Анализ:   Avenged Sevenfold / Diamonds in the Rough
--------------------------------------------------------------------------------
DR         Пики          RMS        Продолжительность трека
--------------------------------------------------------------------------------
DR11      -1.85 дБ   -14.26 дБ      6:12 1-Demons
DR10      -1.57 дБ   -12.98 дБ      4:24 2-Girl I Know
DR10      -2.23 дБ   -13.43 дБ      4:30 3-Crossroads
DR11      -1.48 дБ   -13.24 дБ      4:02 4-Flash of the Blade [Iron Maiden cover]
DR11      -1.60 дБ   -13.68 дБ      4:45 5-Until the End
DR11      -1.40 дБ   -13.59 дБ      4:51 6-Tension
DR11      -0.70 дБ   -13.11 дБ      5:21 7-Walk [Pantera cover]
DR11      -2.02 дБ   -14.14 дБ      4:07 8-The Fight
DR12      -1.69 дБ   -15.28 дБ      5:49 9-Dancing Dead
DR10      -1.72 дБ   -12.48 дБ      3:54 10-Almost Easy [CLA mix]
DR12      -0.99 дБ   -14.54 дБ      5:55 11-Afterlife [alternate version]
--------------------------------------------------------------------------------
Количество треков: 11
Реальные значения DR: DR11
Частота:  44100 Гц
Каналов:  2
Разрядность:   16
Битрейт:  921 кбит/с
Кодек:   FLAC

2010 - Nightmare

01. Nightmare (6:14)
02. Welcome to the Family (4:06)
03. Danger Line (5:28)
04. Buried Alive (6:44)
05. Natural Born Killer (5:15)
06. So Far Away (5:27)
07. God Hates Us (5:19)
08. Victim (7:30)
09. Tonight the World Dies (4:41)
10. Fiction (5:13)
11. Save Me (11:11)
12. Lost It All [bonus track] (3:57)-Исходное издание: Warner Bros. Records ‎– WPCR-13880
Обработка: Проведены деклиппинг, декомпрессия, эквализация.

Спектр, АЧХ, Уровень записи, Динамический диапазон

foobar2000 1.3.9 / Замер динамического диапазона (DR) 1.1.1
Дата отчёта: 2018-04-19 15:49:05
--------------------------------------------------------------------------------
Анализ:   Avenged Sevenfold / Nightmare
--------------------------------------------------------------------------------
DR         Пики          RMS        Продолжительность трека
--------------------------------------------------------------------------------
DR11      -0.72 дБ   -12.92 дБ      6:14 1-Nightmare
DR11      -0.61 дБ   -12.65 дБ      4:06 2-Welcome to the Family
DR11      -1.28 дБ   -14.53 дБ      5:28 3-Danger Line
DR12      -0.65 дБ   -14.48 дБ      6:44 4-Buried Alive
DR12      -0.66 дБ   -13.29 дБ      5:15 5-Natural Born Killer
DR11      -0.81 дБ   -13.65 дБ      5:27 6-So Far Away
DR12      -0.48 дБ   -14.48 дБ      5:19 7-God Hates Us
DR11      -1.08 дБ   -14.54 дБ      7:30 8-Victim
DR10      -1.23 дБ   -13.60 дБ      4:41 9-Tonight the World Dies
DR11      -1.68 дБ   -15.37 дБ      5:13 10-Fiction
DR11      -0.78 дБ   -13.68 дБ     11:11 11-Save Me
DR11      -0.80 дБ   -12.21 дБ      3:57 12-Lost It All [bonus track]
--------------------------------------------------------------------------------
Количество треков: 12
Реальные значения DR: DR11
Частота:  44100 Гц
Каналов:  2
Разрядность:   16
Битрейт:  895 кбит/с
Кодек:   FLAC

2013 - Hail to the King

01. Shepherd of Fire (5:24)
02. Hail to the King (5:05)
03. Doing Time (3:27)
04. This Means War (6:09)
05. Requiem (4:24)
06. Crimson Day (4:57)
07. Heretic (4:55)
08. Coming Home (6:26)
09. Planets (5:56)
10. Acid Rain (6:41)
11. St. James [bonus track] (5:01)-Исходное издание: Warner Bros. Records – none
Обработка: Проведен деклиппинг.

Спектр, АЧХ, Уровень записи, Динамический диапазон

foobar2000 1.3.9 / Замер динамического диапазона (DR) 1.1.1
Дата отчёта: 2018-04-19 15:52:50
--------------------------------------------------------------------------------
Анализ:   Avenged Sevenfold / Hail to the King
--------------------------------------------------------------------------------
DR         Пики          RMS        Продолжительность трека
--------------------------------------------------------------------------------
DR13      -1.49 дБ   -16.07 дБ      5:24 1-Shepherd of Fire
DR13      -0.70 дБ   -15.53 дБ      5:05 2-Hail to the King
DR13      -1.10 дБ   -15.47 дБ      3:27 3-Doing Time
DR13      -0.70 дБ   -15.62 дБ      6:09 4-This Means War
DR14      -0.86 дБ   -15.73 дБ      4:24 5-Requiem
DR12      -2.60 дБ   -16.22 дБ      4:57 6-Crimson Day
DR12      -2.44 дБ   -16.42 дБ      4:55 7-Heretic
DR13      -1.65 дБ   -15.76 дБ      6:26 8-Coming Home
DR13      -1.74 дБ   -15.63 дБ      5:56 9-Planets
DR13      -1.46 дБ   -16.92 дБ      6:41 10-Acid Rain
DR11      -2.80 дБ   -16.11 дБ      5:01 11-St. James [bonus track]
--------------------------------------------------------------------------------
Количество треков: 11
Реальные значения DR: DR13
Частота:  44100 Гц
Каналов:  2
Разрядность:   16
Битрейт:  937 кбит/с
Кодек:   FLAC

2016 - The Stage

01. The Stage (8:33)
02. Paradigm (4:19)
03. Sunny Disposition (6:41)
04. God Damn (3:42)
05. Creating God (5:35)
06. Angels (5:41)
07. Simulation (5:31)
08. Higher (6:29)
09. Roman Sky (5:00)
10. Fermi Paradox (6:31)
11. Exist [feat. Neil deGrasse Tyson] (15:39)
12. Dose [bonus track] (4:58)
13. Retrovertigo [Mr. Bungle cover] [bonus track] (4:41)
14. Malagueña Salerosa [traditional cover] [bonus track] (4:15)
15. Runaway [Del Shannon cover] [feat. Warren Fitzgeral] [bonus track] (2:49)
16. As Tears Go By [The Rolling Stones cover] [bonus track] (2:55)
17. Wish You Were Here [Pink Floyd cover] [bonus track] (5:14)
18. God Only Knows [The Beach Boys cover] [bonus track] (3:34)
19. The Stage [live from London] [bonus track] (9:17)
20. Paradigm [live from London] [bonus track] (4:44)
21. Sunny Disposition [live from London] [bonus track] (9:33)
22. God Damn [live from London] [bonus track] (4:44)-Исходное издание: Warner Bros. Records ‎– 48613-2
Обработка: Проведены деклиппинг и декомпрессия.

Примечание: За основу взят CD-вариант альбома, и дополнен бонусами HD-издания.

Спектр, АЧХ, Уровень записи, Динамический диапазон

foobar2000 1.3.9 / Замер динамического диапазона (DR) 1.1.1
Дата отчёта: 2018-04-19 15:57:08
--------------------------------------------------------------------------------
Анализ:   Avenged Sevenfold / The Stage
--------------------------------------------------------------------------------
DR         Пики          RMS        Продолжительность трека
--------------------------------------------------------------------------------
DR14      -0.92 дБ   -16.50 дБ      8:33 1-The Stage
DR14      -0.91 дБ   -15.97 дБ      4:19 2-Paradigm
DR14      -0.95 дБ   -16.35 дБ      6:41 3-Sunny Disposition
DR13      -0.80 дБ   -14.92 дБ      3:42 4-God Damn
DR13      -0.86 дБ   -15.39 дБ      5:35 5-Creating God
DR15      -1.00 дБ   -17.61 дБ      5:41 6-Angels
DR13      -0.85 дБ   -16.17 дБ      5:31 7-Simulation
DR13      -0.84 дБ   -16.17 дБ      6:29 8-Higher
DR12      -2.22 дБ   -17.99 дБ      5:00 9-Roman Sky
DR13      -0.91 дБ   -15.57 дБ      6:31 10-Fermi Paradox
DR14      -0.85 дБ   -16.68 дБ     15:39 11-Exist [feat. Neil deGrasse Tyson]
DR12      -1.23 дБ   -15.35 дБ      4:58 12-Dose [bonus track]
DR12      -1.29 дБ   -14.86 дБ      4:41 13-Retrovertigo [Mr. Bungle cover] [bonus track]
DR13      -1.14 дБ   -15.88 дБ      4:15 14-Malagueña Salerosa [traditional cover] [bonus track]
DR13      -1.55 дБ   -15.86 дБ      2:49 15-Runaway [Del Shannon cover] [feat. Warren Fitzgeral] [bonus track]
DR13      -0.70 дБ   -15.80 дБ      2:55 16-As Tears Go By [The Rolling Stones cover] [bonus track]
DR13      -1.05 дБ   -17.39 дБ      5:14 17-Wish You Were Here [Pink Floyd cover] [bonus track]
DR12      -1.80 дБ   -18.50 дБ      3:34 18-God Only Knows [The Beach Boys cover] [bonus track]
DR13      -1.43 дБ   -16.51 дБ      9:17 19-The Stage [live from London] [bonus track]
DR12      -1.21 дБ   -15.02 дБ      4:44 20-Paradigm [live from London] [bonus track]
DR13      -1.10 дБ   -16.69 дБ      9:33 21-Sunny Disposition [live from London] [bonus track]
DR13      -1.05 дБ   -16.38 дБ      4:44 22-God Damn [live from London] [bonus track]
--------------------------------------------------------------------------------
Количество треков: 22
Реальные значения DR: DR13
Частота:  44100 Гц
Каналов:  2
Разрядность:   16
Битрейт:  840 кбит/с
Кодек:   FLAC
Live

2017 - Live at the Grammy Museum

01. Opening (1:13)
02. Introduction to ''As Tears Go By'' (0:13)
03. As Tears Go By (3:16)
04. Introduction to ''Hail to the King'' (0:29)
05. Hail to the King (5:52)
06. Introduction to ''Roman Sky'' (0:22)
07. Roman Sky (5:41)
08. Introduction to ''Exist'' (0:40)
09. Exist (5:11)
10. Introduction to ''So Far Away'' (1:46)
11. So Far Away (6:29)-Исходное издание: Capitol Records - none
Обработка: Проведен деклиппинг.

Спектр, АЧХ, Уровень записи, Динамический диапазон

foobar2000 1.3.9 / Замер динамического диапазона (DR) 1.1.1
Дата отчёта: 2018-04-19 16:04:41
--------------------------------------------------------------------------------
Анализ:   Avenged Sevenfold / Live at the Grammy Museum®
--------------------------------------------------------------------------------
DR         Пики          RMS        Продолжительность трека
--------------------------------------------------------------------------------
DR11      -3.89 дБ   -19.76 дБ      1:13 1-Opening
DR13      -7.62 дБ   -25.60 дБ      0:13 2-Introduction to ''As Tears Go By''
DR12      -0.78 дБ   -14.17 дБ      3:16 3-As Tears Go By
DR12      -5.31 дБ   -24.51 дБ      0:29 4-Introduction to ''Hail to the King''
DR11      -0.90 дБ   -15.24 дБ      5:52 5-Hail to the King
DR11      -3.95 дБ   -23.07 дБ      0:22 6-Introduction to ''Roman Sky''
DR12      -1.04 дБ   -15.57 дБ      5:41 7-Roman Sky
DR15      -2.52 дБ   -22.44 дБ      0:40 8-Introduction to ''Exist''
DR11      -0.66 дБ   -14.77 дБ      5:11 9-Exist
DR14      -3.90 дБ   -22.99 дБ      1:46 10-Introduction to ''So Far Away''
DR12      -0.50 дБ   -14.37 дБ      6:29 11-So Far Away
--------------------------------------------------------------------------------
Количество треков: 11
Реальные значения DR: DR12
Частота:  44100 Гц
Каналов:  2
Разрядность:   16
Битрейт:  858 кбит/с
Кодек:   FLAC
Misc.

Внеальбомные композиции

Paranoid [Black Sabbath cover] (2:44)
4-00 Am (5:01)
Not Ready to Die (from Call of the Dead) (7:05)
Carry On (4:14)-Примечание: Треки взяты из различных источников. В тегах - вся необходимая информация.

Дополнительная информация

Обработка: Adobe Audition с плагинами Stereo Tool (Perfect Declipper, Natural Dynamics, True Bass), Fabfilter Pro-L 2, Fabfilter Pro-Q 2, TDR Limiter 6 GE, Sonible ProximityEQ+.
Мониторинг результата:
Стационарная аппаратура: NAD D 1050 + Beyerdynamic DT 990 Pro и Rotel RA-10 + Jamo C603
Мобильная аппаратура: Meizu MX2 + Sennheiser CX 980
Примечание: Деклиппинг и восстановление динамического диапазона - не панацея от некачественной записи. Целью реставрации является меньшая усталость при прослушивании, и звучание, приближенное к тому, которое задумывалось звукорежиссером, до вмешательства маркетологов.
Материалы по теме "Война громкости": 1, 2, 3, 4
Другие раздачи в рамках проекта можно найти здесь-19.04.2018: Раздача полностью переделана и расширена.
[doutdess.net].t262272.torrent
Torrent: Registered [ 2018-04-19 18:25 ] · 850F3C93F14C8DA7786D05B525E74B7B1783A5F7

26 KB

Status: checked
Completed: 0 times
Size: 4.26 GB
(Heavy metal, NWoAHM, Metalcore) [16/44] [RM] [restored] [declipped] Avenged Sevenfold - Дискография - 2001-2017, FLAC (tracks+.cue) скачать торрент бесплатно и без регистрации

[Profile] [PM]
Forum Topic Author Size
Караоке аудио (Heavy metal) Judas Priest Несколько караоке в форме презентации, - Vi$itReal 97 MB
Караоке видео (Heavy Metal) Judas Priest, Караоке RelizMAN 1.99 GB
Аудио (Heavy Metal) Metallica - Metallica Только Факты - 2018, MP3, 320 kbps Vi$itReal 290 MB
Аудио (heavy metal) Woman in Rock. Metal part 1, MP3, 320 kbps Vi$itReal 144 MB
Аудио (Heavy Metal) [16/44] [RM] [declipped] Black Sabbath - 13 - 2013, FLAC (tracks+.cue) Vi$itReal 474 MB
Аудио (Heavy metal) [16/44] [RM] [restored] Manilla Road - To Kill A King - 2017, FLAC (image+.cue) Vi$itReal 440 MB
Аудио (Heavy metal) [16/44] [RM] [restored] [declipped] Heaven & Hell - The Devil You Know - 2009, FLAC (image + .cue) Vi$itReal 347 MB
Аудио (Heavy Metal) [16/44] [RM] [restored] [declipped] Judas Priest - Firepower - 2018, FLAC (tracks+.cue) Vi$itReal 381 MB
Display posts:    

Current time is: 25-Aug 23:29

All times are UTC + 3



You cannot post new topics in this forum
You cannot reply to topics in this forum
You cannot edit your posts in this forum
You cannot delete your posts in this forum
You cannot vote in polls in this forum
You cannot attach files in this forum
You can download files in this forum