Reply to topic
DL-List and Torrent activity [Update пиров]
Size:  756 MB   |    Registered:  8 months 6 days   |    Completed:  0 times
Seeders:  944  [  0 KB/s  ]   Leechers:  33  [  0 KB/s  ]  
 
     
 
 
Author Message

RelizMAN ®

11

Post 17-Dec-2018 07:40

[Quote]

Peter Sellers
The Peter Sellers Collection 1955 - 1990 (1990)
- Жанр: Non-Music,Comedy
Носитель: 2MC-Box
Год выпуска: 1990
Лейбл: EMI - ECC 51-52
Страна-производитель: England
Аудио кодек: FLAC
Тип рипа: image+.cue
Формат записи: 24/176,4
Формат раздачи: 16/44,1
Продолжительность: 02:06:21
Тэги в .cue: прописаны
Источник оцифровки: автором раздачи
Код класса состояния винила: VG
Устройство воспроизведения: AKAI GX 95MK2
Головка звукоснимателя: LC-OFC SGX (x2)
Предварительный усилитель: встроенный
АЦП: [email protected]
Программа-оцифровщик: Adobe Audition CS6 5.0.2.
Обработка: удаление артефактов-

Информация об исполнителе:


Питер Селлерс (англ. Peter Sellers, псевдоним; настоящее имя — Ричард Генри Селлерс, англ. Richard Henry Sellers; 8 сентября 1925, Саутси, Хэмпшир, Великобритания — 24 июля 1980, Лондон, Великобритания) — британский актёр. Наибольшую и общемировую известность ему принёс образ придурковатого инспектора Клузо в фильме Блейка Эдвардса «Розовая пантера» 1963 года и его продолжениях.
Неоднократный номинант премий «Оскар» (1960, 1965 и 1980), «Золотой глобус» (1963, 1965, 1976, 1977, 1980 — выиграл), премии Британской киноакадемии (1960 — выиграл, 1963, 1965, 1981) и других. Получил «Золотой глобус» (1980) за главную мужскую роль в фильме-притче «Будучи там».

Трэклист:


Cassette One
Side One:
01. Any Old Iron
02. A Hard Days Night
03. Common Entrance
04. My Old Dutch
05. Can't Buy Me Love
06. Thank Heaven For Little Girls
07. All The Things You Are
08. We'll Let You Know
09. Wouldn't It Be Loverly
10. In A Free State
11. Peter Sellers Sings Rudolph Friml
Side Two:
01. Goodness Gracious Me
02. So Little Time
03. Puttin' On The Smile
04. The Trumpet Volunteer
05. I'm So Ashamed
06. She Loves You
(Inspired By Dr Strangelove)
07. Unchailed Melody
08. Peter Sellers Sings George Gershwin
Cassette Two
Side One:
01. Dance With Me, Henry
02. The Critics
03. Why Worry?
04. Grandpa's Grave
05. Boiled Bananas And Carrots
(Boiled Beef And Carrots)
06. We Need The Money
07. Never Never Land
08. Suddenly It's Folk Song
Side Two:
01. Auntie Rotter
02. Bangers An Mash
03. A Right Bird
04. Help!
05. Singin' In The Rain
06. Party Political Speech
07. The House On The Rue Sichel
(Some Voices Inspired By The Film ''Soft Beds, Hard Battles'')
08. Dipso Calypso
09. Face To Face
10. Balham - Gate way To The South
11. I Haven't Told Her, She Hasn't Told Me
(But We Know It Just The Same)
Directed By [Music Directed By] – Ron Goodwin
Producer – George Martin-Более подробная информация на обложке!

Обложка, кассеты:



Уровень записи, спектр, АЧХ:


Dynamic Range Meter (DR12):

foobar2000 1.1.3 / Dynamic Range Meter 1.1.1log date: 2018-12-16 22:40:33
--------------------------------------------------------------------------------Analyzed: Peter Sellers / The Peter Sellers Collection. Tape One--------------------------------------------------------------------------------
DR Peak RMS Duration Track--------------------------------------------------------------------------------DR10 -1.98 dB -14.77 dB 2:58 ?-01. Any Old IronDR11 -5.42 dB -20.40 dB 1:54 ?-02. A Hard Days NightDR13 -3.04 dB -21.52 dB 5:08 ?-03. Common EntranceDR13 -1.62 dB -21.28 dB 2:53 ?-04. My Old DutchDR12 -5.12 dB -21.64 dB 1:33 ?-05. Can't Buy Me LoveDR14 -0.10 dB -18.09 dB 2:34 ?-06. Thank Heaven For Little GirlsDR11 -4.61 dB -18.59 dB 2:12 ?-07. All The Things You AreDR15 -3.41 dB -24.97 dB 3:38 ?-08. We'll Let You KnowDR13 -0.10 dB -19.35 dB 6:05 ?-09. Wouldn't It Be LoverlyDR13 -2.32 dB -20.27 dB 2:03 ?-10. In A Free StateDR13 -4.50 dB -21.94 dB 0:55 ?-11. Peter Sellers Sings Rudolph FrimlDR12 -0.22 dB -17.03 dB 3:05 ?-01. Goodness Gracious MeDR15 0.00 dB -20.65 dB 6:38 ?-02. So Little TimeDR11 -1.13 dB -16.52 dB 5:30 ?-03. Puttin' On The SmileDR10 0.00 dB -13.01 dB 7:27 ?-04. The Trumpet VolunteerDR10 -0.34 dB -12.32 dB 3:02 ?-05. I'm So AshamedDR11 -0.10 dB -16.56 dB 2:23 ?-06. She Loves You (Inspired By Dr Strangelove)DR11 -0.67 dB -14.17 dB 2:54 ?-07. Unchailed MelodyDR8 -2.01 dB -16.09 dB 0:16 ?-08. Peter Sellers Sings George Gershwin--------------------------------------------------------------------------------
Number of tracks: 19Official DR value: DR12
Samplerate: 44100 HzChannels: 2Bits per sample: 16Bitrate: 849 kbpsCodec: FLAC================================================================================-foobar2000 1.1.3 / Dynamic Range Meter 1.1.1log date: 2018-12-16 22:38:17
--------------------------------------------------------------------------------Analyzed: Peter Sellers / The Peter Sellers Collection. Tape Two--------------------------------------------------------------------------------
DR Peak RMS Duration Track--------------------------------------------------------------------------------DR13 -2.99 dB -19.36 dB 3:18 ?-01. Dance With Me, HenryDR15 -0.10 dB -21.44 dB 6:34 ?-02. The CriticsDR14 -3.87 dB -21.77 dB 2:28 ?-03. Why Worry?DR13 -0.10 dB -17.52 dB 3:20 ?-04. Grandpa's GraveDR11 -4.13 dB -17.04 dB 2:21 ?-05. Boiled Bananas And Carrots (Boiled Beef And Carrots)DR12 -3.35 dB -18.60 dB 5:47 ?-06. We Need The MoneyDR11 -1.64 dB -15.14 dB 2:29 ?-07. Never Never LandDR12 -1.94 dB -18.45 dB 5:20 ?-08. Suddenly It's Folk SongDR10 -4.74 dB -18.30 dB 3:09 ?-01. Auntie RotterDR12 -0.10 dB -17.72 dB 2:37 ?-02. Bangers An MashDR11 -4.06 dB -19.55 dB 1:53 ?-03. A Right BirdDR11 -4.05 dB -18.42 dB 2:29 ?-04. Help!DR13 -0.51 dB -15.98 dB 2:16 ?-05. Singin' In The RainDR11 -2.86 dB -17.14 dB 3:04 ?-06. Party Political SpeechDR12 -0.10 dB -15.76 dB 4:51 ?-07. The House On The Rue Sichel (Some Voices Inspired By The Film ''Soft Beds, Hard Battles'')DR11 -2.41 dB -16.01 dB 2:57 ?-08. Dipso CalypsoDR13 -3.87 dB -20.34 dB 2:13 ?-09. Face To FaceDR11 -2.94 dB -17.30 dB 6:05 ?-11. I Haven't Told Her, She Hasn't Told Me(But We Know It Just The Same)--------------------------------------------------------------------------------
Number of tracks: 18Official DR value: DR12
Samplerate: 44100 HzChannels: 2Bits per sample: 16Bitrate: 800 kbpsCodec: FLAC================================================================================

.cue txt:

REM GENRE "Non-Music,Comedy "REM DATE "1990"REM COMMENT "Cassette, Compilation, Stereo, Mono, EMI - ECC 51-52, England"PERFORMER "Peter Sellers"TITLE "The Peter Sellers Collection. Tape One"FILE "01. Tape 1 - Side 1.flac" WAVE  TRACK 01 AUDIO    TITLE "01. Any Old Iron"    INDEX 01 00:00:00  TRACK 02 AUDIO    TITLE "02. A Hard Days Night"    INDEX 01 02:58:21  TRACK 03 AUDIO    TITLE "03. Common Entrance"    INDEX 01 04:51:60  TRACK 04 AUDIO    TITLE "04. My Old Dutch"    INDEX 01 10:00:19  TRACK 05 AUDIO    TITLE "05. Can't Buy Me Love"    INDEX 01 12:53:53  TRACK 06 AUDIO    TITLE "06. Thank Heaven For Little Girls"    INDEX 01 14:26:51  TRACK 07 AUDIO    TITLE "07. All The Things You Are"    INDEX 01 17:01:09  TRACK 08 AUDIO    TITLE "08. We'll Let You Know"    INDEX 01 19:13:15  TRACK 09 AUDIO    TITLE "09. Wouldn't It Be Loverly"    INDEX 01 22:51:04  TRACK 10 AUDIO    TITLE "10. In A Free State"    INDEX 01 28:55:49  TRACK 11 AUDIO    TITLE "11. Peter Sellers Sings Rudolph Friml"    INDEX 01 30:58:32FILE "02. Tape 1 - Side 2.flac" WAVE  TRACK 12 AUDIO    TITLE "01. Goodness Gracious Me"    INDEX 01 00:00:00  TRACK 13 AUDIO    TITLE "02. So Little Time"    INDEX 01 03:05:17  TRACK 14 AUDIO    TITLE "03. Puttin' On The Smile"    INDEX 01 09:43:37  TRACK 15 AUDIO    TITLE "04. The Trumpet Volunteer"    INDEX 01 15:13:54  TRACK 16 AUDIO    TITLE "05. I'm So Ashamed"    INDEX 01 22:40:44  TRACK 17 AUDIO    TITLE "06. She Loves You (Inspired By Dr Strangelove)"    INDEX 01 25:42:26  TRACK 18 AUDIO    TITLE "07. Unchailed Melody"    INDEX 01 28:05:22  TRACK 19 AUDIO    TITLE "08. Peter Sellers Sings George Gershwin"    INDEX 01 30:59:30-REM GENRE "Non-Music,Comedy "REM DATE "1990"REM COMMENT "Cassette, Compilation, Stereo, Mono, EMI - ECC 51-52, England"PERFORMER "Peter Sellers"TITLE "The Peter Sellers Collection. Tape Two"FILE "03. Tape 2 - Side 1.flac" WAVE  TRACK 01 AUDIO    TITLE "01. Dance With Me, Henry"    INDEX 01 00:00:00  TRACK 02 AUDIO    TITLE "02. The Critics"    INDEX 01 03:18:22  TRACK 03 AUDIO    TITLE "03. Why Worry?"    INDEX 01 09:52:35  TRACK 04 AUDIO    TITLE "04. Grandpa's Grave"    INDEX 01 12:20:64  TRACK 05 AUDIO    TITLE "05. Boiled Bananas And Carrots (Boiled Beef And Carrots)"    INDEX 01 15:40:60  TRACK 06 AUDIO    TITLE "06. We Need The Money"    INDEX 01 18:02:12  TRACK 07 AUDIO    TITLE "07. Never Never Land"    INDEX 01 23:49:37  TRACK 08 AUDIO    TITLE "08. Suddenly It's Folk Song"    INDEX 01 26:18:17FILE "04. Tape 2 - Side 2.flac" WAVE  TRACK 09 AUDIO    TITLE "01. Auntie Rotter"    INDEX 01 00:00:00  TRACK 10 AUDIO    TITLE "02. Bangers An Mash"    INDEX 01 03:08:43  TRACK 11 AUDIO    TITLE "03. A Right Bird"    INDEX 01 05:45:22  TRACK 12 AUDIO    TITLE "04. Help!"    INDEX 01 07:38:34  TRACK 13 AUDIO    TITLE "05. Singin' In The Rain"    INDEX 01 10:07:17  TRACK 14 AUDIO    TITLE "06. Party Political Speech"    INDEX 01 12:23:28  TRACK 15 AUDIO    TITLE "07. The House On The Rue Sichel (Some Voices Inspired By The Film ''Soft Beds, Hard Battles'')"    INDEX 01 15:27:46  TRACK 16 AUDIO    TITLE "08. Dipso Calypso"    INDEX 01 20:18:53  TRACK 17 AUDIO    TITLE "09. Face To Face"    INDEX 01 23:15:58  TRACK 18 AUDIO    TITLE "10. Balham - Gate way To The South"    INDEX 01 25:28:49  TRACK 18 AUDIO    TITLE "11. I Haven't Told Her, She Hasn't Told Me(But We Know It Just The Same)"    INDEX 01 31:33:13
- -
[doutdess.net].t309275.torrent
Torrent: Registered [ 2018-12-17 07:40 ] · 0BC70595BD8071951339C75B53E6D9FE8CB6A0F1

31 KB

Status: checked
Completed: 0 times
Size: 756 MB
(Non-Music,Comedy) [2MC-Box] [16/44,1] Peter Sellers - The Peter Sellers Collection 1955-1990 (Series EMI Comedy Classics. Classic songs, sketches and previously unreleased material. Producer George Martin) - 1990, FLAC (image+.cue) скачать торрент бесплатно и без регистрации

[Profile] [PM]
Forum Topic Author Size
Этническая музыка Африки и Ближнего Востока lossless (Non-Music, Folk, World, & Country) [WEB] VA - Listen All Around: The Golden Age of Central and East African Music - 2018, FLAC (tracks), lossless RelizMAN 416 MB
Собственные оцифровки Шансон и Авторская песня lossless (Non-Music, Poetry) [LP] [16/44,1] Евгений Евтушенко – "Голубь В Сантьяго" И Другие Стихи. Читает Автор - 1980, FLAC (image+.cue) Vi$itReal 246 MB
Аудио (Non-Music, Spoken Word) [LP] [24/96] Cassius Clay - I Am The Greatest! - 1963, FLAC (tracks+.cue) Vi$itReal 747 MB
Display posts:    

Current time is: 23-Aug 19:05

All times are UTC + 3



You cannot post new topics in this forum
You cannot reply to topics in this forum
You cannot edit your posts in this forum
You cannot delete your posts in this forum
You cannot vote in polls in this forum
You cannot attach files in this forum
You can download files in this forum