Reply to topic
DL-List and Torrent activity [Update пиров]
Size:  334 MB   |    Registered:  1 year 4 months   |    Completed:  0 times
Seeders:  726  [  0 KB/s  ]   Leechers:  3  [  0 KB/s  ]  
 
     
 
 
Author Message

Vi$itReal ®

12

Post 18-Apr-2018 23:00

[Quote]

Мария Власова - Сад снов
Жанр: Accordion, Classical
Страна-производитель диска: Russia
Год издания диска: 2012
Издатель (лейбл): ART Classics
Номер по каталогу: ART-250
Аудиокодек: FLAC
Тип рипа: image+.cue
Битрейт аудио: lossless
Продолжительность: 1:07:32
Источник: собственный рип
Наличие сканов в содержимом раздачи: да
Треклист:
01. La Campanella (Никколо Паганини, Ференц Лист, Ферруччио Бузони, Флип Филлипс) - 5:08
02. Сад снов для аккордеона и виолончели (Михаил Броннер) - 11:30
03. Ночные цветы, интермеццо для аккордеона и фортепиано (Татьяна Сергеева) - 3:07
04. Жасмин, танго для аккордеона и фортепиано (Татьяна Сергеева) - 9:07
05. Andante фа мажор для механического органа KV 616 (Вольфганг Моцарт) - 7:18
06. Who Is The Puppet? для аккордеона соло (А. Васильев) - 5:39
07. Тюльпан багряный, поэма для аккордеона соло (Марина Шмотова) - 7:14
08. Легкомысленный этюд для аккордеона и маримбы (Ефрем Подгайц) - 1:57
09. Танцующий эльф для кларнета и аккордеона (Ефрем Подгайц) - 3:28
10. El Y Ella, испанские сцены на стихи Федерико Гарсия Лорки для сопрано, скрипки, гитары, аккордеона и чтеца (Татьяна Шатковская-Айзенберг) - 12:59
Исполнители:
01-10 - Мария Власова (аккордеон)
02 - Александр Бузлов (виолончель)
03,04 - Татьяна Сергеева (фортепиано)
08 - Виктор Сыч (маримба)
09 - Евгения Варавко (кларнет)
10 - Наталья Семенова (сопрано), Рамон Айзенберг (мелодекламация), Елена Кайдановская (скрипка), Никита Морозов (гитара)

Лог создания рипа

Exact Audio Copy V1.0 beta 2 from 29. April 2011
EAC extraction logfile from 17. April 2018, 23:36
Maria Vlasova / Dreams Garden
Used drive : Optiarc DVD RW AD-5280S Adapter: 1 ID: 1
Read mode : SecureUtilize accurate stream : YesDefeat audio cache : YesMake use of C2 pointers : No
Read offset correction : 48Overread into Lead-In and Lead-Out : NoFill up missing offset samples with silence : YesDelete leading and trailing silent blocks : NoNull samples used in CRC calculations : YesUsed interface : Installed external ASPI interface
Used output format : User Defined EncoderSelected bitrate : 128 kBit/sQuality : HighAdd ID3 tag : NoCommand line compressor : C:\Program Files\FLAC\flac.exeAdditional command line options : -V -8 -T "Genre=%genre%" -T "Artist=%artist%" -T "Title=%title%" -T "Album=%albumtitle%" -T "Date=%year%" -T "Tracknumber=%tracknr%" -T "Comment=%comment%" %source%
TOC of the extracted CD
Track | Start | Length | Start sector | End sector --------------------------------------------------------- 1 | 0:00.00 | 5:08.07 | 0 | 23106 2 | 5:08.07 | 11:30.06 | 23107 | 74862 3 | 16:38.13 | 3:07.05 | 74863 | 88892 4 | 19:45.18 | 9:07.40 | 88893 | 129957 5 | 28:52.58 | 7:18.58 | 129958 | 162865 6 | 36:11.41 | 5:39.49 | 162866 | 188339 7 | 41:51.15 | 7:14.51 | 188340 | 220940 8 | 49:05.66 | 1:57.64 | 220941 | 229779 9 | 51:03.55 | 3:28.59 | 229780 | 245438 10 | 54:32.39 | 12:59.66 | 245439 | 303929
Range status and errors
Selected range
Filename C:\Maria Vlasova (2012) - Dreams Garden\Maria Vlasova (2012) - Dreams Garden.wav
Peak level 99.4 % Extraction speed 4.1 X Range quality 99.9 % Test CRC 3779BFF7 Copy CRC 3779BFF7 Copy OK
No errors occurred
AccurateRip summary
Track 1 not present in databaseTrack 2 not present in databaseTrack 3 not present in databaseTrack 4 not present in databaseTrack 5 not present in databaseTrack 6 not present in databaseTrack 7 not present in databaseTrack 8 not present in databaseTrack 9 not present in databaseTrack 10 not present in database
None of the tracks are present in the AccurateRip database
End of status report
==== Log checksum 7B5C2410996AC1B0BDF0CB36FE0E57994003E4C137B254DED76A6A3E903B484E ====

Содержание индексной карты (.CUE)

REM GENRE ClassicalREM DATE 2012REM DISCID 730FD40AREM COMMENT "ExactAudioCopy v1.0b2"PERFORMER "Maria Vlasova"TITLE "Dreams Garden"FILE "Maria Vlasova (2012) - Dreams Garden.flac" WAVE  TRACK 01 AUDIO    TITLE "La Campanella"    PERFORMER "Maria Vlasova"    FLAGS DCP    INDEX 01 00:00:00  TRACK 02 AUDIO    TITLE "Dreams Garden for accordion and cello"    PERFORMER "Maria Vlasova"    FLAGS DCP    INDEX 01 05:08:07  TRACK 03 AUDIO    TITLE "Night Flowers intermezzo for accordion and piano"    PERFORMER "Maria Vlasova"    FLAGS DCP    INDEX 01 16:38:13  TRACK 04 AUDIO    TITLE "Jasmine Tango for accordion and piano"    PERFORMER "Maria Vlasova"    FLAGS DCP    INDEX 01 19:45:18  TRACK 05 AUDIO    TITLE "Andante in F Major for mechanical organ KV 616"    PERFORMER "Maria Vlasova"    FLAGS DCP    INDEX 01 28:52:58  TRACK 06 AUDIO    TITLE "Who Is the Puppet? for solo accordion"    PERFORMER "Maria Vlasova"    FLAGS DCP    INDEX 01 36:11:41  TRACK 07 AUDIO    TITLE "Scarlet Tulip poem for solo accordion"    PERFORMER "Maria Vlasova"    FLAGS DCP    INDEX 01 41:51:15  TRACK 08 AUDIO    TITLE "Frivolous Etude for accordion and marimba"    PERFORMER "Maria Vlasova"    FLAGS DCP    INDEX 01 49:05:66  TRACK 09 AUDIO    TITLE "Dancing Elf for clarinet and accordion"    PERFORMER "Maria Vlasova"    FLAGS DCP    INDEX 01 51:03:55  TRACK 10 AUDIO    TITLE "El y Ella spanish scenes for soprano, violin, guitar, accordion and reciter"    PERFORMER "Maria Vlasova"    FLAGS DCP    INDEX 01 54:32:39

Доп. информация

Мария Власова родилась во Владимире. Окончила Российскую академию музыки имени Гнесиных и ассистентуру-стажировку по специальности баян (класс профессора Ф. Р. Липса). В 2013 году защитила диссертацию на соискание ученой степени кандидата искусствоведения «Творчество Михаила Броннера для баяна» (РАМ имени Гнесиных). Лауреат престижных международных конкурсов в России, Германии, Италии, Испании и Китае. Участница фестивалей «Московская осень», «Баян и баянисты», «Возвращение», «Мост Александра III»  (Москва), «Преображение» (Ярославль), «Дни аккордеона» (Сербия), «Фогтландские дни музыки» (Германия), LesHeuresConcertantesdeTouraine и  Rencontres Musicales Internationales de Graves (Франция), Canterburyinternationalmusicfestival (Англия) и других. Выступала с Государственным академическим симфоническим оркестром России имени Е. Ф. Светланова (дирижер В. Юровский), МГАСО под управлением П. Когана, Камерным оркестром «Времена года» (дирижер В. Булахов), Камерным оркестром KREMLIN (дирижер М. Рахлевский), Государственным ансамблем солистов «Орфарион» (дирижер О. Худяков), Камерным оркестром Тверской филармонии «Российская Камерата» (дирижер А. Кружков), Вологодским губернаторским оркестром русских народных инструментов (дирижер Г. Перевозникова), Нижегородским русским народным оркестром (дирижер В. Кузнецов), Орловским Губернаторским симфоническим оркестром (дирижер В. Шкапцов) и другими коллективами.  С сольными концертами выступала в Австрии, Англии, Германии, Дании, Польше, США, Украине,  Франции,  Швейцарии,  а также во многих городах России. В репертуаре Марии Власовой, наряду с оригинальными сочинениями для баяна, такие крупные циклы, как «Хорошо темперированный клавир», «Французские сюиты» и «Гольдберг -вариации» И. С. Баха, Ludus tonalis П. Хиндемита, «Рождение Господа» – девять медитаций для органа О. Мессиана, «Времена года» П. Чайковского, «Картинки с выставки» М. Мусоргского. С  2007 года Мария Власова участвует в концертах Московской государственной академической филармонии. С 2008 года совместно со Святославом Липсом возглавляет дирекцию международного фестиваля классической и современной музыки «Рандеву…» (Москва).К 2017 году исполнительница записала шесть сольных компакт-дисков: «Рождение Господа», «Силуэт», «П. Чайковский „Времена года“ – М. Мусоргский „Картинки с выставки“», «Ожидание нежности», «Сад снов», «Серьезные вариации».
http://www.artsmusic.ru/CL/Vlasova/cd_05.html
[doutdess.net].t262152.torrent
Torrent: Registered [ 2018-04-18 23:00 ] · 90AC3838CBC41D0977EFEF4B7D5F247287F63201

14 KB

Status: checked
Completed: 0 times
Size: 334 MB
(Accordion, Classical) Н.Паганини, Ф.Лист, Ф.Бузони, Ф.Филлипс - La Campanella; М.Броннер - Сад снов; Т.Сергеева - Ночные цветы; В.Моцарт - Andante фа мажор KV 616; и др. (Мария Власова, аккордеон - Сад снов) 2012, FLAC (image+.cue) lossless скачать торрент бесплатно и без регистрации

[Profile] [PM]
Forum Topic Author Size
Камерная инструментальная музыка в lossless (Accordion, Classical) Е. Подгайц - Ожидание нежности; М. Броннер - Адам и Ева, И снова осень…; Г. Пьерне - Канцонетта Op. 19; Т. Сергеева - Амариллис (Мария Власова, аккордеон) - Ожидание нежности -... Vi$itReal 275 MB
Концерт для инструмента с оркестром в lossless (Accordion, Classical) И. Цветков - Прощальный вальс, Е. Дога - Парижский каскад, И. Шварц - Элегия, Семь слов Христа на кресте - Софья Губайдулина (Николай Кравцов - Музыка для акк... RelizMAN 321 MB
Display posts:    

Current time is: 23-Aug 18:44

All times are UTC + 3



You cannot post new topics in this forum
You cannot reply to topics in this forum
You cannot edit your posts in this forum
You cannot delete your posts in this forum
You cannot vote in polls in this forum
You cannot attach files in this forum
You can download files in this forum