Reply to topic
DL-List and Torrent activity [Update пиров]
Size:  4.36 GB   |    Registered:  1 year 6 months   |    Completed:  0 times
Seeders:  173  [  0 KB/s  ]   Leechers:  42  [  0 KB/s  ]  
 
     
 
 
Author Message

RelizMAN ®

11

Post 07-Feb-2018 19:00

[Quote]

Вячеслав Малежик. Юбилейный концертСтрана: Россия
Жанр: Pop, Shanson
Продолжительность: 02:56:27
Год выпуска: 2017 г.
Описание: Композитор, популярный исполнитель, писатель, поэт, заслуженный артист России Вячеслав Малежик отмечает 17 февраля 2017 года свой 70-летний юбилей. В этот день он даст концерт и споёт со своими друзьями любимые народом песни на сцене Государственного Кремлёвского Дворца.
«Я очень жду этого концерта и хочу подвести некоторые промежуточные итоги того, что я успел «натворить» в своей жизни, – смеется музыкант. – А поскольку это будет мой день рождения, я пригласил на него людей, которые симпатичны мне по жизни и в творчестве».
Вячеслав Малежик выпустил более 30 альбомов, а его песни «Двести лет», «Попутчица», «Мозаика», «Туман в декабре», «Подарок», «Провинциалка», «Острова» принесли ему всенародную любовь и славу.
Поздравить юбиляра и исполнить созданные им песни придут Сергей Трофимов, Алёна Апина, Николай Фоменко, Максим Леонидов, арт-группа «Сопрано Турецкого», лидер группы «Чиж и Кo» Сергей Чиграков, Виктор Салтыков, Теймураз Боджгуа, Екатерина Семёнова, ансамбли «Самоцветы», «Синяя птица», «Люди встречаются», «Ялла», «Пламя», «Голубые гитары», Варвара Визбор и другие.-Источник: Собственный рип
Доп. информация: Рип чистый. Без посторонних надписей. Выкладывается как есть.

Качество: DVB
Контейнер: TS
Видео кодек: H.264
Аудио кодек: MP2
Видео: MPEG2 Video, 720x576 (@768x576), 4:3, 25.00fps, 3 107 Kbps, 0.300 bit/pixel
Аудио: MPEG Audio 48000Hz stereo 256 Кбит/сек

Треклист:

01. Вячеслав Малежик - «Попурри»;
02. Вячеслав Малежик - «Любимые песни нашей компании»;
03. Вячеслав Малежик - «Встреча»;
04. Вячеслав Малежик - «Любовь на 1000 катастроф»;
05. Вячеслав Малежик - «Всё мне кажется»;
06. Вячеслав Малежик - «На последнем сеансе кино»;
07. Вячеслав Малежик - «Иди на встречу»;
08. Вячеслав Малежик / Группа «Люди встречаются» - «Лето»;
09. Вячеслав Малежик - «Счастье»;
10. Вячеслав Малежик - «Первый поцелуй»;
11. Вячеслав Малежик / ВИА «Пламя» - «Когда мы любим»;
12. Вячеслав Малежик / ВИА «Пламя» - «Аты-баты»;
13. Вячеслав Малежик / Олег Завьялов - «Скорый поезд»;
14. Вячеслав Малежик / ВИА «Синяя птица» - «Гадание»;
15. Арт-группа «SOPRANO Турецкого» - «Зима, зима»;
16. Вячеслав Малежик - «Гололёд»;
17. Вячеслав Малежик - «Пингвин»;
18. Вячеслав Малежик - «Один на льдине»;
19. Вячеслав Малежик - «200 лет»;
20. Вячеслав Малежик - «Пусть в камине твоём завьются...»;
21. Вячеслав Малежик - «Первая любовь»;
22. Вячеслав Малежик - «Загородная»;
23. Вячеслав Малежик / Катя Семёнова - «Анталья»;
24. Вячеслав Малежик / Андрей Косинский - «На Гаити»;
25. Вячеслав Малежик / Таис Урумидис - «Блюз для тебя»;
26. Вячеслав Малежик - «Аукает весна»;
27. Ансамбль «Ялла» - «Ты мне нравишься»;
28. Вячеслав Малежик / Виктор Салтыков / Теймураз Боджгуа - «Изабелла»;
29. Вячеслав Малежик / Анжелика Минасова - «До свидания»;
30. Вячеслав Малежик - «Пробка»;
31. Варвара Визбор - «Мёртвый сезон»;
32. Вячеслав Малежик / Сергей Трофимов - «Жизни не хватит»;
33. Алёна Апина - «Смолоду»;
34. Вячеслав Малежик / ВИА «Самоцветы» - «Острова»;
35. Вячеслав Малежик / Александр Чиченков - «Как умел, так и жил»;
36. Вячеслав Малежик - «Мозайка»;
37. Вячеслав Малежик - «Может, я бы попал в рай...».

Скриншоты

Скринлист

Отчёт MediaInfo

ОбщееИдентификатор                            : 1 (0x1)Полное имя                               : G:\Раздачи\Программы, передачи, шоу, спектакли\Концерты\Вячеслав Малежик. Юбилейный концерт (2017, DVB, Эфир от 28.10.2017) (by Nokia5150.tsФормат                                   : MPEG-TSРазмер файла                             : 4,36 ГбайтПродолжительность                        : 2 ч. 56 м.Режим общего битрейта                    : ПеременныйОбщий поток                              : 3541 Кбит/сек
ВидеоИдентификатор : 2677 (0xA75)Идентификатор меню : 677 (0x2A5)Формат : MPEG VideoВерсия формата : Version 2Профиль формата : [email protected]Настройки формата : CustomMatrix / BVOPПараметр BVOP формата : ДаПараметр матрицы формата : ВыборочнаяПараметр GOP формата : M=3, N=24Структура изображения : FrameИдентификатор кодека : 2Продолжительность : 2 ч. 56 м.Вид битрейта : ПеременныйБитрейт : 3107 Кбит/секМаксимальный битрейт : 15,0 Мбит/секШирина : 720 пикселейВысота : 576 пикселейСоотношение сторон : 4:3Частота кадров : 25,000 кадров/секСтандарт вещания : PALЦветовое пространство : YUVСубдискретизация насыщенности : 4:2:0Битовая глубина : 8 битТип развёртки : ЧересстрочнаяПорядок развёртки : Верхнее поле первоеМетод сжатия : С потерямиБит/(Пиксели*Кадры) : 0.300Временной код первого кадра : 00:00:00:00Оригинал временного кода : Group of pictures headerGOP, открыто/закрыто : ОткрытоGOP, открыто/закрыто на первом кадре : ЗакрытоРазмер потока : 3,83 Гбайт (88%)
АудиоИдентификатор : 3677 (0xE5D)Идентификатор меню : 677 (0x2A5)Формат : MPEG AudioВерсия формата : Version 1Профиль формата : Layer 2Идентификатор кодека : 3Продолжительность : 2 ч. 56 м.Вид битрейта : ПостоянныйБитрейт : 256 Кбит/секКаналы : 2 каналаЧастота : 48,0 КГцМетод сжатия : С потерямиЗадержка видео : 7 мс.Размер потока : 323 Мбайт (7%)Язык : English

[doutdess.net].t245364.torrent
Torrent: Registered [ 2018-02-07 19:00 ] · 133F46FF99A03BA9DFCD6AAD0FCFB226E49CEC6A

11 KB

Status: checked
Completed: 0 times
Size: 4.36 GB
Вячеслав Малежик. Юбилейный концерт (Эфир от 28.10.2017) [2017, Pop, Shanson, DVB] скачать торрент бесплатно и без регистрации

[Profile] [PM]
Forum Topic Author Size
Собственные оцифровки классическая музыка (Classical) [LP] [24/96] Vyacheslav Artyomov / Вячеслав Артёмов ‎– Symphony Of Elegies - 1984, APE (tracks+.cue) Vi$itReal 751 MB
Камерная и сольная инструментальная музыка lossy (Classical) Вячеслав Галкин (баян) (Bach, Репников, Oki-Al\'ba, Strauss) - Не указан, MP3 (tracks) 320 kbps RelizMAN 116 MB
Отечественный шансон lossless (Pop) [CD] ВОРОН LIGHT (Вячеслав Ворон) - Чтобы всех колбасило! - 2001, WavPack (image+.cue), lossless Vi$itReal 425 MB
Авторская песня lossless (Rock, Авторская песня) [WEB] Вячеслав Малежик - Альбом - 2018, FLAC (tracks), lossless RelizMAN 288 MB
Саундтреки к отечественным фильмам lossless (Score) Иваново детство [Andrey Tarkovsky vol. 1. - Ivanovo Detstvo] (Вячеслав Овчинников) - 1995 (1962), FLAC (tracks+.cue), lossless Vi$itReal 87 MB
Саундтреки собственные оцифровки (Soundtrack) [Flexi] [Mono] [24/96] Поёт Вячеслав Тихонов - Песни из кинофильмов ("Кругозор №2, стр.№12) - 1981, FLAC (image+.cue) RelizMAN 87 MB
Собственные оцифровки Шансон и Авторская песня lossless (Авторская песня) [LP][24/96] Вячеслав Малежик - Улочки-переулочки... - 1989, APE (image+.cue), lossless Vi$itReal 843 MB
Авторская песня lossy (Авторская песня) Вячеслав Ковалёв. Дискография 1994 - 2013 (7 CD), MP3 (tracks), 320 kbps Vi$itReal 735 MB
Display posts:    

Current time is: 23-Aug 18:43

All times are UTC + 3



You cannot post new topics in this forum
You cannot reply to topics in this forum
You cannot edit your posts in this forum
You cannot delete your posts in this forum
You cannot vote in polls in this forum
You cannot attach files in this forum
You can download files in this forum